osu file format v14

[General]
AudioFilename: audio.mp3
AudioLeadIn: 0
PreviewTime: 82940
Countdown: 0
SampleSet: Soft
StackLeniency: 0.7
Mode: 0
LetterboxInBreaks: 0
WidescreenStoryboard: 0

[Editor]
DistanceSpacing: 1
BeatDivisor: 4
GridSize: 32
TimelineZoom: 3.399999

[Metadata]
Title:Marionette
TitleUnicode:Marionette
Artist:Memme
ArtistUnicode:Memme
Creator:Gamu
Version:Kagetsu's Another
Source:O2Jam U
Tags:ParkMemme kagetsu
BeatmapID:1503150
BeatmapSetID:690608

[Difficulty]
HPDrainRate:6
CircleSize:3.8
OverallDifficulty:7
ApproachRate:9
SliderMultiplier:1.75
SliderTickRate:1

[Events]
//Background and Video events
0,0,"bg.jpg",0,0
//Break Periods
2,59866,70403
//Storyboard Layer 0 (Background)
//Storyboard Layer 1 (Fail)
//Storyboard Layer 2 (Pass)
//Storyboard Layer 3 (Foreground)
//Storyboard Sound Samples

[TimingPoints]
31,363.636363636364,4,2,1,70,1,0
15667,-74.0740740740741,4,2,1,70,0,0
15940,-100,4,2,1,20,0,0
16031,-100,4,2,1,70,0,0
18576,-74.0740740740741,4,2,1,70,0,0
18849,-100,4,2,1,20,0,0
18940,-100,4,2,1,70,0,0
21667,-74.0740740740741,4,2,1,70,0,0
24031,-100,4,2,1,50,0,0
24394,-74.0740740740741,4,2,1,70,0,0
24667,-100,4,2,1,20,0,0
24758,-100,4,2,1,70,0,0
27303,-74.0740740740741,4,2,1,70,0,0
27576,-100,4,2,1,20,0,0
27667,-100,4,2,1,70,0,0
30212,-74.0740740740741,4,2,1,70,0,0
30485,-100,4,2,1,20,0,0
30576,-100,4,2,1,70,0,0
35667,-100,4,2,1,50,0,0
36031,-100,4,2,2,70,0,0
36303,-100,4,2,1,20,0,0
36394,-100,4,2,1,70,0,0
47940,-100,4,2,1,20,0,0
48031,-100,4,2,3,50,0,0
49485,-100,4,2,1,60,0,0
50576,-100,4,2,1,50,0,0
50849,-100,4,2,1,20,0,0
50940,-100,4,2,1,60,0,0
52212,-100,4,2,1,70,0,0
53485,-74.0740740740741,4,2,1,70,0,0
53758,-100,4,2,1,20,0,0
53849,-100,4,2,1,70,0,0
58940,-100,4,2,1,50,0,0
59303,-100,4,2,1,70,0,0
76758,-74.0740740740741,4,2,1,70,0,0
77031,-100,4,2,1,20,0,0
77121,-100,4,2,1,70,0,0
81667,-100,4,2,1,5,0,0
81849,-74.0740740740741,4,2,1,70,0,0
82940,-74.0740740740741,4,2,1,70,0,1
83212,-100,4,2,1,20,0,1
83303,-100,4,2,1,70,0,1
84212,-74.0740740740741,4,2,1,70,0,1
84576,-100,4,2,1,70,0,1
85758,-100,4,2,1,20,0,1
85849,-74.0740740740741,4,2,1,70,0,1
86121,-100,4,2,1,20,0,1
86212,-100,4,2,1,70,0,1
88576,-74.0740740740741,4,2,1,70,0,1
88940,-100,4,2,1,70,0,1
90031,-74.0740740740741,4,2,1,70,0,1
90303,-100,4,2,1,20,0,1
90394,-100,4,2,1,70,0,1
94212,-74.0740740740741,4,2,1,70,0,1
94485,-100,4,2,1,20,0,1
94576,-74.0740740740741,4,2,1,70,0,1
94849,-100,4,2,1,20,0,1
94940,-100,4,2,1,70,0,1
97394,-100,4,2,1,20,0,1
97485,-74.0740740740741,4,2,1,70,0,1
97758,-100,4,2,1,20,0,1
97849,-100,4,2,1,70,0,1
100212,-74.0740740740741,4,2,1,70,0,1
100758,-100,4,2,1,70,0,1
101667,-74.0740740740741,4,2,1,70,0,1
102031,-100,4,2,1,70,0,1
102212,-100,4,2,1,80,0,1
102576,-100,4,2,1,60,0,1
103303,-100,4,2,1,70,0,1
105485,-74.0740740740741,4,2,1,70,0,1
105849,-100,4,2,2,70,0,1
106121,-100,4,2,1,20,0,1
106212,-100,4,2,1,70,0,0
117758,-100,4,2,1,20,0,0
117849,-100,4,2,1,70,0,0
130940,-100,4,2,1,65,0,0
131121,-100,4,2,1,55,0,0
131303,-100,4,2,1,45,0,0
131485,-100,4,2,1,35,0,0
131667,-100,4,2,1,25,0,0
131849,-100,4,2,1,15,0,0
132031,-100,4,2,1,5,0,0

[Colours]
Combo1 : 255,49,49
Combo2 : 170,255,170
Combo3 : 255,153,153
Combo4 : 57,255,57

[HitObjects]
415,182,1121,5,2,0:0:0:0:
500,274,1303,1,2,0:0:0:0:
417,347,1485,2,0,P|374:342|328:339,1,87.5,6|0,0:0|0:0,0:0:0:0:
230,244,1849,2,0,P|274:239|317:236,1,87.5,2|0,0:0|0:0,0:0:0:0:
512,160,2212,2,0,P|486:106|377:96,1,175,2|2,0:0|0:0,0:0:0:0:
371,116,2940,6,0,P|352:58|334:3,1,87.5,2|0,0:0|0:0,0:0:0:0:
177,50,3303,1,2,0:0:0:0:
264,139,3485,1,2,0:0:0:0:
189,236,3667,2,0,P|131:252|51:178,1,175,2|2,0:0|0:0,0:0:0:0:
69,164,4394,6,0,P|113:157|157:149,1,87.5,2|0,0:0|0:0,0:0:0:0:
251,39,4758,2,0,P|294:46|337:53,1,87.5,2|0,0:0|0:0,0:0:0:0:
491,169,5121,2,0,P|448:162|405:155,1,87.5,2|0,0:0|0:0,0:0:0:0:
333,245,5485,2,0,P|289:252|246:259,1,87.5,2|0,0:0|0:0,0:0:0:0:
59,271,5849,5,2,0:0:0:0:
172,358,6031,1,2,0:0:0:0:
41,288,6212,2,0,P|32:243|18:186,1,87.5,2|2,0:0|0:0,0:0:0:0:
175,88,6576,2,0,P|165:131|157:174,1,87.5,2|2,0:3|0:3,0:0:0:0:
333,245,6940,1,2,0:3:0:0:
323,219,7031,1,0,0:0:0:0:
314,193,7121,1,2,1:3:0:0:
279,52,7303,6,0,P|352:47|416:132,1,175,6|2,1:2|1:2,0:0:0:0:
317,331,8031,2,0,P|240:313|116:295,1,175,2|2,1:2|1:2,0:0:0:0:
0,123,8758,2,0,P|23:41|102:11,1,175,2|2,1:2|1:2,0:0:0:0:
268,51,9303,1,2,0:0:0:0:
268,51,9485,2,0,P|257:93|248:137,1,87.5,2|0,1:2|0:0,0:0:0:0:
114,269,9849,2,0,P|107:226|96:184,1,87.5,2|0,1:2|0:0,0:0:0:0:
112,368,10212,6,0,P|68:361|25:353,1,87.5,2|0,1:2|1:0,0:0:0:0:
214,288,10575,1,2,1:2:0:0:
214,288,10757,1,2,1:2:0:0:
319,368,10939,6,0,P|275:375|232:382,1,87.5,2|0,1:2|1:0,0:0:0:0:
353,258,11302,1,2,1:2:0:0:
353,258,11484,1,0,1:0:0:0:
512,357,11667,6,0,P|468:350|425:342,1,87.5,2|2,1:3|0:3,0:0:0:0:
492,228,12031,1,2,0:3:0:0:
420,106,12212,1,2,0:3:0:0:
420,106,12303,1,0,0:0:0:0:
420,106,12394,2,0,L|409:167,1,43.75,8|8,0:3|0:3,0:0:0:0:
300,154,12576,2,0,L|289:215,1,43.75,8|8,0:3|0:3,0:0:0:0:
185,213,12758,2,0,L|174:274,1,43.75,4|0,1:3|0:0,0:0:0:0:
105,337,12940,5,0,0:0:0:0:
97,333,13031,1,0,0:0:0:0:
89,328,13121,2,0,P|162:293|249:335,1,175,4|8,1:2|0:2,0:0:0:0:
353,384,13667,1,0,1:2:0:0:
496,297,13849,1,0,0:0:0:0:
506,263,13940,1,0,0:0:0:0:
505,227,14031,1,0,0:0:0:0:
491,194,14122,1,0,0:0:0:0:
465,169,14213,1,8,0:0:0:0:
278,241,14394,1,0,1:0:0:0:
388,130,14576,6,0,P|390:86|374:46,1,87.5,6|2,1:2|0:0,0:0:0:0:
282,42,14849,1,2,0:0:0:0:
267,65,14940,2,0,P|230:60|158:49,1,87.5,10|2,0:0|0:0,0:0:0:0:
15,117,15303,2,0,P|52:122|124:133,1,87.5,2|0,1:2|0:0,0:0:0:0:
319,181,15667,6,0,P|238:168|212:245,1,177.187500675917,10|0,0:0|0:0,0:0:0:0:
229,272,16031,6,0,P|314:285|431:321,1,175,4|8,1:2|0:0,0:0:0:0:
301,382,16576,1,0,1:0:0:0:
123,320,16758,1,0,0:0:0:0:
113,286,16849,1,0,0:0:0:0:
114,250,16940,1,0,0:0:0:0:
128,217,17031,1,0,0:0:0:0:
154,192,17122,1,8,0:0:0:0:
348,111,17303,6,0,B|296:132|296:132|168:102,1,175,6|2,1:2|1:2,0:0:0:0:
72,57,17758,1,2,0:0:0:0:
61,34,17849,2,0,P|105:26|150:13,1,87.5,10|2,0:0|0:0,0:0:0:0:
69,155,18212,1,2,1:2:0:0:
261,28,18394,1,2,1:2:0:0:
284,221,18576,6,0,B|346:216|346:216|368:224|368:224|392:213|392:213|465:206,1,177.187500675917,10|0,0:0|0:0,0:0:0:0:
480,226,18940,6,0,P|511:175|443:79,1,175,4|8,1:2|0:0,0:0:0:0:
371,257,19486,1,0,1:0:0:0:
256,131,19667,1,0,0:0:0:0:
246,97,19758,1,0,0:0:0:0:
247,61,19849,1,0,0:0:0:0:
261,28,19940,1,0,0:0:0:0:
287,3,20031,1,8,0:0:0:0:
389,123,20212,1,0,1:0:0:0:
259,242,20395,6,0,P|213:235|144:224,1,87.5,2|2,1:2|0:0,0:0:0:0:
104,289,20667,1,2,0:0:0:0:
81,274,20758,2,0,P|86:237|97:165,1,87.5,10|2,0:0|0:0,0:0:0:0:
259,132,21121,2,0,P|253:88|246:45,1,87.5,2|0,1:2|0:0,0:0:0:0:
402,185,21485,1,8,0:0:0:0:
313,318,21667,5,2,0:0:0:0:
321,305,21758,1,2,0:0:0:0:
328,292,21849,2,0,P|270:283|204:274,1,118.125000450611,6|2,1:2|0:0,0:0:0:0:
133,348,22121,1,2,0:0:0:0:
142,331,22212,2,0,P|82:322|14:312,1,118.125000450611,6|2,1:2|0:0,0:0:0:0:
0,211,22485,1,2,0:0:0:0:
11,226,22576,2,0,P|15:196|19:167,1,59.0625002253056,6|2,1:2|0:0,0:0:0:0:
150,161,22758,2,0,P|145:128|143:78,1,59.0625002253056,2|2,0:0|0:0,0:0:0:0:
262,29,22940,6,0,P|297:55|299:138,1,118.125000450611,6|2,1:2|1:2,0:0:0:0:
263,215,23212,1,2,1:2:0:0:
253,235,23303,2,0,P|223:239|194:244,3,59.0625002253056,6|2|2|2,1:2|0:0|0:0|0:0,0:0:0:0:
333,292,23667,5,6,1:2:0:0:
411,97,23849,1,2,0:0:0:0:
346,312,24031,2,0,P|351:275|362:203,1,87.5,6|2,1:2|0:3,0:0:0:0:
470,165,24303,1,2,0:3:0:0:
477,185,24394,6,0,B|431:177|389:192|389:192|360:163|291:146,1,177.187500675917,10|0,1:0|0:0,0:0:0:0:
282,168,24758,6,0,P|251:117|319:21,1,175,4|8,1:2|0:0,0:0:0:0:
417,95,25303,1,0,0:0:0:0:
335,258,25485,1,0,1:0:0:0:
301,268,25576,1,0,0:0:0:0:
265,267,25667,1,0,0:0:0:0:
232,253,25758,1,0,0:0:0:0:
207,227,25849,1,8,0:0:0:0:
150,97,26031,1,0,1:0:0:0:
10,229,26212,6,0,P|59:226|109:249,1,87.5,6|2,1:2|0:0,0:0:0:0:
135,318,26485,1,2,0:0:0:0:
150,341,26576,2,0,P|187:336|259:325,1,87.5,10|2,0:0|0:0,0:0:0:0:
452,344,26939,2,0,P|415:349|343:360,1,87.5,2|0,1:2|0:0,0:0:0:0:
269,166,27303,6,0,P|329:189|372:98,1,177.187500675917,10|0,0:0|0:0,0:0:0:0:
356,85,27667,6,0,P|340:175|325:276,1,175,4|8,1:2|0:0,0:0:0:0:
254,368,28212,1,0,0:0:0:0:
485,337,28394,1,0,1:0:0:0:
490,302,28485,1,0,0:0:0:0:
485,266,28576,1,0,0:0:0:0:
467,235,28667,1,0,0:0:0:0:
438,213,28758,1,8,0:0:0:0:
230,257,28940,6,0,P|165:235|160:110,1,175,6|2,0:0|0:0,0:0:0:0:
209,71,29395,1,2,0:0:0:0:
232,60,29486,2,0,P|244:104|253:149,1,87.5,10|2,0:0|0:0,0:0:0:0:
362,302,29849,1,2,1:2:0:0:
400,114,30031,1,2,0:0:0:0:
230,257,30212,6,0,B|168:265|168:265|138:260|138:260|117:272|117:272|35:281,1,177.187500675917,10|0,0:0|0:0,0:0:0:0:
33,301,30576,6,0,P|10:220|70:162,1,175,4|8,1:2|0:0,0:0:0:0:
199,172,31121,1,0,0:0:0:0:
354,285,31303,1,0,1:0:0:0:
389,288,31394,1,0,0:0:0:0:
425,281,31485,1,0,0:0:0:0:
455,263,31576,1,0,0:0:0:0:
476,233,31667,1,8,0:0:0:0:
298,85,31849,1,0,1:0:0:0:
496,0,32031,6,0,P|490:43|486:86,1,87.5,2|2,1:2|0:0,0:0:0:0:
400,99,32304,1,2,0:0:0:0:
377,114,32395,2,0,P|382:151|393:223,1,87.5,10|2,0:0|0:0,0:0:0:0:
499,370,32758,2,0,P|506:327|512:284,1,87.5,2|0,1:2|0:0,0:0:0:0:
343,324,33121,1,10,0:0:0:0:
265,170,33303,5,0,0:0:0:0:
273,164,33394,1,0,0:0:0:0:
281,160,33485,2,0,P|284:182|287:208,3,43.75,4|0|0|0,1:2|0:0|0:0|0:0,0:0:0:0:
166,228,33849,2,0,P|169:250|172:276,1,43.75,8|0,0:0|0:0,0:0:0:0:
251,357,34031,6,0,P|172:309|103:347,1,175,4|8,1:2|0:0,0:0:0:0:
11,374,34486,1,0,0:0:0:0:
0,351,34577,2,0,P|5:318|12:286,3,43.75,4|0|0|0,1:2|0:0|0:0|0:0,0:0:0:0:
66,217,34940,2,0,P|71:184|78:152,1,43.75,8|0,0:0|0:0,0:0:0:0:
26,97,35121,6,0,B|74:127|74:127|190:108,1,175,4|8,1:2|0:0,0:0:0:0:
285,51,35576,1,0,0:0:0:0:
296,74,35667,2,0,P|291:107|284:139,1,43.75,2|2,1:3|0:3,0:0:0:0:
254,243,35849,5,2,0:3:0:0:
246,230,35940,1,2,0:3:0:0:
239,217,36031,2,0,P|317:204|405:192,1,131.25,6|0,0:3|0:0,0:0:0:0:
397,214,36394,6,0,P|409:262|398:313,1,87.5,6|0,1:2|0:0,0:0:0:0:
330,362,36667,1,0,0:0:0:0:
309,380,36758,2,0,P|265:374|222:367,1,87.5,8|2,0:0|0:0,0:0:0:0:
160,300,37031,1,0,0:0:0:0:
139,282,37122,2,0,P|95:288|52:295,1,87.5,0|0,1:0|0:0,0:0:0:0:
64,146,37485,1,10,0:0:0:0:
281,241,37667,6,0,P|304:160|244:102,1,175,0|2,0:0|0:0,0:0:0:0:
165,156,38121,1,0,0:0:0:0:
148,173,38212,2,0,P|143:128|156:58,1,87.5,8|0,0:0|0:0,0:0:0:0:
374,0,38576,2,0,P|378:42|374:86,1,87.5,2|0,1:2|0:0,0:0:0:0:
350,180,38849,1,0,0:0:0:0:
371,198,38940,2,0,P|415:192|458:185,1,87.5,10|0,0:0|0:0,0:0:0:0:
324,326,39303,6,0,B|267:315|267:315|222:336|222:336|123:316,1,175,2|8,1:2|0:0,0:0:0:0:
3,158,39849,2,0,P|47:107|158:147,1,175,2|0,0:0|0:0,0:0:0:0:
205,231,40394,1,10,0:0:0:0:
310,77,40576,5,0,0:0:0:0:
318,73,40667,1,0,0:0:0:0:
326,69,40758,2,0,P|333:124|341:189,1,87.5,2|0,1:2|0:0,0:0:0:0:
501,323,41121,2,0,P|507:278|516:212,1,87.5,10|0,0:0|0:0,0:0:0:0:
456,110,41485,1,2,1:2:0:0:
349,279,41667,1,0,0:0:0:0:
344,287,41758,1,0,0:0:0:0:
339,294,41849,2,0,P|295:288|252:282,1,87.5,10|0,0:0|0:0,0:0:0:0:
77,91,42212,6,0,P|144:142|144:226,1,175,6|8,1:2|0:0,0:0:0:0:
0,345,42758,2,0,B|48:315|48:315|164:334,1,175,2|0,0:0|0:0,0:0:0:0:
254,363,43212,1,0,0:0:0:0:
270,384,43303,1,10,0:0:0:0:
428,340,43485,2,0,P|435:298|445:244,1,87.5,0|0,0:0|1:0,0:0:0:0:
506,122,43849,5,2,0:0:0:0:
500,130,43940,1,0,0:0:0:0:
495,137,44031,2,0,P|413:143|346:61,1,175,8|2,0:0|1:2,0:0:0:0:
208,114,44576,2,0,L|196:64,2,43.75,0|0|10,0:0|0:0|0:0,0:0:0:0:
324,245,44940,1,0,0:0:0:0:
147,230,45121,6,0,P|95:226|26:218,1,87.5,6|0,1:2|0:0,0:0:0:0:
11,331,45394,1,0,0:0:0:0:
26,354,45485,2,0,P|72:345|135:338,1,87.5,8|2,0:0|0:0,0:0:0:0:
210,303,45758,1,0,0:0:0:0:
225,280,45849,2,0,P|271:289|334:296,1,87.5,0|0,1:0|0:0,0:0:0:0:
399,342,46121,1,0,0:0:0:0:
414,319,46212,1,10,0:0:0:0:
512,208,46394,6,0,P|430:214|363:132,1,175,4|0,1:2|0:0,0:0:0:0:
359,120,46849,1,0,0:0:0:0:
326,92,46940,1,8,0:0:0:0:
285,76,47031,1,0,0:0:0:0:
241,76,47121,1,2,0:3:0:0:
200,93,47212,1,2,0:3:0:0:
161,113,47303,2,0,L|111:97,3,43.75,2|2|2|0,1:2|0:0|0:0|0:0,0:0:0:0:
40,45,47667,6,0,P|67:83|44:177,1,131.25,8|0,0:0|0:0,0:0:0:0:
25,168,48031,6,0,P|37:253|48:353,1,175,4|10,1:2|0:3,0:0:0:0:
181,379,48576,1,0,0:0:0:0:
278,275,48758,1,2,0:3:0:0:
293,277,48849,1,0,0:0:0:0:
307,279,48940,1,0,0:0:0:0:
322,280,49031,1,0,0:0:0:0:
336,281,49121,1,10,0:3:0:0:
455,363,49303,1,2,0:3:0:0:
480,244,49485,6,0,P|476:187|471:126,1,87.5,2|2,1:3|0:3,0:0:0:0:
498,128,49758,1,2,0:3:0:0:
498,128,49849,1,8,1:0:0:0:
425,26,50031,1,2,0:3:0:0:
321,102,50212,2,0,P|317:146|314:190,1,87.5,2|2,1:3|0:3,0:0:0:0:
275,343,50576,2,0,P|212:336|174:285,1,131.25,10|0,1:0|0:0,0:0:0:0:
186,259,50940,6,0,P|100:270|11:284,1,175,0|8,1:0|0:0,0:0:0:0:
112,359,51485,1,0,0:0:0:0:
39,183,51667,1,0,1:0:0:0:
38,169,51758,1,0,0:0:0:0:
37,154,51849,1,0,0:0:0:0:
35,140,51940,1,0,0:0:0:0:
33,125,52031,1,8,0:0:0:0:
0,48,52212,6,0,B|48:79|48:79|164:59,1,175,4|2,1:2|0:0,0:0:0:0:
244,23,52667,1,2,0:0:0:0:
267,38,52758,2,0,P|258:84|251:147,1,87.5,10|2,0:0|0:0,0:0:0:0:
155,201,53121,1,2,1:2:0:0:
339,256,53303,1,2,0:0:0:0:
226,350,53485,6,0,B|192:365|161:344|161:344|120:358|120:358|78:342|57:357,1,177.187500675917,10|0,0:0|0:0,0:0:0:0:
36,379,53849,6,0,P|-6:334|33:213,1,175,4|8,1:2|0:0,0:0:0:0:
173,221,54394,1,0,0:0:0:0:
242,52,54576,1,0,1:0:0:0:
217,26,54667,1,0,0:0:0:0:
184,12,54758,1,0,0:0:0:0:
148,11,54849,1,0,0:0:0:0:
114,21,54940,1,8,0:0:0:0:
65,167,55121,1,0,1:0:0:0:
271,205,55303,6,0,P|308:200|380:189,1,87.5,2|2,1:2|0:0,0:0:0:0:
397,98,55576,1,2,0:0:0:0:
412,75,55667,2,0,P|449:80|521:91,1,87.5,10|2,0:0|0:0,0:0:0:0:
512,200,56031,1,2,1:2:0:0:
440,327,56212,2,0,L|452:277,2,43.75,0|0|10,0:0|0:0|0:0,0:0:0:0:
255,215,56576,5,8,0:0:0:0:
263,209,56667,1,0,0:0:0:0:
271,205,56758,2,0,P|274:227|277:253,3,43.75,4|0|0|0,1:2|0:0|0:0|0:0,0:0:0:0:
174,281,57121,2,0,P|177:303|180:329,1,43.75,8|0,0:0|0:0,0:0:0:0:
82,377,57303,6,0,P|40:332|79:211,1,175,4|8,1:2|0:0,0:0:0:0:
129,170,57758,1,0,0:0:0:0:
139,146,57849,2,0,P|160:150|181:156,3,43.75,4|0|0|0,1:2|0:0|0:0|0:0,0:0:0:0:
261,87,58212,2,0,P|282:91|303:97,1,43.75,8|0,0:0|0:0,0:0:0:0:
413,73,58394,6,0,P|353:103|344:217,1,175,4|8,1:2|0:0,0:0:0:0:
363,295,58849,1,0,0:0:0:0:
383,311,58940,2,0,L|434:301,1,43.75,2|2,1:3|0:3,0:0:0:0:
460,160,59121,5,2,0:3:0:0:
473,152,59212,1,2,0:3:0:0:
486,145,59303,2,0,P|500:234|514:335,1,175,10|6,0:0|1:2,0:0:0:0:
352,28,71303,6,0,P|432:24|482:106,1,175,6|8,1:2|0:0,0:0:0:0:
475,198,71849,1,2,0:2:0:0:
404,332,72031,2,0,P|367:324|288:317,1,87.5,0|0,1:0|0:0,0:0:0:0:
108,222,72394,6,0,B|165:211|165:211|210:232|210:232|309:212,1,175,10|0,0:2|1:0,0:0:0:0:
341,97,72940,1,2,0:0:0:0:
349,90,73031,1,0,0:0:0:0:
357,83,73121,2,0,P|369:133|373:185,1,87.5,8|0,0:0|0:0,0:0:0:0:
478,318,73485,2,0,P|486:264|503:203,1,87.5,2|0,1:2|0:0,0:0:0:0:
311,382,73849,2,0,P|302:328|286:267,1,87.5,10|0,0:0|0:0,0:0:0:0:
128,330,74212,6,0,P|105:249|165:191,1,175,2|8,1:2|0:0,0:0:0:0:
321,202,74758,2,0,P|330:164|323:94,1,87.5,2|0,0:0|1:0,0:0:0:0:
263,18,75121,1,0,0:0:0:0:
127,112,75303,2,0,P|118:74|125:4,1,87.5,10|0,0:0|0:0,0:0:0:0:
280,42,75667,6,0,L|332:29,3,43.75,0|0|0|0,1:0|0:0|0:0|0:0,0:0:0:0:
401,105,76031,2,0,L|453:92,3,43.75,8|0|0|0,0:0|0:0|0:0|0:0,0:0:0:0:
501,194,76394,1,2,1:3:0:0:
504,209,76485,1,2,0:3:0:0:
506,223,76576,1,2,0:3:0:0:
509,238,76667,1,2,0:3:0:0:
512,252,76758,2,0,B|421:230|421:230|333:265,1,177.187500675917,8|0,0:0|0:0,0:0:0:0:
323,284,77121,6,0,L|318:241,5,43.75,4|0|0|0|0|0,1:2|0:0|0:0|0:0|0:0|0:0,0:0:0:0:
201,202,77667,2,0,L|196:159,5,43.75,4|0|0|0|0|0,1:2|0:0|0:0|0:0|0:0|0:0,0:0:0:0:
259,55,78212,1,4,1:2:0:0:
217,71,78303,1,0,0:0:0:0:
173,69,78394,1,0,0:0:0:0:
136,45,78485,1,0,0:0:0:0:
94,31,78576,1,0,0:0:0:0:
51,42,78667,1,0,0:0:0:0:
18,72,78758,6,0,L|5:127,2,43.75,4|0|0,1:2|0:0|0:0,0:0:0:0:
28,131,79031,2,0,L|35:187,2,43.75,0|0|0,0:0|0:0|0:0,0:0:0:0:
182,230,79303,2,0,L|169:285,2,43.75,4|0|0,1:2|0:0|0:0,0:0:0:0:
192,289,79576,2,0,L|199:345,2,43.75,0|0|0,0:0|0:0|0:0,0:0:0:0:
369,314,79849,6,0,P|430:255|418:172,1,175,4|2,1:2|0:3,0:0:0:0:
333,163,80303,1,0,0:0:0:0:
315,142,80394,2,0,P|321:98|328:55,1,87.5,2|0,1:3|0:3,0:0:0:0:
296,25,80667,1,0,0:3:0:0:
254,13,80758,1,2,1:3:0:0:
211,25,80849,1,2,0:3:0:0:
168,35,80940,1,2,0:3:0:0:
124,29,81031,1,2,0:3:0:0:
85,9,81121,2,0,L|80:62,1,43.75,2|2,1:3|0:3,0:0:0:0:
101,168,81303,6,0,B|172:158|172:158|207:164|207:164|231:150|231:150|325:140,1,218.75,2|0,1:3|0:0,0:0:0:0:
332,112,81849,6,0,B|342:48|422:25|480:46|493:142|465:181|385:199|385:199|402:241|402:241|386:279|386:279|416:297|385:359,1,472.500001802445,12|4,0:0|1:3,0:0:0:0:
42,358,82940,6,0,P|11:299|63:208,1,177.187500675917,2|0,1:0|0:0,0:0:0:0:
86,220,83303,6,0,L|190:208,1,87.5,4|0,1:2|0:0,0:0:0:0:
360,264,83667,1,2,1:2:0:0:
262,146,83849,1,2,0:0:0:0:
201,349,84031,1,2,1:2:0:0:
357,247,84212,6,0,P|454:291|383:337,1,236.250000901222,2|0,1:0|0:0,0:0:0:0:
100,331,84758,5,2,1:2:0:0:
114,324,84849,1,0,0:0:0:0:
150,332,84940,5,2,0:0:0:0:
166,327,85031,1,0,0:0:0:0:
201,333,85121,5,2,1:2:0:0:
217,328,85212,1,0,0:0:0:0:
252,334,85303,5,2,0:0:0:0:
268,329,85394,1,0,0:0:0:0:
302,335,85485,6,0,B|303:276|303:276|298:266|298:266|300:189,1,131.25,2|0,1:2|0:0,0:0:0:0:
318,182,85849,6,0,P|284:144|180:201,1,177.187500675917,2|0,1:0|0:0,0:0:0:0:
165,210,86212,6,0,P|157:165|149:117,1,87.5,4|0,1:2|0:0,0:0:0:0:
66,304,86576,1,0,1:0:0:0:
0,145,86758,2,0,P|7:100|16:52,1,87.5,0|0,0:0|1:0,0:0:0:0:
228,38,87121,6,0,B|297:40|297:40|317:48|317:48|336:42|336:42|410:44,1,175,4|0,1:2|0:0,0:0:0:0:
470,91,87576,1,0,0:0:0:0:
487,117,87667,2,0,L|480:160,3,43.75,0|0|0|0,1:0|0:0|0:0|0:0,0:0:0:0:
392,198,88031,1,2,1:3:0:0:
350,211,88121,1,0,0:0:0:0:
308,198,88212,1,2,0:3:0:0:
265,209,88303,1,0,0:0:0:0:
224,192,88394,2,0,L|177:184,1,43.75,2|0,1:3|0:0,0:0:0:0:
141,102,88576,6,0,P|43:62|60:140,1,236.250000901222,2|2,1:0|0:0,0:0:0:0:
73,162,89121,6,0,P|81:209|87:255,1,87.5,4|0,1:2|0:0,0:0:0:0:
312,293,89485,1,2,1:2:0:0:
99,274,89667,1,2,0:0:0:0:
193,377,89849,1,2,1:2:0:0:
274,206,90031,6,0,B|320:198|362:213|362:213|391:184|460:167,1,177.187500675917,2|0,1:0|0:0,0:0:0:0:
453,185,90394,2,0,L|462:115,1,43.75,0|0,1:0|1:0,0:0:0:0:
452,47,90576,6,0,P|405:55|359:61,1,87.5,8|0,1:2|1:0,0:0:0:0:
299,95,90849,6,0,P|252:87|206:81,1,87.5,0|0,1:0|1:0,0:0:0:0:
146,47,91121,6,0,P|99:55|53:61,1,87.5,0|8,1:0|0:0,0:0:0:0:
16,188,91485,5,2,0:0:0:0:
10,196,91576,1,2,0:0:0:0:
6,204,91667,2,0,P|28:207|54:210,3,43.75,6|0|0|0,1:2|0:0|0:0|0:0,0:0:0:0:
127,291,92031,2,0,L|170:297,1,43.75,8|0,0:0|0:0,0:0:0:0:
219,187,92212,6,0,P|301:192|323:296,1,175,6|8,1:2|0:0,0:0:0:0:
333,362,92667,1,0,0:0:0:0:
348,378,92758,2,0,L|391:370,3,43.75,6|0|0|0,1:2|0:0|0:0|0:0,0:0:0:0:
469,281,93121,2,0,L|513:273,1,43.75,8|0,0:0|0:0,0:0:0:0:
512,162,93303,6,0,P|481:102|367:93,1,175,6|8,1:2|0:0,0:0:0:0:
328,162,93758,1,0,0:0:0:0:
304,180,93849,2,0,L|246:173,1,43.75,2|2,1:3|0:3,0:0:0:0:
250,67,94031,2,0,L|192:60,1,43.75,2|2,1:3|0:3,0:0:0:0:
103,41,94212,6,0,P|22:65|74:124,1,177.187500675917,8|0,0:0|0:0,0:0:0:0:
68,145,94576,6,0,B|66:220|66:220|58:234|58:234|56:352,1,177.187500675917,2|0,1:0|0:0,0:0:0:0:
75,345,94940,6,0,L|133:338,3,43.75,4|0|0|0,1:2|0:0|0:0|0:0,0:0:0:0:
207,270,95303,2,0,L|265:263,3,43.75,0|0|0|0,0:0|0:0|0:0|0:0,0:0:0:0:
349,319,95667,2,0,L|407:312,1,43.75,0|0,1:0|0:0,0:0:0:0:
512,206,95849,6,0,B|466:198|424:213|424:213|395:184|326:167,1,175,2|0,1:0|0:0,0:0:0:0:
213,263,96394,5,2,1:2:0:0:
220,249,96485,1,0,0:0:0:0:
212,213,96576,5,2,0:0:0:0:
217,197,96667,1,0,0:0:0:0:
211,162,96757,5,2,1:2:0:0:
216,146,96848,1,0,0:0:0:0:
210,111,96939,5,2,0:0:0:0:
215,95,97030,1,0,0:0:0:0:
209,61,97121,6,0,B|174:69|146:78|146:78|126:67|72:52,1,131.25,2|0,1:2|0:0,0:0:0:0:
62,35,97485,6,0,P|15:55|37:172,1,177.187500675917,2|0,1:0|0:0,0:0:0:0:
41,184,97849,6,0,P|58:230|62:274,1,87.5,4|0,1:2|0:0,0:0:0:0:
196,348,98212,1,0,1:0:0:0:
186,185,98394,2,0,P|192:141|207:101,1,87.5,0|0,0:0|1:0,0:0:0:0:
376,24,98758,6,0,P|437:53|444:171,1,175,4|0,1:2|0:0,0:0:0:0:
401,220,99212,1,0,0:0:0:0:
415,246,99303,2,0,L|458:253,3,43.75,0|0|0|0,1:0|0:0|0:0|0:0,0:0:0:0:
435,346,99667,1,2,1:3:0:0:
393,333,99758,1,0,0:0:0:0:
351,346,99849,1,2,0:3:0:0:
308,335,99940,1,0,0:0:0:0:
267,352,100031,2,0,L|214:342,1,43.75,2|0,1:3|0:0,0:0:0:0:
145,279,100212,6,0,P|90:188|169:193,1,236.250000901222,2|2,1:0|0:0,0:0:0:0:
190,209,100758,6,0,L|189:141,3,43.75,4|0|0|0,1:2|0:0|0:0|0:0,0:0:0:0:
307,142,101121,2,0,L|306:74,3,43.75,0|0|0|0,0:0|0:0|0:0|0:0,0:0:0:0:
432,52,101485,2,0,L|433:96,1,43.75,0|0,1:0|0:0,0:0:0:0:
412,190,101667,6,0,P|315:234|384:275,1,236.250000901222,2|2,1:0|0:1,0:0:0:0:
480,268,102212,1,4,1:2:0:0:
135,284,102576,5,2,0:3:0:0:
252,361,102758,1,2,0:3:0:0:
260,367,102849,1,2,0:3:0:0:
268,371,102940,2,0,P|274:326|280:274,1,87.5,0|2,1:0|0:3,0:0:0:0:
176,161,103303,5,4,1:2:0:0:
134,174,103394,1,0,0:0:0:0:
92,161,103485,1,0,0:0:0:0:
49,172,103576,1,0,0:0:0:0:
8,155,103667,2,0,L|2:96,1,43.75,8|0,0:0|0:0,0:0:0:0:
143,32,103849,2,0,L|137:74,3,43.75,4|0|0|0,1:2|0:0|0:0|0:0,0:0:0:0:
290,80,104212,5,8,0:0:0:0:
286,88,104303,1,0,0:0:0:0:
282,96,104394,2,0,B|337:114|337:114|484:66,1,175,4|0,1:2|0:0,0:0:0:0:
501,205,104940,1,8,0:0:0:0:
505,213,105031,1,8,0:0:0:0:
509,221,105122,2,0,P|464:218|411:214,1,87.5,8|8,0:3|0:3,0:0:0:0:
233,170,105485,6,0,P|263:101|188:98,1,177.187500675917,8|0,0:3|0:3,0:0:0:0:
166,119,105849,6,0,P|138:179|173:252,1,131.25,10|0,0:3|0:0,0:0:0:0:
172,260,106212,6,0,P|185:308|193:363,1,87.5,6|0,1:2|0:0,0:0:0:0:
294,366,106485,1,0,0:0:0:0:
315,384,106576,2,0,P|359:378|402:371,1,87.5,8|2,0:0|0:0,0:0:0:0:
512,248,106849,1,0,0:0:0:0:
491,266,106940,2,0,P|447:260|404:253,1,87.5,0|0,1:0|0:0,0:0:0:0:
314,236,107212,1,0,0:0:0:0:
293,254,107303,1,10,0:0:0:0:
403,78,107485,6,0,B|287:58|287:58|239:89,1,175,0|2,0:0|0:0,0:0:0:0:
153,175,107940,1,0,0:0:0:0:
173,160,108031,2,0,P|129:146|58:146,1,87.5,8|0,0:0|0:0,0:0:0:0:
60,355,108394,2,0,P|103:351|145:338,1,87.5,2|0,1:2|0:0,0:0:0:0:
265,286,108667,1,0,0:0:0:0:
285,271,108758,2,0,P|241:257|170:257,1,87.5,10|0,0:0|0:0,0:0:0:0:
377,367,109121,6,0,P|435:352|475:241,1,175,2|8,1:2|0:0,0:0:0:0:
345,128,109667,2,0,B|402:117|402:117|447:138|447:138|546:118,1,175,2|0,0:0|0:0,0:0:0:0:
376,219,110212,1,10,0:0:0:0:
238,53,110394,5,0,0:0:0:0:
230,49,110485,1,0,0:0:0:0:
222,45,110576,2,0,P|215:100|207:165,1,87.5,2|0,1:2|0:0,0:0:0:0:
61,222,110939,2,0,P|55:177|45:111,1,87.5,10|0,0:0|0:0,0:0:0:0:
108,343,111303,1,2,1:2:0:0:
239,248,111485,1,0,0:0:0:0:
243,256,111576,1,0,0:0:0:0:
247,264,111667,2,0,P|292:261|345:257,1,87.5,10|2,0:0|0:0,0:0:0:0:
415,110,112031,6,0,P|493:141|512:223,1,175,6|8,1:2|0:0,0:0:0:0:
494,360,112576,2,0,B|437:349|437:349|392:370|392:370|293:350,1,175,2|0,0:0|0:0,0:0:0:0:
229,330,113030,1,0,0:0:0:0:
245,309,113121,1,10,0:0:0:0:
75,370,113303,2,0,P|69:325|59:259,1,87.5,0|0,0:0|1:0,0:0:0:0:
4,144,113667,5,2,0:0:0:0:
8,152,113758,1,0,0:0:0:0:
12,159,113849,2,0,B|65:180|65:180|175:138,1,175,8|2,0:0|1:2,0:0:0:0:
344,138,114394,2,0,L|352:90,2,43.75,0|0|10,0:0|0:0|0:0,0:0:0:0:
189,245,114758,1,0,0:0:0:0:
346,309,114940,6,0,P|398:305|467:297,1,87.5,6|0,1:2|0:0,0:0:0:0:
512,193,115213,1,0,0:0:0:0:
497,216,115304,2,0,P|451:207|388:200,1,87.5,8|2,0:0|0:0,0:0:0:0:
344,138,115577,1,0,0:0:0:0:
329,115,115668,2,0,P|283:124|220:131,1,87.5,0|0,1:0|0:0,0:0:0:0:
153,110,115940,1,0,0:0:0:0:
138,87,116031,1,10,0:0:0:0:
55,272,116212,6,0,P|155:317|212:257,1,175,2|0,0:3|0:0,0:0:0:0:
235,261,116667,1,0,0:0:0:0:
277,252,116758,1,8,0:0:0:0:
321,257,116849,1,0,0:0:0:0:
359,277,116940,1,2,0:3:0:0:
388,312,117031,1,2,0:3:0:0:
413,348,117121,2,0,L|435:303,3,43.75,2|2|2|2,1:2|0:2|0:0|0:0,0:0:0:0:
503,259,117485,6,0,P|516:194|488:136,1,131.25,10|0,0:0|0:0,0:0:0:0:
456,148,117849,6,0,P|408:135|353:127,1,87.5,6|0,1:2|0:0,0:0:0:0:
280,54,118121,1,0,0:0:0:0:
291,74,118212,2,0,P|243:87|188:95,1,87.5,8|2,0:0|0:0,0:0:0:0:
136,162,118485,1,0,0:0:0:0:
146,181,118576,2,0,P|103:173|61:162,1,87.5,0|0,1:0|0:0,0:0:0:0:
6,56,118849,1,0,0:0:0:0:
17,76,118940,1,10,0:0:0:0:
139,282,119121,6,0,P|219:285|291:213,1,175,0|2,0:0|0:0,0:0:0:0:
303,129,119576,1,0,0:0:0:0:
311,103,119667,2,0,P|359:111|425:118,1,87.5,8|0,0:0|0:0,0:0:0:0:
512,258,120031,2,0,P|468:263|425:270,1,87.5,2|0,1:2|0:0,0:0:0:0:
347,323,120303,1,0,0:0:0:0:
339,349,120394,2,0,P|291:341|225:334,1,87.5,10|0,0:0|0:0,0:0:0:0:
219,88,120758,6,0,P|286:139|286:223,1,175,2|8,1:2|0:0,0:0:0:0:
70,320,121303,2,0,P|60:255|37:148,1,175,2|0,0:0|0:0,0:0:0:0:
195,185,121849,1,10,0:0:0:0:
118,43,122031,5,0,0:0:0:0:
122,51,122122,1,0,0:0:0:0:
126,59,122212,2,0,P|181:53|246:46,1,87.5,2|0,1:2|0:0,0:0:0:0:
378,141,122576,2,0,P|322:135|257:128,1,87.5,10|0,0:0|0:0,0:0:0:0:
510,101,122940,1,2,1:2:0:0:
415,239,123121,1,0,0:0:0:0:
419,247,123212,1,0,0:0:0:0:
423,255,123303,2,0,P|478:249|543:242,1,87.5,10|2,0:0|0:0,0:0:0:0:
330,339,123667,6,0,B|283:334|242:352|242:352|211:325|141:313,1,175,6|8,1:2|0:0,0:0:0:0:
9,205,124212,2,0,P|43:128|125:109,1,175,2|0,0:0|0:0,0:0:0:0:
192,167,124667,1,0,0:0:0:0:
208,188,124758,1,10,0:0:0:0:
277,35,124940,6,0,B|334:24|334:24|379:45|379:45|478:25,1,175,0|2,0:0|0:0,0:0:0:0:
493,98,125394,1,0,0:0:0:0:
511,119,125485,2,0,P|505:163|498:206,1,87.5,8|0,0:0|0:0,0:0:0:0:
280,263,125849,1,2,1:2:0:0:
420,342,126031,1,0,0:0:0:0:
410,316,126122,1,0,0:0:0:0:
401,290,126212,1,8,0:0:0:0:
352,151,126394,1,8,0:0:0:0:
182,299,126576,6,0,P|174:255|166:212,1,87.5,6|2,1:2|0:3,0:0:0:0:
240,167,126849,1,2,0:3:0:0:
242,140,126940,1,8,0:0:0:0:
16,118,127121,2,0,P|95:133|172:68,1,175,6|8,1:2|0:0,0:0:0:0:
218,0,127576,1,2,0:3:0:0:
239,18,127667,2,0,P|283:12|326:5,1,87.5,6|2,1:2|0:3,0:0:0:0:
482,71,128031,1,8,0:0:0:0:
356,209,128212,5,4,1:2:0:0:
314,225,128303,1,0,0:0:0:0:
270,223,128394,1,0,0:0:0:0:
233,199,128485,1,0,0:0:0:0:
191,185,128576,1,0,0:0:0:0:
148,196,128667,1,0,0:0:0:0:
115,226,128758,2,0,L|124:283,3,43.75,10|2|2|2,0:0|0:0|0:0|0:0,0:0:0:0:
176,356,129121,5,4,1:2:0:0:
296,128,129303,1,0,1:2:0:0:
472,329,129849,5,4,1:2:0:0:
256,192,129940,12,0,132031,0:0:0:0:
