osu file format v14

[General]
AudioFilename: audio.mp3
AudioLeadIn: 0
PreviewTime: 82940
Countdown: 0
SampleSet: Soft
StackLeniency: 0.3
Mode: 0
LetterboxInBreaks: 0
WidescreenStoryboard: 0

[Editor]
Bookmarks: 1485,7303,13121,18940,23303,24758,30576,36394,42212,48031,53849,59667,65485,71303,77121,82940,88758,94576,100394,106212,112031,117849,123667,129485,132031
DistanceSpacing: 1.2
BeatDivisor: 4
GridSize: 4
TimelineZoom: 2

[Metadata]
Title:Marionette
TitleUnicode:Marionette
Artist:Memme
ArtistUnicode:Memme
Creator:Gamu
Version:Hyper
Source:O2Jam U
Tags:ParkMemme kagetsu
BeatmapID:1488814
BeatmapSetID:690608

[Difficulty]
HPDrainRate:5
CircleSize:4
OverallDifficulty:5.5
ApproachRate:7.5
SliderMultiplier:1.5
SliderTickRate:1

[Events]
//Background and Video events
0,0,"bg.jpg",0,0
//Break Periods
2,59867,69024
//Storyboard Layer 0 (Background)
//Storyboard Layer 1 (Fail)
//Storyboard Layer 2 (Pass)
//Storyboard Layer 3 (Foreground)
//Storyboard Sound Samples

[TimingPoints]
31,363.636363636364,4,2,1,70,1,0
36031,-100,4,2,2,70,0,0
36394,-100,4,2,1,70,0,0
48031,-100,4,2,3,70,0,0
49485,-100,4,2,1,70,0,0
70940,-100,4,2,2,70,0,0
71303,-100,4,2,1,70,0,0
82940,-100,4,2,1,70,0,1
105849,-100,4,2,2,70,0,1
106212,-100,4,2,1,70,0,0
130940,-100,4,2,1,65,0,0
131121,-100,4,2,1,55,0,0
131303,-100,4,2,1,45,0,0
131485,-100,4,2,1,35,0,0
131667,-100,4,2,1,25,0,0
131849,-100,4,2,1,15,0,0
132031,-100,4,2,1,5,0,0

[Colours]
Combo1 : 255,49,49
Combo2 : 170,255,170
Combo3 : 255,153,153
Combo4 : 57,255,57

[HitObjects]
96,144,1121,5,2,0:0:0:0:
124,60,1303,1,2,0:0:0:0:
184,128,1485,6,0,P|184:160|160:204,1,75,6|0,0:0|0:0,0:0:0:0:
92,252,1849,2,0,L|8:248,1,75,2|0,0:0|0:0,0:0:0:0:
112,340,2212,2,0,L|196:336,1,75,2|0,0:0|0:0,0:0:0:0:
276,332,2576,2,0,L|360:336,1,75,2|0,0:0|0:0,0:0:0:0:
440,340,2940,5,2,0:0:0:0:
440,340,3303,1,2,0:0:0:0:
452,252,3485,1,2,0:0:0:0:
464,164,3667,2,0,L|460:72,1,75,2|0,0:0|0:0,0:0:0:0:
368,21,4031,2,0,L|372:96,1,75,2|0,0:0|0:0,0:0:0:0:
312,164,4394,6,0,P|276:172|232:168,1,75,2|0,0:0|0:0,0:0:0:0:
192,248,4758,2,0,P|167:220|148:180,1,75,2|0,0:0|0:0,0:0:0:0:
59,186,5121,2,0,P|70:150|95:114,1,75,2|0,0:0|0:0,0:0:0:0:
46,39,5485,2,0,P|81:30|125:35,1,75,2|0,0:0|0:0,0:0:0:0:
180,100,5849,5,2,0:0:0:0:
180,100,6031,1,2,0:0:0:0:
256,52,6212,1,2,0:0:0:0:
256,52,6394,1,2,0:0:0:0:
332,100,6576,1,2,0:3:0:0:
408,52,6758,2,0,L|452:56,2,37.5,2|2|2,0:3|0:3|0:3,0:0:0:0:
332,100,7121,1,2,1:3:0:0:
384,172,7303,6,0,L|378:247,1,75,6|0,1:2|0:0,0:0:0:0:
460,284,7667,2,0,L|466:209,1,75,2|0,1:2|0:0,0:0:0:0:
384,172,8031,2,0,P|348:164|300:168,1,75,2|0,1:2|0:0,0:0:0:0:
228,200,8394,2,0,P|192:208|144:204,1,75,2|0,1:2|0:0,0:0:0:0:
68,184,8758,5,2,1:2:0:0:
68,184,9121,1,2,1:2:0:0:
92,272,9303,1,2,0:0:0:0:
154,206,9485,2,0,P|162:167|162:126,1,75,2|0,1:2|0:0,0:0:0:0:
225,2,9849,2,0,L|232:76,1,75,2|0,1:2|0:0,0:0:0:0:
248,164,10212,6,0,L|332:160,1,75,2|0,1:2|1:0,0:0:0:0:
412,156,10576,1,2,1:2:0:0:
372,236,10758,1,2,1:2:0:0:
322,160,10940,2,0,P|320:124|326:76,1,75,2|0,1:2|1:0,0:0:0:0:
256,28,11303,1,2,1:2:0:0:
168,32,11485,1,2,1:2:0:0:
80,36,11667,6,0,L|76:116,1,75,2|2,1:3|0:3,0:0:0:0:
72,200,12031,1,2,0:3:0:0:
152,160,12212,1,2,0:3:0:0:
152,160,12303,1,0,0:0:0:0:
152,160,12394,2,0,L|200:164,3,37.5,8|8|8|8,0:3|0:3|0:3|0:3,0:0:0:0:
236,168,12758,2,0,L|284:164,3,37.5,4|0|0|0,1:3|0:0|0:0|0:0,0:0:0:0:
320,160,13121,6,0,L|408:168,2,75,4|0|8,1:2|0:0|0:2,0:0:0:0:
308,248,13667,2,0,L|304:288,5,37.5,0|0|0|0|0|0,1:2|0:0|0:0|0:0|0:0|0:0,0:0:0:0:
288,328,14212,2,0,P|250:333|208:328,1,75,8|0,0:0|1:0,0:0:0:0:
124,308,14576,6,0,P|116:272|120:232,1,75,6|2,1:2|0:0,0:0:0:0:
136,192,14849,1,2,0:0:0:0:
136,192,14940,2,0,L|212:188,1,75,10|2,0:0|0:0,0:0:0:0:
300,184,15303,2,0,P|308:148|304:108,1,75,2|0,1:2|0:0,0:0:0:0:
288,68,15576,1,0,0:0:0:0:
288,68,15667,2,0,L|212:64,1,75,10|0,0:0|0:0,0:0:0:0:
124,56,16031,6,0,P|88:64|48:64,2,75,4|0|8,1:2|0:0|0:0,0:0:0:0:
213,64,16576,2,0,L|216:104,5,37.5,0|0|0|0|0|0,1:0|0:0|0:0|0:0|0:0|0:0,0:0:0:0:
220,148,17121,1,8,0:0:0:0:
188,232,17303,2,0,P|228:240|260:228,1,75,6|0,1:2|0:0,0:0:0:0:
316,156,17667,5,2,1:2:0:0:
316,156,17758,1,2,0:0:0:0:
316,156,17849,2,0,L|324:76,1,75,10|2,0:0|0:0,0:0:0:0:
400,128,18212,1,2,1:2:0:0:
392,216,18394,1,2,1:2:0:0:
384,304,18576,2,0,P|328:312|264:304,1,112.5,10|0,0:0|0:0,0:0:0:0:
228,292,18940,6,0,L|232:380,1,75,4|0,1:2|0:0,0:0:0:0:
148,336,19303,1,8,0:0:0:0:
136,248,19485,2,0,L|138:183,5,37.5,0|0|0|0|0|0,1:0|0:0|0:0|0:0|0:0|0:0,0:0:0:0:
140,164,20031,2,0,L|56:160,1,75,8|0,0:0|1:0,0:0:0:0:
56,72,20394,6,0,L|130:75,1,75,2|2,1:2|0:0,0:0:0:0:
176,76,20667,1,2,0:0:0:0:
176,76,20758,2,0,P|188:40|188:0,1,75,10|2,0:0|0:0,0:0:0:0:
276,32,21121,2,0,P|264:68|264:108,1,75,2|0,1:2|0:0,0:0:0:0:
276,148,21394,1,0,0:0:0:0:
276,148,21485,2,0,L|350:144,1,75,8|2,0:0|0:0,0:0:0:0:
440,140,21849,5,6,1:2:0:0:
480,220,22031,2,0,L|520:224,2,37.5,2|2|6,0:0|0:0|1:2,0:0:0:0:
456,308,22394,1,2,0:0:0:0:
456,308,22485,1,2,0:0:0:0:
456,308,22576,2,0,L|460:348,4,37.5,6|2|2|2|6,1:2|0:0|0:0|0:0|1:2,0:0:0:0:
380,260,23120,5,2,1:2:0:0:
380,260,23211,1,2,1:2:0:0:
380,260,23303,2,0,L|383:222,3,37.5,6|2|2|2,1:2|0:0|0:0|0:0,0:0:0:0:
392,176,23667,2,0,P|355:167|312:172,1,75,6|2,1:2|0:0,0:0:0:0:
232,200,24031,2,0,P|195:208|152:204,1,75,6|2,1:2|0:3,0:0:0:0:
72,180,24394,2,0,P|64:128|76:64,1,112.5,10|0,1:0|0:0,0:0:0:0:
100,32,24758,6,0,L|180:28,1,75,4|0,1:2|0:0,0:0:0:0:
256,68,25121,1,8,0:0:0:0:
337,28,25303,2,0,L|377:30,5,37.5,0|0|0|0|0|0,0:0|0:0|1:0|0:0|0:0|0:0,0:0:0:0:
420,36,25849,2,0,P|427:72|424:112,1,75,8|0,0:0|1:0,0:0:0:0:
384,192,26212,5,6,1:2:0:0:
296,176,26394,1,2,0:0:0:0:
296,176,26485,1,2,0:0:0:0:
296,176,26576,2,0,L|216:180,1,75,10|2,0:0|0:0,0:0:0:0:
132,184,26940,1,2,1:2:0:0:
48,148,27121,1,0,0:0:0:0:
48,148,27212,1,0,0:0:0:0:
48,148,27303,2,0,P|42:202|71:253,1,112.5,10|0,0:0|0:0,0:0:0:0:
108,276,27667,6,0,L|182:272,1,75,4|0,1:2|0:0,0:0:0:0:
264,236,28031,1,8,0:0:0:0:
348,272,28212,2,0,L|352:316,5,37.5,0|0|0|0|0|0,0:0|0:0|1:0|0:0|0:0|0:0,0:0:0:0:
356,356,28758,1,8,0:0:0:0:
440,320,28940,2,0,L|430:219,1,75,6|0,0:0|1:0,0:0:0:0:
368,184,29303,5,2,0:0:0:0:
368,184,29394,1,2,0:0:0:0:
368,184,29485,2,0,P|400:164|436:156,1,75,10|2,0:0|0:0,0:0:0:0:
448,64,29849,1,2,1:2:0:0:
360,88,30031,1,2,0:0:0:0:
272,68,30212,2,0,P|216:60|152:72,1,112.5,10|0,0:0|0:0,0:0:0:0:
124,96,30576,6,0,L|116:176,2,75,4|0|8,1:2|0:0|0:0,0:0:0:0:
36,76,31121,2,0,L|32:116,5,37.5,0|0|0|0|0|0,0:0|0:0|1:0|0:0|0:0|0:0,0:0:0:0:
24,160,31667,2,0,L|28:240,1,75,8|0,0:0|1:0,0:0:0:0:
56,320,32031,5,2,1:2:0:0:
136,276,32212,2,0,P|140:252|140:232,2,37.5,2|2|10,0:0|0:0|0:0,0:0:0:0:
56,320,32576,1,2,0:0:0:0:
132,364,32758,2,0,L|216:360,1,75,2|0,1:2|0:0,0:0:0:0:
252,364,33031,1,0,0:0:0:0:
252,364,33121,2,0,L|336:360,1,75,10|0,0:0|0:0,0:0:0:0:
412,328,33485,6,0,P|420:288|416:248,1,75,4|0,1:2|0:0,0:0:0:0:
380,172,33849,1,8,0:0:0:0:
300,212,34031,2,0,P|260:220|220:216,1,75,4|0,1:2|0:0,0:0:0:0:
144,180,34395,1,8,0:0:0:0:
64,220,34576,2,0,P|56:180|64:140,1,75,4|0,1:2|0:0,0:0:0:0:
100,64,34940,5,8,0:0:0:0:
184,92,35121,2,0,P|224:100|264:92,1,75,4|0,1:2|0:0,0:0:0:0:
340,56,35485,1,8,0:0:0:0:
376,133,35667,2,0,P|378:167|372:208,1,75,2|2,1:3|0:3,0:0:0:0:
300,264,36031,2,0,P|292:324|312:376,1,112.5,6|0,0:3|0:0,0:0:0:0:
356,372,36394,6,0,L|444:364,1,75,6|0,1:2|0:0,0:0:0:0:
480,288,36758,1,8,0:0:0:0:
456,200,36940,2,0,P|452:164|460:116,1,75,2|0,0:0|1:0,0:0:0:0:
496,44,37303,1,0,0:0:0:0:
496,44,37394,1,0,0:0:0:0:
496,44,37485,2,0,P|460:36|420:44,1,75,10|0,0:0|0:0,0:0:0:0:
344,84,37849,5,0,1:0:0:0:
264,128,38031,2,0,P|253:97|258:55,1,75,2|8,0:0|0:0,0:0:0:0:
344,84,38394,1,0,0:0:0:0:
264,128,38576,2,0,L|176:124,1,75,2|0,1:2|0:0,0:0:0:0:
100,132,38940,2,0,L|12:128,1,75,10|0,0:0|0:0,0:0:0:0:
44,220,39303,6,0,L|118:223,1,75,2|0,1:2|0:0,0:0:0:0:
208,228,39667,1,8,0:0:0:0:
248,308,39849,2,0,P|276:288|296:248,1,75,2|0,0:0|1:0,0:0:0:0:
272,164,40212,1,0,0:0:0:0:
272,164,40303,1,0,0:0:0:0:
272,164,40394,2,0,P|266:130|280:87,1,75,10|0,0:0|0:0,0:0:0:0:
348,36,40758,6,0,L|424:32,1,75,2|0,1:2|0:0,0:0:0:0:
512,112,41121,2,0,L|436:108,1,75,10|0,0:0|0:0,0:0:0:0:
348,188,41485,2,0,L|424:184,1,75,2|0,1:2|0:0,0:0:0:0:
504,224,41849,2,0,P|511:260|508:304,1,75,10|0,0:0|0:0,0:0:0:0:
436,352,42212,6,0,P|368:368|280:348,1,150,6|8,1:2|0:0,0:0:0:0:
236,280,42758,2,0,L|232:200,1,75,2|0,0:0|1:0,0:0:0:0:
144,192,43121,1,0,0:0:0:0:
144,192,43212,1,0,0:0:0:0:
144,192,43303,2,0,L|147:266,1,75,10|0,0:0|0:0,0:0:0:0:
124,356,43667,5,0,1:0:0:0:
44,316,43849,2,0,L|40:241,1,75,2|8,0:0|0:0,0:0:0:0:
64,156,44212,1,0,0:0:0:0:
144,192,44394,2,0,P|180:196|228:188,1,75,2|0,1:2|0:0,0:0:0:0:
304,160,44758,2,0,P|308:124|300:76,1,75,10|0,0:0|0:0,0:0:0:0:
218,190,45121,6,0,L|222:264,1,75,6|0,1:2|0:0,0:0:0:0:
228,356,45485,1,8,0:0:0:0:
312,320,45667,2,0,P|352:316|388:320,1,75,2|0,0:2|1:0,0:0:0:0:
468,356,46031,1,0,0:0:0:0:
500,276,46212,1,10,0:0:0:0:
452,200,46394,2,0,P|415:192|378:196,1,75,4|0,1:2|0:0,0:0:0:0:
316,132,46758,6,0,L|319:94,5,37.5,0|0|8|0|2|2,0:0|0:0|0:0|0:0|0:3|0:3,0:0:0:0:
308,52,47303,2,0,P|272:44|232:48,1,75,2|2,1:2|0:0,0:0:0:0:
172,112,47667,2,0,L|180:232,1,112.5,8|0,0:0|0:0,0:0:0:0:
184,268,48031,6,0,P|148:262|108:264,1,75,4|0,1:2|0:0,0:0:0:0:
32,312,48394,1,10,0:3:0:0:
32,220,48576,2,0,L|28:180,5,37.5,0|0|2|0|0|0,0:0|0:0|0:3|0:0|0:0|0:0,0:0:0:0:
20,140,49121,2,0,L|24:64,1,75,10|2,0:3|0:3,0:0:0:0:
84,0,49485,5,2,1:3:0:0:
148,64,49667,1,2,0:3:0:0:
148,64,49758,1,2,0:3:0:0:
148,64,49849,2,0,P|188:68|232:60,1,75,8|2,1:0|0:3,0:0:0:0:
284,128,50212,1,2,1:3:0:0:
364,84,50394,1,2,0:3:0:0:
364,84,50485,1,2,0:3:0:0:
364,84,50576,2,0,P|420:80|480:92,1,112.5,10|0,1:0|0:0,0:0:0:0:
504,128,50940,6,0,L|508:208,1,75,0|0,1:0|0:0,0:0:0:0:
492,292,51303,1,8,0:0:0:0:
424,352,51485,2,0,L|384:348,5,37.5,0|0|0|0|0|0,0:0|0:0|1:0|0:0|0:0|0:0,0:0:0:0:
344,340,52031,1,8,0:0:0:0:
260,376,52212,2,0,P|252:328|260:304,1,75,4|0,1:2|0:0,0:0:0:0:
308,228,52576,5,2,0:0:0:0:
308,228,52667,1,2,0:0:0:0:
308,228,52758,2,0,L|388:224,1,75,10|2,0:0|0:0,0:0:0:0:
464,188,53121,1,2,1:2:0:0:
452,276,53303,1,2,0:0:0:0:
382,224,53485,2,0,P|376:184|384:144,1,75,10|0,0:0|0:0,0:0:0:0:
464,188,53849,6,0,P|470:148|462:108,1,75,4|0,1:2|0:0,0:0:0:0:
418,36,54212,1,8,0:0:0:0:
340,80,54394,2,0,L|300:78,5,37.5,0|0|0|0|0|0,0:0|0:0|1:0|0:0|0:0|0:0,0:0:0:0:
256,76,54940,2,0,L|181:79,1,75,8|0,0:0|1:0,0:0:0:0:
100,40,55303,5,2,1:2:0:0:
36,104,55485,1,2,0:0:0:0:
36,104,55576,1,2,0:0:0:0:
36,104,55667,2,0,P|32:144|40:184,1,75,10|2,0:0|0:0,0:0:0:0:
88,256,56031,2,0,L|172:252,1,75,2|0,1:2|0:0,0:0:0:0:
208,252,56303,1,0,0:0:0:0:
208,252,56394,1,10,0:0:0:0:
288,208,56576,1,8,0:0:0:0:
352,272,56758,6,0,P|361:308|352:352,1,75,4|0,1:2|0:0,0:0:0:0:
268,312,57121,1,8,0:0:0:0:
352,272,57303,2,0,L|432:268,1,75,4|0,1:2|0:0,0:0:0:0:
500,216,57666,1,8,0:0:0:0:
436,152,57849,2,0,L|356:156,1,75,4|0,1:2|0:0,0:0:0:0:
288,208,58212,5,8,0:0:0:0:
242,289,58394,2,0,P|213:265|197:223,1,75,4|0,1:2|0:0,0:0:0:0:
288,208,58757,1,8,0:0:0:0:
332,288,58940,2,0,P|320:332|288:364,1,75,2|2,1:3|0:3,0:0:0:0:
242,289,59303,1,10,0:0:0:0:
242,289,59667,5,6,1:2:0:0:
242,289,69849,6,0,P|238:325|248:370,1,75,2|2,0:3|0:3,0:0:0:0:
326,325,70212,2,0,P|330:289|320:244,1,75,2|2,0:3|0:3,0:0:0:0:
250,201,70576,2,0,L|198:197,3,37.5,2|2|2|2,0:3|0:3|0:3|0:3,0:0:0:0:
166,193,70940,2,0,P|158:137|170:77,1,112.5,6|0,0:3|0:0,0:0:0:0:
196,44,71303,6,0,P|268:32|348:40,1,150,6|8,1:2|0:0,0:0:0:0:
424,80,71849,2,0,P|432:117|428:160,1,75,2|0,0:2|1:0,0:0:0:0:
400,240,72212,1,0,0:0:0:0:
360,320,72394,2,0,P|432:324|484:268,1,150,10|0,0:2|1:0,0:0:0:0:
400,240,72940,6,0,L|324:238,1,75,2|8,0:0|0:0,0:0:0:0:
236,236,73303,1,0,0:0:0:0:
162,288,73485,2,0,P|150:256|150:216,1,75,2|0,1:2|0:0,0:0:0:0:
223,163,73849,2,0,P|236:197|235:235,1,75,10|0,0:0|0:0,0:0:0:0:
162,288,74212,6,0,L|10:284,1,150,2|8,1:2|0:0,0:0:0:0:
44,368,74758,2,0,L|118:369,1,75,2|0,0:0|1:0,0:0:0:0:
208,364,75121,1,0,0:0:0:0:
268,296,75303,2,0,P|276:256|272:220,1,75,10|0,0:0|0:0,0:0:0:0:
224,144,75667,6,0,L|136:140,1,75,0|0,1:0|0:0,0:0:0:0:
188,60,76031,2,0,L|262:63,1,75,8|0,0:0|0:0,0:0:0:0:
352,68,76394,2,0,L|360:112,3,37.5,2|2|2|2,1:3|0:3|0:3|0:3,0:0:0:0:
364,152,76758,2,0,L|484:148,1,112.5,8|0,0:0|0:0,0:0:0:0:
504,184,77121,6,0,B|512:240|512:240|500:304,1,112.5,4|0,1:2|0:0,0:0:0:0:
380,356,77667,2,0,B|372:300|372:300|382:245,1,112.5,4|0,1:2|0:0,0:0:0:0:
504,184,78212,6,0,B|512:128|512:128|500:64,1,112.5,4|0,1:2|0:0,0:0:0:0:
380,12,78758,2,0,B|372:68|372:68|382:122,1,112.5,4|0,1:2|0:0,0:0:0:0:
504,184,79303,2,0,B|512:240|512:240|500:304,1,112.5,4|0,1:2|0:0,0:0:0:0:
368,308,79849,6,0,L|382:233,1,75,4|0,1:2|0:0,0:0:0:0:
400,144,80212,1,2,0:3:0:0:
364,60,80394,2,0,L|320:56,3,37.5,2|0|0|0,1:3|0:3|0:3|0:3,0:0:0:0:
284,68,80758,2,0,L|240:64,3,37.5,2|2|2|2,1:3|0:3|0:3|0:3,0:0:0:0:
204,76,81121,2,0,L|160:72,3,37.5,2|2|2|0,1:3|0:3|1:3|0:0,0:0:0:0:
124,84,81849,6,0,P|80:196|184:196,1,262.5,12|0,0:0|0:0,0:0:0:0:
200,156,82576,2,0,L|208:280,1,112.5,4|0,1:3|0:0,0:0:0:0:
208,312,82940,6,0,P|264:304|320:316,1,112.5,2|0,1:0|0:0,0:0:0:0:
352,344,83303,1,4,1:2:0:0:
432,300,83485,1,0,0:0:0:0:
432,300,83576,1,0,0:0:0:0:
432,300,83667,2,0,L|440:376,2,75,2|2|2,1:2|0:0|1:2,0:0:0:0:
496,236,84212,6,0,P|436:208|360:248,1,150,2|0,1:0|0:0,0:0:0:0:
308,312,84758,2,0,L|304:352,3,37.5,2|0|2|0,1:2|0:0|0:0|0:0,0:0:0:0:
264,332,85121,2,0,L|260:372,3,37.5,2|0|2|0,1:2|0:0|0:0|0:0,0:0:0:0:
220,352,85485,2,0,P|165:341|104:348,1,112.5,2|0,1:2|0:0,0:0:0:0:
68,364,85849,6,0,P|72:324|60:280,1,75,2|0,1:0|0:0,0:0:0:0:
24,212,86212,1,4,1:2:0:0:
112,216,86394,1,0,0:0:0:0:
200,204,86576,2,0,P|237:201|276:208,2,75,0|0|0,1:0|0:0|1:0,0:0:0:0:
112,216,87121,5,4,1:2:0:0:
112,216,87212,1,0,0:0:0:0:
112,216,87303,2,0,L|60:212,3,37.5,0|0|0|0,0:0|0:0|0:0|0:0,0:0:0:0:
32,196,87667,2,0,L|28:144,3,37.5,0|0|0|0,1:0|0:0|0:0|0:0,0:0:0:0:
32,112,88031,2,0,L|40:32,1,75,2|2,1:3|0:3,0:0:0:0:
120,80,88394,1,2,1:3:0:0:
200,36,88576,6,0,P|270:22|352:32,1,150,2|2,1:0|0:0,0:0:0:0:
416,88,89121,2,0,L|420:168,1,75,4|0,1:2|0:0,0:0:0:0:
504,132,89485,2,0,L|500:57,2,75,2|2|2,1:2|0:0|1:2,0:0:0:0:
484,220,90031,6,0,P|420:252|348:216,1,150,2|0,1:0|1:0,0:0:0:0:
332,180,90485,1,0,1:0:0:0:
332,180,90576,2,0,L|224:184,1,75,8|0,1:2|1:0,0:0:0:0:
216,168,90849,2,0,L|108:172,1,75,0|0,1:0|1:0,0:0:0:0:
100,156,91121,2,0,L|46:158,2,37.5,0|0|8,1:0|0:0|0:0,0:0:0:0:
152,84,91485,5,2,0:0:0:0:
152,84,91576,1,2,0:0:0:0:
152,84,91667,2,0,P|164:48|160:12,1,75,6|0,1:2|0:0,0:0:0:0:
76,40,92031,1,8,0:0:0:0:
12,104,92212,2,0,P|0:140|4:176,1,75,6|0,1:2|0:0,0:0:0:0:
40,260,92576,1,8,0:0:0:0:
120,216,92758,2,0,P|156:204|192:208,1,75,6|0,1:2|0:0,0:0:0:0:
276,244,93122,5,8,0:0:0:0:
332,176,93303,2,0,L|336:96,1,75,6|0,1:2|0:0,0:0:0:0:
400,40,93667,1,8,0:0:0:0:
436,124,93849,2,0,L|434:161,3,37.5,2|2|2|2,1:3|0:3|1:3|0:3,0:0:0:0:
428,208,94212,2,0,L|432:324,1,112.5,8|0,0:0|0:0,0:0:0:0:
460,356,94576,6,0,P|403:344|344:348,1,112.5,2|0,1:0|0:0,0:0:0:0:
308,364,94940,2,0,L|256:360,3,37.5,4|0|0|0,1:2|0:0|0:0|0:0,0:0:0:0:
224,364,95303,2,0,L|172:360,3,37.5,0|0|0|0,0:0|0:0|0:0|0:0,0:0:0:0:
140,364,95667,1,0,1:0:0:0:
52,368,95849,6,0,P|48:328|56:288,1,75,2|0,1:0|0:0,0:0:0:0:
96,216,96212,1,0,0:0:0:0:
96,216,96303,1,0,0:0:0:0:
96,216,96394,2,0,L|144:212,3,37.5,2|0|2|0,1:2|0:0|0:0|0:0,0:0:0:0:
180,208,96758,2,0,L|228:212,3,37.5,2|0|2|0,1:2|0:0|0:0|0:0,0:0:0:0:
260,216,97121,2,0,P|314:207|376:212,1,112.5,2|0,1:2|0:0,0:0:0:0:
416,228,97485,6,0,L|424:308,1,75,2|0,1:0|0:0,0:0:0:0:
504,260,97849,2,0,L|496:185,1,75,4|0,1:2|0:0,0:0:0:0:
435,120,98212,2,0,P|467:99|503:94,2,75,0|0|0,1:0|0:0|1:0,0:0:0:0:
356,80,98758,5,4,1:2:0:0:
356,80,98849,1,0,0:0:0:0:
356,80,98940,2,0,L|352:36,3,37.5,0|0|0|0,0:0|0:0|0:0|0:0,0:0:0:0:
312,20,99303,2,0,L|274:16,3,37.5,0|0|0|0,1:0|0:0|0:0|0:0,0:0:0:0:
228,24,99667,2,0,P|192:28|144:20,1,75,2|2,1:3|0:3,0:0:0:0:
72,60,100031,1,2,1:3:0:0:
104,144,100212,6,0,P|112:212|88:292,1,150,2|2,1:0|0:0,0:0:0:0:
36,364,100758,2,0,L|84:368,3,37.5,4|0|0|0,1:2|0:0|0:0|0:0,0:0:0:0:
120,364,101121,2,0,L|168:368,3,37.5,0|0|0|0,0:0|0:0|0:0|0:0,0:0:0:0:
204,364,101485,1,0,1:0:0:0:
292,376,101667,6,0,P|276:312|192:276,1,150,2|2,1:0|0:1,0:0:0:0:
204,364,102212,1,4,1:2:0:0:
204,364,102576,1,2,0:3:0:0:
292,376,102758,1,2,0:3:0:0:
292,376,102849,1,2,0:3:0:0:
292,376,102940,2,0,L|372:372,1,75,0|2,1:0|0:3,0:0:0:0:
452,348,103303,6,0,P|460:312|456:272,1,75,4|0,1:2|0:0,0:0:0:0:
408,196,103667,1,8,0:0:0:0:
322,220,103849,2,0,P|314:256|318:296,1,75,4|0,1:2|0:0,0:0:0:0:
366,372,104213,1,8,0:0:0:0:
452,348,104394,6,0,P|457:269|424:200,1,150,4|0,1:2|0:0,0:0:0:0:
356,152,104940,1,8,0:0:0:0:
356,152,105031,1,8,0:0:0:0:
356,152,105121,2,0,L|276:148,1,75,8|8,0:3|0:3,0:0:0:0:
192,172,105485,2,0,L|152:170,3,37.5,8|8|8|8,0:3|0:3|0:3|0:3,0:0:0:0:
112,184,105849,2,0,P|100:238|107:294,1,112.5,10|0,0:3|0:0,0:0:0:0:
124,336,106212,6,0,L|280:332,1,150,6|8,1:2|0:0,0:0:0:0:
356,368,106758,2,0,P|364:328|352:288,1,75,2|0,0:0|1:0,0:0:0:0:
296,224,107121,1,0,0:0:0:0:
296,224,107212,1,0,0:0:0:0:
296,224,107303,1,10,0:0:0:0:
208,245,107485,2,0,L|134:247,1,75,0|0,0:0|1:0,0:0:0:0:
52,212,107849,6,0,P|44:252|56:292,1,75,2|8,0:0|0:0,0:0:0:0:
134,247,108212,1,0,0:0:0:0:
124,156,108394,2,0,P|96:132|59:122,1,75,2|0,1:2|0:0,0:0:0:0:
104,44,108758,2,0,P|140:56|172:80,1,75,10|0,0:0|0:0,0:0:0:0:
216,156,109121,6,0,L|224:316,1,150,2|8,1:2|0:0,0:0:0:0:
308,340,109667,2,0,L|304:265,1,75,2|0,0:0|1:0,0:0:0:0:
320,176,110031,1,0,0:0:0:0:
320,176,110121,1,0,0:0:0:0:
320,176,110212,2,0,P|358:172|400:176,1,75,10|0,0:0|0:0,0:0:0:0:
468,232,110576,6,0,L|472:307,1,75,2|0,1:2|0:0,0:0:0:0:
388,336,110940,2,0,L|384:261,1,75,10|0,0:0|0:0,0:0:0:0:
300,290,111303,2,0,L|304:365,1,75,2|0,1:2|0:0,0:0:0:0:
215,318,111667,1,10,0:0:0:0:
236,232,111849,1,2,0:0:0:0:
212,144,112031,6,0,P|136:124|64:144,1,150,6|8,1:2|0:0,0:0:0:0:
16,216,112576,2,0,P|12:252|16:292,1,75,2|0,0:0|1:0,0:0:0:0:
60,372,112940,1,0,0:0:0:0:
60,372,113031,1,0,0:0:0:0:
60,372,113121,1,10,0:0:0:0:
148,348,113303,2,0,P|185:344|228:352,1,75,0|0,0:0|1:0,0:0:0:0:
312,332,113667,6,0,P|348:337|386:334,1,75,2|8,0:0|0:0,0:0:0:0:
468,292,114031,1,0,0:0:0:0:
500,208,114212,2,0,P|504:172|496:128,1,75,2|0,1:2|0:0,0:0:0:0:
476,96,114485,1,0,0:0:0:0:
476,96,114576,2,0,L|400:92,1,75,10|0,0:0|0:0,0:0:0:0:
320,132,114940,5,6,1:2:0:0:
256,68,115121,2,0,L|252:28,2,37.5,0|0|8,0:0|0:0|0:0,0:0:0:0:
192,132,115485,2,0,L|188:172,2,37.5,2|0|0,0:0|0:0|1:0,0:0:0:0:
128,68,115849,2,0,L|124:28,2,37.5,0|0|10,0:0|0:0|0:0,0:0:0:0:
64,132,116212,6,0,L|55:221,1,75,2|0,0:3|1:0,0:0:0:0:
48,296,116576,1,0,0:0:0:0:
48,296,116667,1,0,0:0:0:0:
48,296,116758,2,0,L|96:300,3,37.5,8|0|2|2,0:0|0:0|0:3|0:3,0:0:0:0:
128,316,117121,2,0,L|176:320,3,37.5,2|2|2|2,1:2|0:2|0:0|0:0,0:0:0:0:
208,336,117485,2,0,P|260:340|320:332,1,112.5,10|0,0:0|0:0,0:0:0:0:
360,312,117849,6,0,L|368:153,1,150,6|8,1:2|0:0,0:0:0:0:
296,104,118394,2,0,L|291:180,1,75,2|0,0:0|1:0,0:0:0:0:
256,260,118758,1,0,0:0:0:0:
256,260,118849,1,0,0:0:0:0:
256,260,118940,1,10,0:0:0:0:
172,232,119121,2,0,P|140:224|88:232,1,75,0|0,0:0|1:2,0:0:0:0:
25,282,119485,6,0,P|19:318|27:355,1,75,2|8,0:0|0:0,0:0:0:0:
108,316,119849,1,0,0:0:0:0:
98,228,120031,2,0,L|102:148,1,75,2|0,1:2|0:0,0:0:0:0:
116,112,120303,1,0,0:0:0:0:
116,112,120394,2,0,P|153:103|196:104,1,75,10|0,0:0|0:0,0:0:0:0:
276,128,120758,6,0,P|352:144|420:124,1,150,2|8,1:2|0:0,0:0:0:0:
456,208,121303,2,0,L|452:288,1,75,2|0,0:0|1:0,0:0:0:0:
362,267,121667,1,0,0:0:0:0:
362,267,121758,1,0,0:0:0:0:
362,267,121849,2,0,L|358:343,1,75,10|0,0:0|0:0,0:0:0:0:
268,352,122212,6,0,P|232:356|192:352,1,75,2|0,1:2|0:0,0:0:0:0:
112,316,122576,2,0,P|83:293|58:262,1,75,10|0,0:0|0:0,0:0:0:0:
27,180,122940,2,0,P|23:143|27:103,1,75,2|0,1:2|0:0,0:0:0:0:
63,23,123303,1,10,0:0:0:0:
152,40,123485,1,2,0:0:0:0:
240,20,123667,6,0,P|311:13|396:24,1,150,6|8,1:2|0:0,0:0:0:0:
468,64,124212,2,0,P|472:100|472:144,1,75,2|0,0:0|1:0,0:0:0:0:
456,228,124576,1,0,0:0:0:0:
456,228,124667,1,0,0:0:0:0:
456,228,124758,1,10,0:0:0:0:
368,208,124940,2,0,P|331:201|284:204,1,75,0|0,0:0|1:0,0:0:0:0:
212,240,125303,6,0,P|175:246|128:244,2,75,2|8|0,0:0|0:0|0:0,0:0:0:0:
293,202,125849,2,0,P|296:168|292:124,1,75,2|0,1:2|0:0,0:0:0:0:
272,88,126121,1,0,0:0:0:0:
272,88,126212,2,0,P|235:81|188:84,1,75,8|8,0:0|0:0,0:0:0:0:
108,104,126576,6,0,L|104:178,1,75,6|2,1:2|0:3,0:0:0:0:
100,224,126849,1,2,0:3:0:0:
100,224,126940,1,8,0:0:0:0:
60,304,127121,2,0,P|100:312|140:304,1,75,6|0,1:2|0:0,0:0:0:0:
212,260,127485,1,8,0:0:0:0:
212,260,127576,1,2,0:3:0:0:
212,260,127667,1,6,1:2:0:0:
300,280,127849,2,0,L|304:364,1,75,2|8,0:3|0:0,0:0:0:0:
392,336,128212,5,4,1:2:0:0:
392,336,128303,1,0,0:0:0:0:
392,336,128394,2,0,L|390:298,3,37.5,0|0|0|0,0:0|0:0|0:0|0:0,0:0:0:0:
388,252,128758,2,0,L|386:214,3,37.5,10|0|2|0,0:0|0:0|0:0|0:0,0:0:0:0:
384,168,129121,2,0,L|380:93,1,75,4|0,1:2|1:2,0:0:0:0:
380,93,129849,5,4,1:2:0:0:
256,192,129940,12,0,132031,0:0:0:0:
