osu file format v14

[General]
AudioFilename: audio.mp3
AudioLeadIn: 0
PreviewTime: 117258
Countdown: 0
SampleSet: Soft
StackLeniency: 0.7
Mode: 3
LetterboxInBreaks: 0
SpecialStyle: 0
WidescreenStoryboard: 1

[Editor]
DistanceSpacing: 2
BeatDivisor: 8
GridSize: 4
TimelineZoom: 1.2

[Metadata]
Title:Goat Fantasia
TitleUnicode:Goat Fantasia
Artist:Memme
ArtistUnicode:Memme
Creator:Tailsdk
Version:Normal
Source:Music & Beat (O2Jam)
Tags:electronic instrumental park jong cheol U O2JamU 박종철 오투잼 - 뮤직 & 게임 dance ParkMemme video game soundtrack Dudehacker drum-hitnormal
BeatmapID:1094102
BeatmapSetID:515178

[Difficulty]
HPDrainRate:7.5
CircleSize:4
OverallDifficulty:7.5
ApproachRate:5
SliderMultiplier:1.4
SliderTickRate:1

[Events]
//Background and Video events
0,0,"background.jpg",0,0
//Break Periods
//Storyboard Layer 0 (Background)
//Storyboard Layer 1 (Fail)
//Storyboard Layer 2 (Pass)
//Storyboard Layer 3 (Foreground)
//Storyboard Layer 4 (Overlay)
//Storyboard Sound Samples

[TimingPoints]
134,480,4,2,1,40,1,0
55814,-100,4,2,1,40,0,1
71174,-100,4,2,1,40,0,0
105734,-100,4,2,1,40,0,1
116294,-100,4,2,1,40,0,0
117254,-100,4,2,1,40,0,1
132614,-100,4,2,1,40,0,0

[HitObjects]
64,192,1574,5,0,0:0:0:0:
192,192,1814,1,0,0:0:0:0:
320,192,2054,1,0,0:0:0:40:tom.wav
448,192,2054,1,0,0:0:0:0:
448,192,2414,1,0,0:0:0:0:
320,192,2534,1,0,0:0:0:0:
64,192,2774,1,0,0:0:0:0:
192,192,2894,1,0,0:0:0:0:
320,192,3014,1,0,0:0:0:0:
448,192,3254,1,0,0:0:0:0:
192,192,3494,1,0,0:0:0:0:
448,192,3734,1,0,0:0:0:0:
320,192,3854,1,0,0:0:0:0:
192,192,3974,1,0,0:0:0:0:
64,192,4214,1,0,0:0:0:0:
192,192,4334,1,0,0:0:0:0:
320,192,4454,1,0,0:0:0:0:
64,192,4574,1,0,0:0:0:0:
448,192,4694,1,0,0:0:0:0:
320,192,4814,1,0,0:0:0:0:
192,192,4934,1,0,0:0:0:40:hat pedal.wav
192,192,5414,1,0,0:0:0:40:hat pedal.wav
448,192,5654,1,0,0:0:0:40:hat pedal.wav
192,192,5894,1,0,0:0:0:40:hat pedal.wav
64,192,6134,1,0,0:0:0:40:hat pedal.wav
192,192,6254,1,0,0:0:0:40:hat pedal.wav
320,192,6374,1,0,0:0:0:40:hat pedal.wav
448,192,6614,1,0,0:0:0:40:hat pedal.wav
320,192,6734,1,0,0:0:0:40:hat pedal.wav
192,192,6854,1,0,0:0:0:40:hat pedal.wav
64,192,7094,1,0,0:0:0:40:hat pedal.wav
192,192,7214,1,0,0:0:0:40:hat pedal.wav
320,192,7334,1,0,0:0:0:40:hat pedal.wav
448,192,7574,1,0,0:0:0:0:
64,192,7814,128,0,9254:0:0:0:0:
320,192,8774,1,0,0:0:0:40:clap.wav
448,192,8774,128,0,9254:0:0:0:40:tom2.wav
192,192,9254,1,0,0:0:0:40:slap.wav
320,192,9494,1,0,0:0:0:40:tom3.wav
448,192,9494,1,0,0:0:0:0:
64,192,9734,128,8,10214:0:0:0:0:
192,192,9734,1,0,0:0:0:0:
320,192,10214,1,8,0:0:0:0:
448,192,10214,1,0,0:0:0:0:
192,192,10454,1,0,0:0:0:0:
64,192,10694,1,8,0:0:0:0:
320,192,10694,1,0,0:0:0:0:
448,192,10934,1,0,0:0:0:0:
64,192,11174,1,8,0:0:0:0:
192,192,11174,1,0,0:0:0:0:
320,192,11414,1,0,0:0:0:0:
192,192,11534,1,0,0:0:0:0:
64,192,11654,1,8,0:0:0:0:
448,192,11654,1,0,0:0:0:0:
320,192,11894,1,0,0:0:0:0:
192,192,12134,1,8,0:0:0:0:
448,192,12134,1,0,0:0:0:0:
64,192,12374,1,0,0:0:0:0:
320,192,12494,1,0,0:0:0:0:
64,192,12614,1,8,0:0:0:0:
192,192,12614,1,0,0:0:0:0:
448,192,12854,1,0,0:0:0:0:
64,192,13094,1,8,0:0:0:0:
320,192,13094,1,0,0:0:0:0:
192,192,13334,1,0,0:0:0:0:
320,192,13454,1,0,0:0:0:0:
64,192,13574,1,8,0:0:0:0:
448,192,13574,128,0,14054:0:0:0:0:
192,192,14054,1,8,0:0:0:0:
320,192,14054,1,0,0:0:0:0:
64,192,14294,1,0,0:0:0:0:
192,192,14534,1,8,0:0:0:0:
448,192,14534,1,0,0:0:0:0:
320,192,14774,1,0,0:0:0:0:
64,192,15014,1,8,0:0:0:0:
192,192,15014,1,0,0:0:0:0:
320,192,15254,1,0,0:0:0:0:
192,192,15374,1,0,0:0:0:0:
64,192,15494,1,8,0:0:0:0:
448,192,15494,1,0,0:0:0:0:
192,192,15734,1,0,0:0:0:0:
320,192,15854,1,0,0:0:0:0:
448,192,16094,1,0,0:0:0:0:
320,192,16214,1,0,0:0:0:0:
192,192,16334,1,0,0:0:0:0:
64,192,16454,1,8,0:0:0:0:
448,192,16454,128,0,16934:0:0:0:0:
192,192,16934,128,8,17414:0:0:0:0:
320,192,16934,1,0,0:0:0:0:
64,192,17414,128,8,17894:0:0:0:0:
320,192,17414,1,0,0:0:0:0:
192,192,17894,1,2,0:0:0:0:
448,192,17894,1,0,0:0:0:0:
320,192,18134,1,0,0:0:0:0:
192,192,18374,1,8,0:0:0:0:
448,192,18374,1,0,0:0:0:0:
64,192,18614,1,0,0:0:0:0:
320,192,18854,1,2,0:0:0:0:
448,192,18854,1,0,0:0:0:0:
192,192,19094,1,0,0:0:0:0:
320,192,19214,1,0,0:0:0:0:
64,192,19334,1,8,0:0:0:0:
448,192,19334,1,0,0:0:0:0:
192,192,19574,1,0,0:0:0:0:
320,192,19814,1,2,0:0:0:0:
448,192,19814,1,0,0:0:0:0:
64,192,20054,1,0,0:0:0:0:
192,192,20174,1,0,0:0:0:0:
320,192,20294,1,8,0:0:0:0:
448,192,20294,1,0,0:0:0:0:
192,192,20534,1,0,0:0:0:0:
64,192,20774,1,2,0:0:0:0:
320,192,20774,1,0,0:0:0:0:
448,192,21014,1,0,0:0:0:0:
192,192,21134,1,0,0:0:0:0:
64,192,21254,1,8,0:0:0:0:
320,192,21254,128,0,21734:0:0:0:40:hat pedal.wav
192,192,21734,1,8,0:0:0:0:
448,192,21734,1,0,0:0:0:40:hat pedal.wav
64,192,21974,1,0,0:0:0:40:hat pedal.wav
192,192,22214,1,8,0:0:0:0:
320,192,22214,1,0,0:0:0:40:hat pedal.wav
448,192,22454,1,0,0:0:0:40:hat pedal.wav
64,192,22694,1,8,0:0:0:0:
320,192,22694,1,0,0:0:0:40:hat pedal.wav
192,192,22934,1,0,0:0:0:40:hat pedal.wav
448,192,23054,1,0,0:0:0:40:hat pedal.wav
320,192,23174,1,0,0:0:0:40:hat pedal.wav
64,192,23414,1,0,0:0:0:40:hat pedal.wav
320,192,23534,1,0,0:0:0:40:hat pedal.wav
448,192,23774,1,0,0:0:0:40:hat pedal.wav
320,192,23894,1,0,0:0:0:40:hat pedal.wav
192,192,24014,1,0,0:0:0:40:hat pedal.wav
64,192,24134,1,0,0:0:0:40:snare.wav
448,192,24134,128,0,24614:0:0:0:0:
64,192,24614,1,8,2:0:0:0:
192,192,24734,1,8,2:0:0:0:
320,192,24854,1,8,2:0:0:0:
448,192,24854,1,0,0:0:0:0:
64,192,25094,128,2,25334:0:0:0:0:
192,192,25094,1,0,0:0:0:0:
320,192,25334,1,0,0:0:0:0:
192,192,25574,128,2,25814:0:0:0:0:
448,192,25574,1,0,0:0:0:0:
64,192,25814,1,0,0:0:0:0:
320,192,25934,1,0,0:0:0:0:
448,192,26054,1,2,0:0:0:0:
192,192,26174,1,0,0:0:0:0:
64,192,26294,1,0,0:0:0:0:
320,192,26414,1,0,0:0:0:0:
192,192,26534,1,2,0:0:0:0:
448,192,26534,128,0,26774:0:0:0:0:
320,192,26774,1,0,0:0:0:0:
192,192,26894,1,0,0:0:0:0:
64,192,27014,128,2,27254:0:0:0:0:
448,192,27014,1,0,0:0:0:0:
320,192,27254,1,0,0:0:0:0:
64,192,27494,1,2,0:0:0:0:
448,192,27494,128,0,27734:0:0:0:0:
192,192,27734,1,0,0:0:0:40:bell.wav
320,192,27854,1,0,0:0:0:40:bell.wav
64,192,27974,1,2,0:0:0:0:
192,192,28094,1,0,0:0:0:40:bell.wav
448,192,28214,128,0,28454:0:0:0:40:bell.wav
64,192,28454,1,2,0:0:0:0:
192,192,28574,1,0,0:0:0:40:bell.wav
320,192,28694,128,0,28934:0:0:0:40:bell.wav
64,192,28934,128,2,29174:0:0:0:0:
448,192,28934,1,0,0:0:0:0:
192,192,29174,1,0,0:0:0:0:
320,192,29414,1,2,0:0:0:0:
448,192,29414,128,0,29654:0:0:0:0:
192,192,29654,1,0,0:0:0:0:
320,192,29774,1,0,0:0:0:0:
448,192,29894,1,2,0:0:0:0:
192,192,30014,1,0,0:0:0:0:
64,192,30134,1,0,0:0:0:0:
448,192,30254,1,0,0:0:0:0:
192,192,30374,128,2,30614:0:0:0:0:
320,192,30374,1,0,0:0:0:0:
64,192,30614,1,0,0:0:0:0:
320,192,30854,128,2,31094:0:0:0:0:
448,192,30854,1,0,0:0:0:40:bell.wav
192,192,31094,1,0,0:0:0:40:bell.wav
64,192,31214,1,0,0:0:0:40:bell.wav
320,192,31334,1,2,0:0:0:0:
448,192,31334,128,0,31574:0:0:0:40:bell.wav
192,192,31574,1,0,0:0:0:40:bell.wav
320,192,31694,1,0,0:0:0:40:bell.wav
64,192,31814,128,2,32294:0:0:0:0:
448,192,31814,1,0,0:0:0:40:bell.wav
320,192,32294,128,2,32774:0:0:0:0:
64,192,32774,1,0,0:0:0:40:chime.wav
192,192,32774,1,0,0:0:0:0:
448,192,33014,1,0,0:0:0:0:
320,192,33134,1,0,0:0:0:0:
192,192,33254,1,0,0:0:0:40:chime.wav
320,192,33494,1,0,0:0:0:0:
192,192,33614,1,0,0:0:0:0:
64,192,33734,1,0,0:0:0:40:chime.wav
320,192,33974,1,0,0:0:0:0:
192,192,34094,1,0,0:0:0:0:
448,192,34214,1,0,0:0:0:40:chime.wav
64,192,34454,1,0,0:0:0:0:
192,192,34574,1,0,0:0:0:0:
320,192,34694,1,0,0:0:0:40:chime.wav
192,192,34934,1,0,0:0:0:0:
320,192,35054,1,0,0:0:0:0:
448,192,35174,1,0,0:0:0:40:chime.wav
192,192,35294,1,0,0:0:0:0:
64,192,35414,1,0,0:0:0:0:
320,192,35534,1,0,0:0:0:0:
192,192,35654,1,0,0:0:0:40:chime.wav
64,192,35774,1,0,0:0:0:0:
320,192,35894,1,0,0:0:0:0:
192,192,36014,1,0,0:0:0:0:
448,192,36134,128,2,36374:0:0:0:0:
320,192,36374,128,0,36614:0:0:0:0:
64,192,36614,1,2,0:0:0:0:
192,192,36614,128,0,36854:0:0:0:0:
448,192,36854,1,0,0:0:0:0:
64,192,37094,128,2,37334:0:0:0:0:
320,192,37094,1,0,0:0:0:0:
192,192,37334,1,0,0:0:0:0:
320,192,37454,1,0,0:0:0:0:
448,192,37574,1,2,0:0:0:0:
192,192,37694,1,0,0:0:0:0:
64,192,37814,1,0,0:0:0:0:
448,192,37934,1,0,0:0:0:0:
192,192,38054,1,2,0:0:0:0:
320,192,38054,128,0,38294:0:0:0:0:
448,192,38294,128,0,38534:0:0:0:0:
64,192,38534,128,2,38774:0:0:0:0:
192,192,38534,1,0,0:0:0:0:
448,192,38774,1,0,0:0:0:40:clap.wav
320,192,38894,1,0,0:0:0:40:clap.wav
64,192,39014,1,2,0:0:0:0:
192,192,39014,128,0,39254:0:0:0:40:clap.wav
448,192,39254,1,0,0:0:0:40:clap.wav
320,192,39374,1,0,0:0:0:40:clap.wav
64,192,39494,128,2,39974:0:0:0:0:
192,192,39494,1,0,0:0:0:40:clap.wav
192,192,39974,1,2,0:0:0:0:
448,192,39974,128,0,40454:0:0:0:0:
192,192,40454,1,2,0:0:0:0:
320,192,40694,1,0,0:0:0:0:
448,192,40934,1,0,0:0:0:40:chime.wav
192,192,41174,1,0,0:0:0:0:
64,192,41414,1,0,0:0:0:40:chime.wav
448,192,41654,1,0,0:0:0:0:
320,192,41894,1,0,0:0:0:40:chime.wav
192,192,42134,1,0,0:0:0:0:
320,192,42374,1,0,0:0:0:40:chime.wav
64,192,42614,1,0,0:0:0:0:
192,192,42854,1,0,0:0:0:40:chime.wav
320,192,43094,1,0,0:0:0:0:
192,192,43334,1,0,0:0:0:40:chime.wav
448,192,43574,1,0,0:0:0:0:
320,192,43814,1,0,0:0:0:40:chime.wav
64,192,44054,1,0,0:0:0:0:
192,192,44294,1,0,0:0:0:40:chime.wav
320,192,44534,1,0,0:0:0:0:
448,192,44774,1,0,0:0:0:40:chime.wav
64,192,45014,1,0,0:0:0:0:
192,192,45254,1,0,0:0:0:40:chime.wav
320,192,45494,1,0,0:0:0:0:
192,192,45734,1,0,0:0:0:40:chime.wav
448,192,45974,1,0,0:0:0:0:
320,192,46214,1,0,0:0:0:40:chime.wav
64,192,46454,1,0,0:0:0:0:
192,192,46694,1,0,0:0:0:40:chime.wav
320,192,46934,1,0,0:0:0:0:
448,192,47174,1,0,0:0:0:40:chime.wav
320,192,47414,1,0,0:0:0:0:
64,192,47654,1,2,0:0:0:0:
192,192,47654,1,0,0:0:0:40:chime.wav
320,192,47894,1,2,0:0:0:0:
448,192,47894,1,0,0:0:0:0:
64,192,48134,1,2,0:0:0:0:
192,192,48134,1,0,0:0:0:40:chime.wav
320,192,48374,1,0,0:0:0:40:tom2.wav
192,192,48614,1,0,0:0:0:40:tom2.wav
448,192,48614,1,0,0:0:0:40:chime.wav
64,192,48854,1,0,0:0:0:40:tom2.wav
192,192,49094,1,0,0:0:0:40:tom2.wav
320,192,49094,1,0,0:0:0:40:chime.wav
448,192,49334,1,0,0:0:0:40:tom2.wav
64,192,49574,1,0,0:0:0:40:tom2.wav
320,192,49574,1,0,0:0:0:40:chime.wav
192,192,49814,1,0,0:0:0:40:tom2.wav
320,192,50054,1,0,0:0:0:40:tom2.wav
448,192,50054,1,0,0:0:0:40:chime.wav
192,192,50294,1,0,0:0:0:40:tom2.wav
64,192,50534,1,0,0:0:0:40:tom2.wav
320,192,50534,1,0,0:0:0:40:chime.wav
448,192,50774,1,0,0:0:0:40:tom2.wav
192,192,51014,1,0,0:0:0:40:tom2.wav
320,192,51014,1,0,0:0:0:40:chime.wav
64,192,51254,1,0,0:0:0:40:tom2.wav
320,192,51494,1,0,0:0:0:40:tom2.wav
448,192,51494,1,0,0:0:0:40:chime.wav
192,192,51734,1,0,0:0:0:40:tom2.wav
64,192,51974,1,0,0:0:0:40:tom2.wav
320,192,51974,128,0,53894:0:0:0:40:chime.wav
448,192,52454,1,0,0:0:0:40:chime.wav
64,192,52934,1,0,0:0:0:40:tom3.wav
192,192,52934,128,0,53894:0:0:0:40:chime.wav
448,192,53414,1,0,0:0:0:40:tom3.wav
64,192,53894,1,2,0:0:0:0:
448,192,53894,1,0,0:0:0:0:
192,192,54374,1,2,0:0:0:0:
320,192,54374,1,0,0:0:0:0:
64,192,54854,1,2,0:0:0:0:
448,192,54854,1,0,0:0:0:0:
192,192,55334,128,0,55814:0:0:0:40:tom.wav
320,192,55334,128,0,55814:0:0:0:0:
64,192,55814,1,2,0:0:0:0:
448,192,55814,128,0,56294:0:0:0:0:
192,192,56054,1,0,0:0:0:0:
320,192,56294,1,8,0:0:0:0:
192,192,56534,1,0,0:0:0:0:
64,192,56774,128,2,57254:0:0:0:0:
448,192,56774,1,0,0:0:0:0:
320,192,57014,1,0,0:0:0:0:
192,192,57254,1,8,0:0:0:0:
448,192,57494,1,0,0:0:0:0:
64,192,57734,1,2,0:0:0:0:
320,192,57734,128,0,58214:0:0:0:0:
192,192,57974,1,0,0:0:0:0:
64,192,58214,128,8,58694:0:0:0:0:
448,192,58214,1,0,0:0:0:0:
192,192,58454,1,0,0:0:0:0:
320,192,58694,128,2,58934:0:0:0:0:
448,192,58694,1,0,0:0:0:0:
64,192,58934,128,0,59174:0:0:0:0:
192,192,59174,1,8,0:0:0:0:
448,192,59174,128,0,59414:0:0:0:0:
320,192,59414,128,0,59654:0:0:0:0:
64,192,59654,128,2,60134:0:0:0:0:
192,192,59654,1,0,0:0:0:0:
320,192,59894,1,0,0:0:0:0:
192,192,60134,128,8,60614:0:0:0:0:
448,192,60134,1,0,0:0:0:0:
320,192,60374,1,0,0:0:0:0:
64,192,60614,1,2,0:0:0:0:
448,192,60614,128,0,61094:0:0:0:0:
320,192,60854,1,0,0:0:0:0:
64,192,61094,128,8,61574:0:0:0:0:
192,192,61094,1,0,0:0:0:0:
320,192,61334,1,0,0:0:0:0:
192,192,61574,1,2,0:0:0:0:
448,192,61574,128,0,61814:0:0:0:0:
320,192,61814,128,0,62054:0:0:0:0:
64,192,62054,1,8,0:0:0:0:
192,192,62054,128,0,62294:0:0:0:0:
448,192,62294,1,0,0:0:0:0:
320,192,62414,1,0,0:0:0:0:
64,192,62534,128,2,62774:0:0:0:0:
192,192,62534,1,0,0:0:0:0:
448,192,62774,128,0,63014:0:0:0:0:
64,192,63014,1,8,0:0:0:0:
192,192,63014,128,0,63254:0:0:0:0:
320,192,63254,128,0,63494:0:0:0:0:
64,192,63494,128,2,63974:0:0:0:0:
448,192,63494,1,0,0:0:0:0:
320,192,63734,1,0,0:0:0:0:
192,192,63974,1,8,0:0:0:0:
320,192,64214,1,0,0:0:0:0:
64,192,64454,1,2,0:0:0:0:
448,192,64454,128,0,64934:0:0:0:0:
192,192,64694,1,0,0:0:0:0:
320,192,64934,1,8,0:0:0:0:
64,192,65174,1,0,0:0:0:0:
192,192,65414,128,2,65894:0:0:0:0:
448,192,65414,1,0,0:0:0:0:
320,192,65654,1,0,0:0:0:0:
64,192,65894,1,8,0:0:0:0:
320,192,66134,1,0,0:0:0:0:
64,192,66374,128,2,66854:0:0:0:0:
448,192,66374,1,0,0:0:0:0:
320,192,66614,1,0,0:0:0:0:
192,192,66854,1,8,0:0:0:0:
448,192,67094,1,0,0:0:0:0:
192,192,67334,128,2,67574:0:0:0:0:
320,192,67334,1,0,0:0:0:0:
448,192,67574,1,0,0:0:0:0:
320,192,67694,1,0,0:0:0:0:
64,192,67814,1,8,0:0:0:0:
192,192,67934,1,0,0:0:0:0:
320,192,68054,1,0,0:0:0:0:
448,192,68174,1,0,0:0:0:0:
64,192,68294,1,2,0:0:0:0:
192,192,68294,128,0,68534:0:0:0:0:
448,192,68534,1,0,0:0:0:0:
320,192,68654,1,0,0:0:0:0:
64,192,68774,1,8,0:0:0:0:
192,192,68894,1,0,0:0:0:0:
320,192,69014,128,0,69254:0:0:0:0:
64,192,69254,1,2,0:0:0:0:
448,192,69254,128,0,69494:0:0:0:0:
192,192,69494,128,0,69734:0:0:0:0:
64,192,69734,128,8,69974:0:0:0:0:
320,192,69734,1,0,0:0:0:0:
448,192,69974,128,0,70094:0:0:0:0:
320,192,70094,128,0,70214:0:0:0:0:
64,192,70214,128,2,70694:0:0:0:0:
320,192,70694,128,0,71174:0:0:0:40:tom.wav
448,192,70694,1,0,0:0:0:0:
64,192,71174,1,2,0:0:0:0:
192,192,71174,128,0,71654:0:0:0:0:
320,192,71654,1,8,0:0:0:0:
448,192,71654,1,0,0:0:0:0:
64,192,71894,1,0,0:0:0:0:
192,192,72134,1,2,0:0:0:0:
448,192,72134,1,0,0:0:0:0:
320,192,72374,1,0,0:0:0:0:
64,192,72614,1,8,0:0:0:0:
192,192,72614,1,0,0:0:0:0:
448,192,72854,1,0,0:0:0:0:
320,192,72974,1,0,0:0:0:0:
64,192,73094,1,2,0:0:0:0:
192,192,73094,1,0,0:0:0:0:
448,192,73334,1,0,0:0:0:0:
64,192,73574,1,8,0:0:0:0:
320,192,73574,1,0,0:0:0:0:
192,192,73814,1,0,0:0:0:0:
320,192,73934,1,0,0:0:0:0:
64,192,74054,1,2,0:0:0:0:
448,192,74054,1,0,0:0:0:0:
192,192,74294,1,0,0:0:0:0:
64,192,74534,1,8,0:0:0:0:
320,192,74534,1,0,0:0:0:0:
448,192,74774,1,0,0:0:0:0:
192,192,74894,1,0,0:0:0:0:
64,192,75014,128,2,75494:0:0:0:0:
320,192,75014,1,0,0:0:0:0:
192,192,75494,1,8,0:0:0:0:
448,192,75494,1,0,0:0:0:0:
64,192,75734,1,0,0:0:0:0:
192,192,75974,1,2,0:0:0:0:
448,192,75974,1,0,0:0:0:0:
320,192,76214,1,0,0:0:0:0:
64,192,76454,1,8,0:0:0:0:
192,192,76454,1,0,0:0:0:0:
448,192,76694,1,0,0:0:0:0:
320,192,76814,1,0,0:0:0:0:
64,192,76934,1,2,0:0:0:0:
192,192,76934,1,0,0:0:0:0:
320,192,77174,1,0,0:0:0:0:
192,192,77294,1,0,0:0:0:0:
448,192,77534,1,0,0:0:0:0:
320,192,77654,1,0,0:0:0:0:
192,192,77774,1,0,0:0:0:0:
64,192,77894,128,2,78374:0:0:0:0:
448,192,77894,1,0,0:0:0:0:
192,192,78374,128,8,78854:0:0:0:0:
448,192,78374,1,0,0:0:0:0:
64,192,78854,1,2,0:0:0:0:
320,192,78854,128,0,79334:0:0:0:0:
192,192,79334,1,8,0:0:0:0:
448,192,79334,1,0,0:0:0:0:
64,192,79574,1,0,0:0:0:0:
320,192,79814,1,2,0:0:0:0:
448,192,79814,1,0,0:0:0:0:
192,192,80054,1,0,0:0:0:0:
64,192,80294,1,8,0:0:0:0:
320,192,80294,1,0,0:0:0:0:
448,192,80534,1,0,0:0:0:0:
320,192,80654,1,0,0:0:0:0:
64,192,80774,1,2,0:0:0:0:
192,192,80774,1,0,0:0:0:0:
320,192,81014,1,0,0:0:0:0:
192,192,81254,1,8,0:0:0:0:
448,192,81254,1,0,0:0:0:0:
64,192,81494,1,0,0:0:0:0:
192,192,81614,1,0,0:0:0:0:
320,192,81734,1,2,0:0:0:0:
448,192,81734,1,0,0:0:0:0:
64,192,81974,1,0,0:0:0:0:
192,192,82214,1,8,0:0:0:0:
320,192,82214,1,0,0:0:0:0:
448,192,82454,1,0,0:0:0:0:
192,192,82574,1,0,0:0:0:0:
64,192,82694,1,2,0:0:0:0:
320,192,82694,128,0,83174:0:0:0:40:hat pedal.wav
64,192,83174,1,8,0:0:0:0:
192,192,83174,1,0,0:0:0:40:hat pedal.wav
448,192,83414,1,0,0:0:0:40:hat pedal.wav
64,192,83654,1,2,0:0:0:0:
320,192,83654,1,0,0:0:0:40:hat pedal.wav
192,192,83894,1,0,0:0:0:40:hat pedal.wav
64,192,84134,1,8,0:0:0:0:
448,192,84134,1,0,0:0:0:40:hat pedal.wav
320,192,84374,1,0,0:0:0:40:hat pedal.wav
192,192,84494,1,0,0:0:0:40:hat pedal.wav
64,192,84614,1,2,0:0:0:0:
448,192,84614,1,0,0:0:0:0:
320,192,84854,1,0,0:0:0:0:
192,192,84974,1,0,0:0:0:0:
448,192,85214,1,0,0:0:0:0:
320,192,85334,1,0,0:0:0:0:
64,192,85454,1,0,0:0:0:0:
192,192,85574,128,2,86294:0:0:0:0:
448,192,85574,1,0,0:0:0:0:
448,192,86294,1,0,0:0:0:0:
320,192,86414,1,0,0:0:0:0:
64,192,86534,1,0,0:0:0:40:cymbal.wav
192,192,86534,1,0,0:0:0:0:
192,192,86894,1,0,0:0:0:0:
320,192,87014,1,0,0:0:0:0:
448,192,87254,1,0,0:0:0:0:
320,192,87374,1,0,0:0:0:0:
192,192,87494,1,0,0:0:0:0:
64,192,87734,1,0,0:0:0:0:
448,192,87974,1,0,0:0:0:0:
64,192,88214,1,0,0:0:0:0:
192,192,88334,1,0,0:0:0:0:
320,192,88454,1,0,0:0:0:0:
448,192,88694,1,0,0:0:0:0:
320,192,88814,1,0,0:0:0:0:
192,192,88934,1,0,0:0:0:0:
64,192,89054,1,0,0:0:0:0:
448,192,89174,1,0,0:0:0:0:
320,192,89294,1,0,0:0:0:0:
192,192,89414,128,0,89894:0:0:0:0:
64,192,89894,1,0,0:0:0:0:
320,192,90134,1,0,0:0:0:0:
192,192,90374,1,0,0:0:0:0:
448,192,90614,1,0,0:0:0:0:
320,192,90734,1,0,0:0:0:0:
192,192,90854,1,0,0:0:0:0:
448,192,91094,1,0,0:0:0:0:
320,192,91214,1,0,0:0:0:0:
64,192,91334,1,0,0:0:0:0:
448,192,91574,1,0,0:0:0:0:
320,192,91694,1,0,0:0:0:0:
64,192,91814,1,0,0:0:0:0:
192,192,91934,1,0,0:0:0:0:
320,192,92054,1,0,0:0:0:0:
448,192,92174,1,0,0:0:0:0:
64,192,92294,128,2,92774:0:0:0:0:
192,192,92294,1,0,0:0:0:0:
320,192,92774,128,2,93254:0:0:0:0:
448,192,92774,1,0,0:0:0:0:
64,192,93254,1,2,0:0:0:0:
192,192,93254,128,0,93734:0:0:0:40:clap.wav
448,192,93734,1,2,0:0:0:0:
320,192,93854,1,0,0:0:0:0:
64,192,93974,1,2,0:0:0:0:
192,192,93974,1,0,0:0:0:0:
448,192,94094,1,0,0:0:0:0:
320,192,94214,1,0,0:0:0:0:
192,192,94574,1,0,0:0:0:0:
320,192,94694,1,2,0:0:0:0:
448,192,94934,1,0,0:0:0:0:
320,192,95054,1,0,0:0:0:0:
192,192,95174,1,0,0:0:0:0:
448,192,95414,1,0,0:0:0:0:
320,192,95534,1,0,0:0:0:0:
192,192,95654,1,2,0:0:0:0:
64,192,95774,1,0,0:0:0:0:
320,192,95894,1,0,0:0:0:0:
448,192,96014,1,0,0:0:0:0:
192,192,96134,1,0,0:0:0:0:
64,192,96374,1,0,0:0:0:0:
192,192,96494,1,0,0:0:0:0:
448,192,96614,1,2,0:0:0:0:
320,192,96734,1,0,0:0:0:0:
192,192,96854,1,0,0:0:0:0:
64,192,96974,1,0,0:0:0:0:
320,192,97094,1,0,0:0:0:0:
64,192,97334,1,0,0:0:0:0:
192,192,97454,1,0,0:0:0:0:
320,192,97574,1,0,0:0:0:40:tom2.wav
448,192,97694,1,0,0:0:0:0:
64,192,97814,1,0,0:0:0:0:
192,192,97934,1,0,0:0:0:0:
320,192,98054,128,2,98294:0:0:0:0:
448,192,98054,1,0,0:0:0:0:
64,192,98534,1,2,0:0:0:0:
448,192,98534,128,0,98774:0:0:0:0:
64,192,99014,128,2,99254:0:0:0:0:
192,192,99014,1,0,0:0:0:0:
320,192,99494,128,2,99734:0:0:0:0:
448,192,99494,1,0,0:0:0:40:clap.wav
64,192,99974,1,2,0:0:0:0:
192,192,99974,128,0,100454:0:0:0:0:
320,192,100454,1,2,0:0:0:0:
448,192,100454,128,0,100934:0:0:0:0:
64,192,100934,128,2,101414:0:0:0:0:
192,192,100934,1,0,0:0:0:0:
320,192,101414,128,0,101894:0:0:0:40:tom.wav
448,192,101414,1,0,0:0:0:0:
192,192,101654,1,0,0:0:0:0:
64,192,101894,1,0,0:0:0:40:cymbal.wav
448,192,102254,1,0,0:0:0:0:
320,192,102374,1,0,0:0:0:0:
64,192,102614,1,0,0:0:0:0:
192,192,102734,1,0,0:0:0:0:
448,192,102854,1,0,0:0:0:0:
64,192,103094,1,0,0:0:0:0:
192,192,103334,1,0,0:0:0:0:
448,192,103574,1,0,0:0:0:0:
320,192,103694,1,0,0:0:0:0:
64,192,103814,1,0,0:0:0:0:
448,192,104054,1,0,0:0:0:0:
192,192,104294,1,0,0:0:0:0:
448,192,104534,1,0,0:0:0:0:
320,192,104654,1,0,0:0:0:0:
64,192,104774,128,0,105254:0:0:0:40:clap.wav
320,192,105254,1,0,0:0:0:0:
192,192,105494,1,0,0:0:0:0:
64,192,105734,128,2,106214:0:0:0:0:
448,192,105734,1,0,0:0:0:0:
320,192,105974,1,0,0:0:0:0:
192,192,106214,1,0,0:0:0:40:clap.wav
448,192,106454,1,0,0:0:0:0:
320,192,106574,1,0,0:0:0:0:
64,192,106694,1,2,0:0:0:0:
192,192,106694,128,0,107174:0:0:0:0:
448,192,106934,1,0,0:0:0:0:
320,192,107174,1,0,0:0:0:40:clap.wav
64,192,107414,1,0,0:0:0:0:
192,192,107534,1,0,0:0:0:0:
320,192,107654,128,2,108134:0:0:0:0:
448,192,107654,1,0,0:0:0:0:
64,192,107894,1,0,0:0:0:0:
192,192,108134,1,2,0:0:0:0:
448,192,108134,128,0,108374:0:0:0:0:
192,192,108374,128,0,108614:0:0:0:0:
64,192,108614,128,2,109094:0:0:0:0:
320,192,108614,1,0,0:0:0:0:
320,192,109094,128,0,109334:0:0:0:40:tom.wav
448,192,109094,1,0,0:0:0:0:
192,192,109334,128,0,109574:0:0:0:0:
64,192,109574,1,2,0:0:0:0:
448,192,109574,128,0,110054:0:0:0:0:
192,192,109814,1,0,0:0:0:0:
320,192,110054,1,8,0:0:0:0:
192,192,110294,1,0,0:0:0:0:
64,192,110534,128,2,111014:0:0:0:0:
448,192,110534,1,0,0:0:0:0:
320,192,110774,1,0,0:0:0:0:
192,192,111014,1,8,0:0:0:0:
448,192,111254,1,0,0:0:0:0:
64,192,111494,1,2,0:0:0:0:
192,192,111494,128,0,111734:0:0:0:0:
320,192,111734,128,0,111974:0:0:0:0:
64,192,111974,1,8,0:0:0:0:
448,192,111974,128,0,112214:0:0:0:0:
192,192,112214,1,0,0:0:0:0:
64,192,112334,1,0,0:0:0:0:
320,192,112454,1,2,0:0:0:0:
448,192,112454,128,0,112934:0:0:0:0:
64,192,112934,1,8,0:0:0:0:
192,192,112934,128,0,113174:0:0:0:0:
320,192,113174,128,0,113414:0:0:0:0:
64,192,113414,128,2,113894:0:0:0:0:
192,192,113414,1,0,0:0:0:0:
448,192,113654,1,0,0:0:0:0:
192,192,113894,1,8,0:0:0:0:
320,192,113894,128,0,114374:0:0:0:0:
64,192,114134,1,0,0:0:0:0:
192,192,114374,128,2,114854:0:0:0:0:
448,192,114374,1,0,0:0:0:0:
320,192,114614,1,0,0:0:0:0:
64,192,114854,1,8,0:0:0:0:
448,192,114854,128,0,115094:0:0:0:0:
64,192,115094,128,0,115334:0:0:0:0:
192,192,115334,1,2,0:0:0:0:
320,192,115334,128,0,115574:0:0:0:0:
448,192,115574,128,0,115814:0:0:0:0:
64,192,115814,1,8,0:0:0:0:
192,192,115814,128,0,116054:0:0:0:0:
320,192,116054,128,0,116294:0:0:0:0:
64,192,116294,128,2,116774:0:0:0:0:
448,192,116294,1,0,0:0:0:40:clap.wav
320,192,116774,128,0,117014:0:0:0:40:tom.wav
448,192,116774,1,0,0:0:0:0:
192,192,117014,128,0,117254:0:0:0:0:
64,192,117254,1,2,0:0:0:0:
448,192,117254,128,0,117734:0:0:0:0:
192,192,117494,1,0,0:0:0:0:
320,192,117734,1,8,0:0:0:0:
192,192,117974,1,0,0:0:0:0:
64,192,118214,128,2,118694:0:0:0:0:
448,192,118214,1,0,0:0:0:0:
320,192,118454,1,0,0:0:0:0:
192,192,118694,1,8,0:0:0:0:
448,192,118934,1,0,0:0:0:0:
64,192,119174,1,2,0:0:0:0:
320,192,119174,128,0,119654:0:0:0:0:
192,192,119414,1,0,0:0:0:0:
64,192,119654,128,8,120134:0:0:0:0:
448,192,119654,1,0,0:0:0:0:
192,192,119894,1,0,0:0:0:0:
320,192,120134,128,2,120374:0:0:0:0:
448,192,120134,1,0,0:0:0:0:
64,192,120374,128,0,120614:0:0:0:0:
320,192,120614,1,8,0:0:0:0:
448,192,120614,128,0,120854:0:0:0:0:
192,192,120854,128,0,121094:0:0:0:0:
64,192,121094,1,2,0:0:0:0:
320,192,121094,128,0,121574:0:0:0:0:
192,192,121334,1,0,0:0:0:0:
64,192,121574,128,8,122054:0:0:0:0:
448,192,121574,1,0,0:0:0:0:
192,192,121814,1,0,0:0:0:0:
320,192,122054,1,2,0:0:0:0:
448,192,122054,128,0,122534:0:0:0:0:
192,192,122294,1,0,0:0:0:0:
64,192,122534,1,8,0:0:0:0:
320,192,122534,128,0,123014:0:0:0:0:
192,192,122774,1,0,0:0:0:0:
64,192,123014,128,2,123254:0:0:0:0:
448,192,123014,1,0,0:0:0:0:
192,192,123254,128,0,123494:0:0:0:0:
320,192,123494,128,8,123734:0:0:0:0:
448,192,123494,1,0,0:0:0:0:
64,192,123734,1,0,0:0:0:0:
192,192,123854,1,0,0:0:0:0:
320,192,123974,1,2,0:0:0:0:
448,192,123974,128,0,124214:0:0:0:0:
64,192,124214,128,0,124454:0:0:0:0:
320,192,124454,128,8,124694:0:0:0:0:
448,192,124454,1,0,0:0:0:0:
192,192,124694,128,0,124934:0:0:0:0:
64,192,124934,128,2,125414:0:0:0:0:
448,192,124934,1,0,0:0:0:0:
320,192,125174,1,0,0:0:0:0:
448,192,125414,1,8,0:0:0:0:
192,192,125654,1,0,0:0:0:0:
320,192,125894,1,2,0:0:0:0:
448,192,125894,128,0,126374:0:0:0:0:
64,192,126134,1,0,0:0:0:0:
192,192,126374,1,8,0:0:0:0:
320,192,126614,1,0,0:0:0:0:
192,192,126854,128,2,127334:0:0:0:0:
448,192,126854,1,0,0:0:0:0:
320,192,127094,1,0,0:0:0:0:
64,192,127334,1,8,0:0:0:0:
448,192,127574,1,0,0:0:0:0:
64,192,127814,128,2,128294:0:0:0:0:
320,192,127814,1,0,0:0:0:0:
192,192,128054,1,0,0:0:0:0:
448,192,128294,1,8,0:0:0:0:
320,192,128534,1,0,0:0:0:0:
192,192,128774,1,2,0:0:0:0:
448,192,128774,128,0,129014:0:0:0:0:
64,192,129014,1,0,0:0:0:0:
192,192,129134,1,0,0:0:0:0:
448,192,129254,1,8,0:0:0:0:
320,192,129374,1,0,0:0:0:0:
192,192,129494,1,0,0:0:0:0:
64,192,129614,1,0,0:0:0:0:
320,192,129734,128,2,129974:0:0:0:0:
448,192,129734,1,0,0:0:0:0:
64,192,129974,1,0,0:0:0:0:
192,192,130094,1,0,0:0:0:0:
448,192,130214,1,8,0:0:0:0:
320,192,130334,1,0,0:0:0:0:
192,192,130454,128,0,130694:0:0:0:0:
64,192,130694,128,2,130934:0:0:0:0:
320,192,130694,1,0,0:0:0:0:
448,192,130934,128,0,131174:0:0:0:0:
192,192,131174,1,8,0:0:0:0:
320,192,131174,128,0,131414:0:0:0:0:
64,192,131414,128,0,131534:0:0:0:0:
192,192,131534,128,0,131654:0:0:0:0:
320,192,131654,128,2,132134:0:0:0:0:
192,192,132134,1,0,0:0:0:40:tom.wav
448,192,132134,128,0,132614:0:0:0:0:
64,192,132614,1,2,0:0:0:0:
192,192,132614,128,0,133094:0:0:0:0:
64,192,133094,1,8,0:0:0:0:
320,192,133094,1,0,0:0:0:40:cymbal.wav
448,192,133334,1,0,0:0:0:0:
192,192,133574,1,2,0:0:0:0:
320,192,133574,1,0,0:0:0:0:
64,192,133814,1,0,0:0:0:0:
192,192,134054,1,8,0:0:0:0:
448,192,134054,1,0,0:0:0:0:
320,192,134294,1,0,0:0:0:0:
192,192,134414,1,0,0:0:0:0:
64,192,134534,1,2,0:0:0:0:
448,192,134534,1,0,0:0:0:0:
320,192,134774,1,0,0:0:0:0:
64,192,135014,1,8,0:0:0:0:
192,192,135014,1,0,0:0:0:0:
448,192,135254,1,0,0:0:0:0:
320,192,135374,1,0,0:0:0:0:
64,192,135494,1,2,0:0:0:0:
192,192,135494,1,0,0:0:0:0:
320,192,135734,1,0,0:0:0:0:
192,192,135974,1,8,0:0:0:0:
448,192,135974,1,0,0:0:0:0:
64,192,136214,1,0,0:0:0:0:
320,192,136334,1,0,0:0:0:0:
192,192,136454,128,2,136934:0:0:0:0:
448,192,136454,1,0,0:0:0:0:
64,192,136934,1,8,0:0:0:0:
320,192,136934,1,0,0:0:0:0:
448,192,137174,1,0,0:0:0:0:
192,192,137414,1,2,0:0:0:0:
320,192,137414,1,0,0:0:0:0:
64,192,137654,1,0,0:0:0:0:
320,192,137894,1,8,0:0:0:0:
448,192,137894,1,0,0:0:0:0:
192,192,138134,1,0,0:0:0:0:
320,192,138254,1,0,0:0:0:0:
64,192,138374,1,2,0:0:0:0:
448,192,138374,1,0,0:0:0:0:
320,192,138614,1,0,0:0:0:0:
192,192,138734,1,0,0:0:0:0:
448,192,138974,1,0,0:0:0:0:
320,192,139094,1,0,0:0:0:0:
192,192,139214,1,0,0:0:0:0:
64,192,139334,1,2,0:0:0:0:
320,192,139334,128,0,139814:0:0:0:0:
192,192,139814,128,8,140294:0:0:0:0:
448,192,139814,1,0,0:0:0:0:
320,192,140294,1,2,0:0:0:0:
448,192,140294,128,0,140774:0:0:0:0:
64,192,140774,1,8,0:0:0:0:
320,192,140774,1,0,0:0:0:0:
192,192,141014,1,0,0:0:0:0:
320,192,141254,1,2,0:0:0:0:
448,192,141254,1,0,0:0:0:0:
64,192,141494,1,0,0:0:0:0:
192,192,141734,1,8,0:0:0:0:
448,192,141734,1,0,0:0:0:0:
320,192,141974,1,0,0:0:0:0:
192,192,142094,1,0,0:0:0:0:
64,192,142214,1,2,0:0:0:0:
448,192,142214,1,0,0:0:0:0:
320,192,142454,1,0,0:0:0:0:
192,192,142694,1,8,0:0:0:0:
448,192,142694,1,0,0:0:0:0:
64,192,142934,1,0,0:0:0:0:
320,192,143054,1,0,0:0:0:0:
192,192,143174,1,2,0:0:0:0:
448,192,143174,1,0,0:0:0:0:
64,192,143414,1,0,0:0:0:0:
320,192,143654,1,8,0:0:0:0:
64,192,143894,1,0,0:0:0:0:
192,192,144014,1,0,0:0:0:0:
320,192,144134,128,2,144614:0:0:0:0:
448,192,144134,1,0,0:0:0:40:hat pedal.wav
64,192,144614,1,8,0:0:0:0:
448,192,144614,1,0,0:0:0:40:hat pedal.wav
192,192,144854,1,0,0:0:0:0:
64,192,145094,1,2,0:0:0:0:
320,192,145094,1,0,0:0:0:0:
448,192,145334,1,0,0:0:0:0:
320,192,145454,1,0,0:0:0:0:
64,192,145574,1,8,2:0:0:0:
192,192,145574,1,0,0:0:0:0:
320,192,145694,1,8,2:0:0:0:
448,192,145814,128,0,146054:0:0:0:40:tom3.wav
64,192,146054,1,8,0:0:0:0:
192,192,146054,1,0,0:0:0:0:
