osu file format v14

[General]
AudioFilename: audio.mp3
AudioLeadIn: 0
PreviewTime: 117258
Countdown: 0
SampleSet: Soft
StackLeniency: 0.7
Mode: 3
LetterboxInBreaks: 0
SpecialStyle: 0
WidescreenStoryboard: 0

[Editor]
DistanceSpacing: 2
BeatDivisor: 8
GridSize: 4
TimelineZoom: 1.5

[Metadata]
Title:Goat Fantasia
TitleUnicode:Goat Fantasia
Artist:Memme
ArtistUnicode:Memme
Creator:Tailsdk
Version:Insanity
Source:Music & Beat (O2Jam)
Tags:electronic instrumental park jong cheol U O2JamU 박종철 오투잼 - 뮤직 & 게임 dance ParkMemme video game soundtrack Dudehacker drum-hitnormal
BeatmapID:1094101
BeatmapSetID:515178

[Difficulty]
HPDrainRate:9
CircleSize:4
OverallDifficulty:8
ApproachRate:5
SliderMultiplier:1.4
SliderTickRate:1

[Events]
//Background and Video events
0,0,"background.jpg",0,0
//Break Periods
//Storyboard Layer 0 (Background)
//Storyboard Layer 1 (Fail)
//Storyboard Layer 2 (Pass)
//Storyboard Layer 3 (Foreground)
//Storyboard Layer 4 (Overlay)
//Storyboard Sound Samples

[TimingPoints]
134,480,4,2,1,40,1,0
9254,-76.9230769230769,4,2,1,40,0,0
9314,-142.857142857143,4,2,1,40,0,0
9374,-76.9230769230769,4,2,1,40,0,0
9434,-200,4,2,1,40,0,0
9494,-100,4,2,1,40,0,0
9734,-142.857142857143,4,2,1,40,0,0
10094,-58.8235294117647,4,2,1,40,0,0
10214,-66.6666666666667,4,2,1,40,0,0
10274,-200,4,2,1,40,0,0
10334,-100,4,2,1,40,0,0
10454,-66.6666666666667,4,2,1,40,0,0
10514,-200,4,2,1,40,0,0
10574,-66.6666666666667,4,2,1,40,0,0
10634,-200,4,2,1,40,0,0
10694,-100,4,2,1,40,0,0
10814,-66.6666666666667,4,2,1,40,0,0
10874,-200,4,2,1,40,0,0
10934,-100,4,2,1,40,0,0
11054,-66.6666666666667,4,2,1,40,0,0
11114,-200,4,2,1,40,0,0
11174,-66.6666666666667,4,2,1,40,0,0
11234,-200,4,2,1,40,0,0
11294,-100,4,2,1,40,0,0
11414,-66.6666666666667,4,2,1,40,0,0
11474,-200,4,2,1,40,0,0
11534,-66.6666666666667,4,2,1,40,0,0
11594,-200,4,2,1,40,0,0
11654,-66.6666666666667,4,2,1,40,0,0
11714,-200,4,2,1,40,0,0
11774,-100,4,2,1,40,0,0
11894,-66.6666666666667,4,2,1,40,0,0
11954,-200,4,2,1,40,0,0
12014,-66.6666666666667,4,2,1,40,0,0
12074,-200,4,2,1,40,0,0
12134,-100,4,2,1,40,0,0
12254,-66.6666666666667,4,2,1,40,0,0
12314,-200,4,2,1,40,0,0
12374,-66.6666666666667,4,2,1,40,0,0
12434,-200,4,2,1,40,0,0
12494,-66.6666666666667,4,2,1,40,0,0
12554,-200,4,2,1,40,0,0
12614,-66.6666666666667,4,2,1,40,0,0
12674,-200,4,2,1,40,0,0
12734,-66.6666666666667,4,2,1,40,0,0
12794,-200,4,2,1,40,0,0
12854,-100,4,2,1,40,0,0
12974,-66.6666666666667,4,2,1,40,0,0
13034,-200,4,2,1,40,0,0
13094,-66.6666666666667,4,2,1,40,0,0
13154,-222.222222222222,4,2,1,40,0,0
13214,-66.6666666666667,4,2,1,40,0,0
13274,-222.222222222222,4,2,1,40,0,0
13334,-66.6666666666667,4,2,1,40,0,0
13394,-200,4,2,1,40,0,0
13454,-66.6666666666667,4,2,1,40,0,0
13514,-200,4,2,1,40,0,0
13574,-142.857142857143,4,2,1,40,0,0
13934,-58.8235294117647,4,2,1,40,0,0
14054,-66.6666666666667,4,2,1,40,0,0
14114,-200,4,2,1,40,0,0
14174,-100,4,2,1,40,0,0
14294,-66.6666666666667,4,2,1,40,0,0
14354,-200,4,2,1,40,0,0
14414,-66.6666666666667,4,2,1,40,0,0
14474,-200,4,2,1,40,0,0
14534,-100,4,2,1,40,0,0
14654,-66.6666666666667,4,2,1,40,0,0
14714,-200,4,2,1,40,0,0
14774,-100,4,2,1,40,0,0
14894,-66.6666666666667,4,2,1,40,0,0
14954,-200,4,2,1,40,0,0
15014,-66.6666666666667,4,2,1,40,0,0
15074,-200,4,2,1,40,0,0
15134,-100,4,2,1,40,0,0
15254,-66.6666666666667,4,2,1,40,0,0
15314,-200,4,2,1,40,0,0
15374,-66.6666666666667,4,2,1,40,0,0
15434,-200,4,2,1,40,0,0
15494,-55.5555555555556,4,2,1,40,0,0
15534,-500,4,2,1,40,0,0
15574,-62.5,4,2,1,40,0,0
15614,-250,4,2,1,40,0,0
15654,-55.5555555555556,4,2,1,40,0,0
15694,-500,4,2,1,40,0,0
15734,-62.5,4,2,1,40,0,0
15774,-250,4,2,1,40,0,0
15814,-55.5555555555556,4,2,1,40,0,0
15854,-500,4,2,1,40,0,0
15894,-62.5,4,2,1,40,0,0
15934,-250,4,2,1,40,0,0
15974,-55.5555555555556,4,2,1,40,0,0
16014,-500,4,2,1,40,0,0
16054,-62.5,4,2,1,40,0,0
16094,-250,4,2,1,40,0,0
16134,-55.5555555555556,4,2,1,40,0,0
16174,-500,4,2,1,40,0,0
16214,-62.5,4,2,1,40,0,0
16254,-250,4,2,1,40,0,0
16294,-55.5555555555556,4,2,1,40,0,0
16334,-500,4,2,1,40,0,0
16374,-62.5,4,2,1,40,0,0
16414,-250,4,2,1,40,0,0
16454,-100,4,2,1,40,0,0
17414,-142.857142857143,4,2,1,40,0,0
17774,-58.8235294117647,4,2,1,40,0,0
17894,-58.8235294117647,4,2,1,40,0,0
17954,-333.333333333333,4,2,1,40,0,0
18014,-100,4,2,1,40,0,0
18134,-66.6666666666667,4,2,1,40,0,0
18194,-200,4,2,1,40,0,0
18254,-66.6666666666667,4,2,1,40,0,0
18314,-200,4,2,1,40,0,0
18374,-100,4,2,1,40,0,0
18494,-66.6666666666667,4,2,1,40,0,0
18554,-200,4,2,1,40,0,0
18614,-100,4,2,1,40,0,0
18734,-66.6666666666667,4,2,1,40,0,0
18794,-200,4,2,1,40,0,0
18854,-58.8235294117647,4,2,1,40,0,0
18914,-333.333333333333,4,2,1,40,0,0
18974,-100,4,2,1,40,0,0
19094,-66.6666666666667,4,2,1,40,0,0
19154,-200,4,2,1,40,0,0
19214,-66.6666666666667,4,2,1,40,0,0
19274,-200,4,2,1,40,0,0
19334,-66.6666666666667,4,2,1,40,0,0
19394,-200,4,2,1,40,0,0
19454,-100,4,2,1,40,0,0
19574,-66.6666666666667,4,2,1,40,0,0
19634,-200,4,2,1,40,0,0
19694,-66.6666666666667,4,2,1,40,0,0
19754,-200,4,2,1,40,0,0
19814,-58.8235294117647,4,2,1,40,0,0
19874,-333.333333333333,4,2,1,40,0,0
19934,-66.6666666666667,4,2,1,40,0,0
19994,-200,4,2,1,40,0,0
20054,-66.6666666666667,4,2,1,40,0,0
20114,-200,4,2,1,40,0,0
20174,-66.6666666666667,4,2,1,40,0,0
20234,-200,4,2,1,40,0,0
20294,-66.6666666666667,4,2,1,40,0,0
20354,-200,4,2,1,40,0,0
20414,-66.6666666666667,4,2,1,40,0,0
20474,-200,4,2,1,40,0,0
20534,-100,4,2,1,40,0,0
20654,-66.6666666666667,4,2,1,40,0,0
20714,-200,4,2,1,40,0,0
20774,-66.6666666666667,4,2,1,40,0,0
20834,-222.222222222222,4,2,1,40,0,0
20894,-66.6666666666667,4,2,1,40,0,0
20954,-222.222222222222,4,2,1,40,0,0
21014,-66.6666666666667,4,2,1,40,0,0
21074,-200,4,2,1,40,0,0
21134,-66.6666666666667,4,2,1,40,0,0
21194,-200,4,2,1,40,0,0
21254,-142.857142857143,4,2,1,40,0,0
21614,-58.8235294117647,4,2,1,40,0,0
21734,-58.8235294117647,4,2,1,40,0,0
21794,-333.333333333333,4,2,1,40,0,0
21854,-66.6666666666667,4,2,1,40,0,0
21914,-200,4,2,1,40,0,0
21974,-66.6666666666667,4,2,1,40,0,0
22034,-200,4,2,1,40,0,0
22094,-66.6666666666667,4,2,1,40,0,0
22154,-200,4,2,1,40,0,0
22214,-66.6666666666667,4,2,1,40,0,0
22274,-200,4,2,1,40,0,0
22334,-66.6666666666667,4,2,1,40,0,0
22394,-200,4,2,1,40,0,0
22454,-66.6666666666667,4,2,1,40,0,0
22514,-200,4,2,1,40,0,0
22574,-66.6666666666667,4,2,1,40,0,0
22634,-200,4,2,1,40,0,0
22694,-58.8235294117647,4,2,1,40,0,0
22754,-333.333333333333,4,2,1,40,0,0
22814,-66.6666666666667,4,2,1,40,0,0
22874,-200,4,2,1,40,0,0
22934,-66.6666666666667,4,2,1,40,0,0
22994,-200,4,2,1,40,0,0
23054,-66.6666666666667,4,2,1,40,0,0
23114,-200,4,2,1,40,0,0
23174,-55.5555555555556,4,2,1,40,0,0
23214,-500,4,2,1,40,0,0
23254,-62.5,4,2,1,40,0,0
23294,-250,4,2,1,40,0,0
23334,-55.5555555555556,4,2,1,40,0,0
23374,-500,4,2,1,40,0,0
23414,-62.5,4,2,1,40,0,0
23454,-250,4,2,1,40,0,0
23494,-55.5555555555556,4,2,1,40,0,0
23534,-500,4,2,1,40,0,0
23574,-62.5,4,2,1,40,0,0
23614,-250,4,2,1,40,0,0
23654,-55.5555555555556,4,2,1,40,0,0
23694,-500,4,2,1,40,0,0
23734,-62.5,4,2,1,40,0,0
23774,-250,4,2,1,40,0,0
23814,-55.5555555555556,4,2,1,40,0,0
23854,-500,4,2,1,40,0,0
23894,-62.5,4,2,1,40,0,0
23934,-250,4,2,1,40,0,0
23974,-55.5555555555556,4,2,1,40,0,0
24014,-500,4,2,1,40,0,0
24054,-62.5,4,2,1,40,0,0
24094,-250,4,2,1,40,0,0
24134,-100,4,2,1,40,0,0
24294,-133.333333333333,4,2,1,40,0,0
24374,-66.6666666666667,4,2,1,40,0,0
24454,-100,4,2,1,40,0,0
32774,-117.647058823529,4,2,1,40,0,0
36374,-125,4,2,1,40,0,0
36434,-117.647058823529,4,2,1,40,0,0
36494,-111.111111111111,4,2,1,40,0,0
36554,-105.263157894737,4,2,1,40,0,0
36614,-100,4,2,1,40,0,0
40454,-117.647058823529,4,2,1,40,0,0
48134,-111.111111111111,4,2,1,40,0,0
51974,-105.263157894737,4,2,1,40,0,0
53894,-100,4,2,1,40,0,0
55814,-100,4,2,1,40,0,1
70694,-76.9230769230769,4,2,1,40,0,1
71174,-142.857142857143,4,2,1,40,0,0
71534,-58.8235294117647,4,2,1,40,0,0
71654,-66.6666666666667,4,2,1,40,0,0
71714,-200,4,2,1,40,0,0
71774,-100,4,2,1,40,0,0
71894,-66.6666666666667,4,2,1,40,0,0
71954,-200,4,2,1,40,0,0
72014,-66.6666666666667,4,2,1,40,0,0
72074,-200,4,2,1,40,0,0
72134,-100,4,2,1,40,0,0
72254,-66.6666666666667,4,2,1,40,0,0
72314,-200,4,2,1,40,0,0
72374,-100,4,2,1,40,0,0
72494,-66.6666666666667,4,2,1,40,0,0
72554,-200,4,2,1,40,0,0
72614,-66.6666666666667,4,2,1,40,0,0
72674,-200,4,2,1,40,0,0
72734,-100,4,2,1,40,0,0
72854,-66.6666666666667,4,2,1,40,0,0
72914,-200,4,2,1,40,0,0
72974,-66.6666666666667,4,2,1,40,0,0
73034,-200,4,2,1,40,0,0
73094,-66.6666666666667,4,2,1,40,0,0
73154,-200,4,2,1,40,0,0
73214,-100,4,2,1,40,0,0
73334,-66.6666666666667,4,2,1,40,0,0
73394,-200,4,2,1,40,0,0
73454,-66.6666666666667,4,2,1,40,0,0
73514,-200,4,2,1,40,0,0
73574,-100,4,2,1,40,0,0
73694,-66.6666666666667,4,2,1,40,0,0
73754,-200,4,2,1,40,0,0
73814,-66.6666666666667,4,2,1,40,0,0
73874,-200,4,2,1,40,0,0
73934,-66.6666666666667,4,2,1,40,0,0
73994,-200,4,2,1,40,0,0
74054,-66.6666666666667,4,2,1,40,0,0
74114,-200,4,2,1,40,0,0
74174,-66.6666666666667,4,2,1,40,0,0
74234,-200,4,2,1,40,0,0
74294,-100,4,2,1,40,0,0
74414,-66.6666666666667,4,2,1,40,0,0
74474,-200,4,2,1,40,0,0
74534,-66.6666666666667,4,2,1,40,0,0
74594,-222.222222222222,4,2,1,40,0,0
74654,-66.6666666666667,4,2,1,40,0,0
74714,-222.222222222222,4,2,1,40,0,0
74774,-66.6666666666667,4,2,1,40,0,0
74834,-200,4,2,1,40,0,0
74894,-66.6666666666667,4,2,1,40,0,0
74954,-200,4,2,1,40,0,0
75014,-142.857142857143,4,2,1,40,0,0
75374,-58.8235294117647,4,2,1,40,0,0
75494,-66.6666666666667,4,2,1,40,0,0
75554,-200,4,2,1,40,0,0
75614,-100,4,2,1,40,0,0
75734,-66.6666666666667,4,2,1,40,0,0
75794,-200,4,2,1,40,0,0
75854,-66.6666666666667,4,2,1,40,0,0
75914,-200,4,2,1,40,0,0
75974,-100,4,2,1,40,0,0
76094,-66.6666666666667,4,2,1,40,0,0
76154,-200,4,2,1,40,0,0
76214,-100,4,2,1,40,0,0
76334,-66.6666666666667,4,2,1,40,0,0
76394,-200,4,2,1,40,0,0
76454,-66.6666666666667,4,2,1,40,0,0
76514,-200,4,2,1,40,0,0
76574,-100,4,2,1,40,0,0
76694,-66.6666666666667,4,2,1,40,0,0
76754,-200,4,2,1,40,0,0
76814,-66.6666666666667,4,2,1,40,0,0
76874,-200,4,2,1,40,0,0
76934,-55.5555555555556,4,2,1,40,0,0
76974,-500,4,2,1,40,0,0
77014,-62.5,4,2,1,40,0,0
77054,-250,4,2,1,40,0,0
77094,-55.5555555555556,4,2,1,40,0,0
77134,-500,4,2,1,40,0,0
77174,-62.5,4,2,1,40,0,0
77214,-250,4,2,1,40,0,0
77254,-55.5555555555556,4,2,1,40,0,0
77294,-500,4,2,1,40,0,0
77334,-62.5,4,2,1,40,0,0
77374,-250,4,2,1,40,0,0
77414,-55.5555555555556,4,2,1,40,0,0
77454,-500,4,2,1,40,0,0
77494,-62.5,4,2,1,40,0,0
77534,-250,4,2,1,40,0,0
77574,-55.5555555555556,4,2,1,40,0,0
77614,-500,4,2,1,40,0,0
77654,-62.5,4,2,1,40,0,0
77694,-250,4,2,1,40,0,0
77734,-55.5555555555556,4,2,1,40,0,0
77774,-500,4,2,1,40,0,0
77814,-62.5,4,2,1,40,0,0
77854,-250,4,2,1,40,0,0
77894,-100,4,2,1,40,0,0
78854,-142.857142857143,4,2,1,40,0,0
79214,-58.8235294117647,4,2,1,40,0,0
79334,-58.8235294117647,4,2,1,40,0,0
79394,-333.333333333333,4,2,1,40,0,0
79454,-100,4,2,1,40,0,0
79574,-66.6666666666667,4,2,1,40,0,0
79634,-200,4,2,1,40,0,0
79694,-66.6666666666667,4,2,1,40,0,0
79754,-200,4,2,1,40,0,0
79814,-100,4,2,1,40,0,0
79934,-66.6666666666667,4,2,1,40,0,0
79994,-200,4,2,1,40,0,0
80054,-100,4,2,1,40,0,0
80174,-66.6666666666667,4,2,1,40,0,0
80234,-200,4,2,1,40,0,0
80294,-58.8235294117647,4,2,1,40,0,0
80354,-333.333333333333,4,2,1,40,0,0
80414,-100,4,2,1,40,0,0
80534,-66.6666666666667,4,2,1,40,0,0
80594,-200,4,2,1,40,0,0
80654,-66.6666666666667,4,2,1,40,0,0
80714,-200,4,2,1,40,0,0
80774,-66.6666666666667,4,2,1,40,0,0
80834,-200,4,2,1,40,0,0
80894,-100,4,2,1,40,0,0
81014,-66.6666666666667,4,2,1,40,0,0
81074,-200,4,2,1,40,0,0
81134,-66.6666666666667,4,2,1,40,0,0
81194,-200,4,2,1,40,0,0
81254,-58.8235294117647,4,2,1,40,0,0
81314,-333.333333333333,4,2,1,40,0,0
81374,-66.6666666666667,4,2,1,40,0,0
81434,-200,4,2,1,40,0,0
81494,-66.6666666666667,4,2,1,40,0,0
81554,-200,4,2,1,40,0,0
81614,-66.6666666666667,4,2,1,40,0,0
81674,-200,4,2,1,40,0,0
81734,-66.6666666666667,4,2,1,40,0,0
81794,-200,4,2,1,40,0,0
81854,-66.6666666666667,4,2,1,40,0,0
81914,-200,4,2,1,40,0,0
81974,-100,4,2,1,40,0,0
82094,-66.6666666666667,4,2,1,40,0,0
82154,-200,4,2,1,40,0,0
82214,-66.6666666666667,4,2,1,40,0,0
82274,-222.222222222222,4,2,1,40,0,0
82334,-66.6666666666667,4,2,1,40,0,0
82394,-222.222222222222,4,2,1,40,0,0
82454,-66.6666666666667,4,2,1,40,0,0
82514,-200,4,2,1,40,0,0
82574,-66.6666666666667,4,2,1,40,0,0
82634,-200,4,2,1,40,0,0
82694,-142.857142857143,4,2,1,40,0,0
83054,-58.8235294117647,4,2,1,40,0,0
83174,-58.8235294117647,4,2,1,40,0,0
83234,-333.333333333333,4,2,1,40,0,0
83294,-66.6666666666667,4,2,1,40,0,0
83354,-200,4,2,1,40,0,0
83414,-66.6666666666667,4,2,1,40,0,0
83474,-200,4,2,1,40,0,0
83534,-66.6666666666667,4,2,1,40,0,0
83594,-200,4,2,1,40,0,0
83654,-66.6666666666667,4,2,1,40,0,0
83714,-200,4,2,1,40,0,0
83774,-66.6666666666667,4,2,1,40,0,0
83834,-200,4,2,1,40,0,0
83894,-66.6666666666667,4,2,1,40,0,0
83954,-200,4,2,1,40,0,0
84014,-66.6666666666667,4,2,1,40,0,0
84074,-200,4,2,1,40,0,0
84134,-58.8235294117647,4,2,1,40,0,0
84194,-333.333333333333,4,2,1,40,0,0
84254,-66.6666666666667,4,2,1,40,0,0
84314,-200,4,2,1,40,0,0
84374,-66.6666666666667,4,2,1,40,0,0
84434,-200,4,2,1,40,0,0
84494,-66.6666666666667,4,2,1,40,0,0
84554,-200,4,2,1,40,0,0
84614,-55.5555555555556,4,2,1,40,0,0
84654,-500,4,2,1,40,0,0
84694,-62.5,4,2,1,40,0,0
84734,-250,4,2,1,40,0,0
84774,-55.5555555555556,4,2,1,40,0,0
84814,-500,4,2,1,40,0,0
84854,-62.5,4,2,1,40,0,0
84894,-250,4,2,1,40,0,0
84934,-55.5555555555556,4,2,1,40,0,0
84974,-500,4,2,1,40,0,0
85014,-62.5,4,2,1,40,0,0
85054,-250,4,2,1,40,0,0
85094,-55.5555555555556,4,2,1,40,0,0
85134,-500,4,2,1,40,0,0
85174,-62.5,4,2,1,40,0,0
85214,-250,4,2,1,40,0,0
85254,-55.5555555555556,4,2,1,40,0,0
85294,-500,4,2,1,40,0,0
85334,-62.5,4,2,1,40,0,0
85374,-250,4,2,1,40,0,0
85414,-55.5555555555556,4,2,1,40,0,0
85454,-500,4,2,1,40,0,0
85494,-62.5,4,2,1,40,0,0
85534,-250,4,2,1,40,0,0
85574,-100,4,2,1,40,0,0
86534,-133.333333333333,4,2,1,40,0,0
92294,-111.111111111111,4,2,1,40,0,0
94214,-117.647058823529,4,2,1,40,0,0
98054,-66.6666666666667,4,2,1,40,0,0
98084,-100,4,2,1,40,0,0
98534,-66.6666666666667,4,2,1,40,0,0
98564,-100,4,2,1,40,0,0
99014,-66.6666666666667,4,2,1,40,0,0
99044,-100,4,2,1,40,0,0
99494,-66.6666666666667,4,2,1,40,0,0
99524,-100,4,2,1,40,0,0
101414,-66.6666666666667,4,2,1,40,0,0
101444,-100,4,2,1,40,0,0
101894,-153.846153846154,4,2,1,40,0,0
104774,-66.6666666666667,4,2,1,40,0,0
104804,-133.333333333333,4,2,1,40,0,0
104834,-66.6666666666667,4,2,1,40,0,0
104864,-133.333333333333,4,2,1,40,0,0
104894,-66.6666666666667,4,2,1,40,0,0
104924,-133.333333333333,4,2,1,40,0,0
105014,-66.6666666666667,4,2,1,40,0,0
105044,-133.333333333333,4,2,1,40,0,0
105134,-66.6666666666667,4,2,1,40,0,0
105164,-133.333333333333,4,2,1,40,0,0
105254,-100,4,2,1,40,0,0
105734,-100,4,2,1,40,0,1
108854,-90.9090909090909,4,2,1,40,0,1
108884,-83.3333333333333,4,2,1,40,0,1
108914,-76.9230769230769,4,2,1,40,0,1
109094,-66.6666666666667,4,2,1,40,0,1
109124,-100,4,2,1,40,0,1
109154,-80,4,2,1,40,0,1
109574,-100,4,2,1,40,0,1
116294,-100,4,2,1,40,0,0
116774,-66.6666666666667,4,2,1,40,0,0
117194,-79.9999999999999,4,2,1,40,0,0
117254,-100,4,2,1,40,0,1
132134,-76.9230769230769,4,2,1,40,0,1
132614,-200,4,2,1,40,0,0
133094,-66.6666666666667,4,2,1,40,0,0
133154,-200,4,2,1,40,0,0
133214,-100,4,2,1,40,0,0
133334,-66.6666666666667,4,2,1,40,0,0
133394,-200,4,2,1,40,0,0
133454,-66.6666666666667,4,2,1,40,0,0
133514,-200,4,2,1,40,0,0
133574,-100,4,2,1,40,0,0
133694,-66.6666666666667,4,2,1,40,0,0
133754,-200,4,2,1,40,0,0
133814,-100,4,2,1,40,0,0
133934,-66.6666666666667,4,2,1,40,0,0
133994,-200,4,2,1,40,0,0
134054,-66.6666666666667,4,2,1,40,0,0
134114,-200,4,2,1,40,0,0
134174,-100,4,2,1,40,0,0
134294,-66.6666666666667,4,2,1,40,0,0
134354,-200,4,2,1,40,0,0
134414,-66.6666666666667,4,2,1,40,0,0
134474,-200,4,2,1,40,0,0
134534,-66.6666666666667,4,2,1,40,0,0
134594,-200,4,2,1,40,0,0
134654,-100,4,2,1,40,0,0
134774,-66.6666666666667,4,2,1,40,0,0
134834,-200,4,2,1,40,0,0
134894,-66.6666666666667,4,2,1,40,0,0
134954,-200,4,2,1,40,0,0
135014,-100,4,2,1,40,0,0
135134,-66.6666666666667,4,2,1,40,0,0
135194,-200,4,2,1,40,0,0
135254,-66.6666666666667,4,2,1,40,0,0
135314,-200,4,2,1,40,0,0
135374,-66.6666666666667,4,2,1,40,0,0
135434,-200,4,2,1,40,0,0
135494,-66.6666666666667,4,2,1,40,0,0
135554,-200,4,2,1,40,0,0
135614,-66.6666666666667,4,2,1,40,0,0
135674,-200,4,2,1,40,0,0
135734,-100,4,2,1,40,0,0
135854,-66.6666666666667,4,2,1,40,0,0
135914,-200,4,2,1,40,0,0
135974,-66.6666666666667,4,2,1,40,0,0
136034,-222.222222222222,4,2,1,40,0,0
136094,-66.6666666666667,4,2,1,40,0,0
136154,-222.222222222222,4,2,1,40,0,0
136214,-66.6666666666667,4,2,1,40,0,0
136274,-200,4,2,1,40,0,0
136334,-66.6666666666667,4,2,1,40,0,0
136394,-200,4,2,1,40,0,0
136454,-142.857142857143,4,2,1,40,0,0
136814,-58.8235294117647,4,2,1,40,0,0
136934,-66.6666666666667,4,2,1,40,0,0
136994,-200,4,2,1,40,0,0
137054,-100,4,2,1,40,0,0
137174,-66.6666666666667,4,2,1,40,0,0
137234,-200,4,2,1,40,0,0
137294,-66.6666666666667,4,2,1,40,0,0
137354,-200,4,2,1,40,0,0
137414,-100,4,2,1,40,0,0
137534,-66.6666666666667,4,2,1,40,0,0
137594,-200,4,2,1,40,0,0
137654,-100,4,2,1,40,0,0
137774,-66.6666666666667,4,2,1,40,0,0
137834,-200,4,2,1,40,0,0
137894,-66.6666666666667,4,2,1,40,0,0
137954,-200,4,2,1,40,0,0
138014,-100,4,2,1,40,0,0
138134,-66.6666666666667,4,2,1,40,0,0
138194,-200,4,2,1,40,0,0
138254,-66.6666666666667,4,2,1,40,0,0
138314,-200,4,2,1,40,0,0
138374,-55.5555555555556,4,2,1,40,0,0
138414,-500,4,2,1,40,0,0
138454,-62.5,4,2,1,40,0,0
138494,-250,4,2,1,40,0,0
138534,-55.5555555555556,4,2,1,40,0,0
138574,-500,4,2,1,40,0,0
138614,-62.5,4,2,1,40,0,0
138654,-250,4,2,1,40,0,0
138694,-55.5555555555556,4,2,1,40,0,0
138734,-500,4,2,1,40,0,0
138774,-62.5,4,2,1,40,0,0
138814,-250,4,2,1,40,0,0
138854,-55.5555555555556,4,2,1,40,0,0
138894,-500,4,2,1,40,0,0
138934,-62.5,4,2,1,40,0,0
138974,-250,4,2,1,40,0,0
139014,-55.5555555555556,4,2,1,40,0,0
139054,-500,4,2,1,40,0,0
139094,-62.5,4,2,1,40,0,0
139134,-250,4,2,1,40,0,0
139174,-55.5555555555556,4,2,1,40,0,0
139214,-500,4,2,1,40,0,0
139254,-62.5,4,2,1,40,0,0
139294,-250,4,2,1,40,0,0
139334,-100,4,2,1,40,0,0
140294,-142.857142857143,4,2,1,40,0,0
140654,-58.8235294117647,4,2,1,40,0,0
140774,-58.8235294117647,4,2,1,40,0,0
140834,-333.333333333333,4,2,1,40,0,0
140894,-100,4,2,1,40,0,0
141014,-66.6666666666667,4,2,1,40,0,0
141074,-200,4,2,1,40,0,0
141134,-66.6666666666667,4,2,1,40,0,0
141194,-200,4,2,1,40,0,0
141254,-100,4,2,1,40,0,0
141374,-66.6666666666667,4,2,1,40,0,0
141434,-200,4,2,1,40,0,0
141494,-100,4,2,1,40,0,0
141614,-66.6666666666667,4,2,1,40,0,0
141674,-200,4,2,1,40,0,0
141734,-58.8235294117647,4,2,1,40,0,0
141794,-333.333333333333,4,2,1,40,0,0
141854,-100,4,2,1,40,0,0
141974,-66.6666666666667,4,2,1,40,0,0
142034,-200,4,2,1,40,0,0
142094,-66.6666666666667,4,2,1,40,0,0
142154,-200,4,2,1,40,0,0
142214,-66.6666666666667,4,2,1,40,0,0
142274,-200,4,2,1,40,0,0
142334,-100,4,2,1,40,0,0
142454,-66.6666666666667,4,2,1,40,0,0
142514,-200,4,2,1,40,0,0
142574,-66.6666666666667,4,2,1,40,0,0
142634,-200,4,2,1,40,0,0
142694,-58.8235294117647,4,2,1,40,0,0
142754,-333.333333333333,4,2,1,40,0,0
142814,-66.6666666666667,4,2,1,40,0,0
142874,-200,4,2,1,40,0,0
142934,-66.6666666666667,4,2,1,40,0,0
142994,-200,4,2,1,40,0,0
143054,-66.6666666666667,4,2,1,40,0,0
143114,-200,4,2,1,40,0,0
143174,-66.6666666666667,4,2,1,40,0,0
143234,-200,4,2,1,40,0,0
143294,-66.6666666666667,4,2,1,40,0,0
143354,-200,4,2,1,40,0,0
143414,-100,4,2,1,40,0,0
143534,-66.6666666666667,4,2,1,40,0,0
143594,-200,4,2,1,40,0,0
143654,-66.6666666666667,4,2,1,40,0,0
143714,-222.222222222222,4,2,1,40,0,0
143774,-66.6666666666667,4,2,1,40,0,0
143834,-222.222222222222,4,2,1,40,0,0
143894,-66.6666666666667,4,2,1,40,0,0
143954,-200,4,2,1,40,0,0
144014,-66.6666666666667,4,2,1,40,0,0
144074,-200,4,2,1,40,0,0
144134,-142.857142857143,4,2,1,40,0,0
144494,-58.8235294117647,4,2,1,40,0,0
144614,-66.6666666666667,4,2,1,40,0,0
144674,-200,4,2,1,40,0,0
144734,-100,4,2,1,40,0,0
144854,-66.6666666666667,4,2,1,40,0,0
144914,-200,4,2,1,40,0,0
144974,-66.6666666666667,4,2,1,40,0,0
145034,-200,4,2,1,40,0,0
145094,-100,4,2,1,40,0,0
145214,-66.6666666666667,4,2,1,40,0,0
145274,-200,4,2,1,40,0,0
145334,-100,4,2,1,40,0,0

[HitObjects]
448,192,1574,5,0,0:0:0:0:
320,192,1814,1,0,0:0:0:0:
64,192,2054,1,0,0:0:0:40:tom.wav
192,192,2054,1,0,0:0:0:0:
448,192,2054,1,0,0:0:0:0:
320,192,2414,1,0,0:0:0:0:
192,192,2534,1,0,0:0:0:0:
448,192,2774,1,0,0:0:0:0:
320,192,2894,1,0,0:0:0:0:
192,192,3014,1,0,0:0:0:0:
448,192,3014,1,0,0:0:0:0:
64,192,3254,1,0,0:0:0:0:
320,192,3254,1,0,0:0:0:0:
192,192,3494,1,0,0:0:0:0:
448,192,3494,1,0,0:0:0:0:
320,192,3734,1,0,0:0:0:0:
192,192,3854,1,0,0:0:0:0:
64,192,3974,1,0,0:0:0:0:
448,192,3974,1,0,0:0:0:0:
320,192,4214,1,0,0:0:0:0:
192,192,4334,1,0,0:0:0:0:
320,192,4454,1,0,0:0:0:0:
448,192,4574,1,0,0:0:0:0:
64,192,4694,1,0,0:0:0:0:
192,192,4814,1,0,0:0:0:0:
320,192,4934,1,0,0:0:0:40:hat pedal.wav
448,192,4934,1,0,0:0:0:0:
192,192,5054,1,0,0:0:0:40:hat pedal.wav
64,192,5174,1,0,0:0:0:40:hat pedal.wav
448,192,5294,1,0,0:0:0:40:hat pedal.wav
64,192,5414,1,0,0:0:0:40:hat pedal.wav
320,192,5414,1,0,0:0:0:0:
192,192,5534,1,0,0:0:0:40:hat pedal.wav
320,192,5654,1,0,0:0:0:40:hat pedal.wav
448,192,5654,1,0,0:0:0:0:
192,192,5774,1,0,0:0:0:40:hat pedal.wav
64,192,5894,1,0,0:0:0:40:hat pedal.wav
448,192,5894,1,0,0:0:0:0:
320,192,6014,1,0,0:0:0:40:hat pedal.wav
64,192,6134,1,0,0:0:0:40:hat pedal.wav
192,192,6134,1,0,0:0:0:0:
448,192,6254,1,0,0:0:0:40:hat pedal.wav
320,192,6254,1,0,0:0:0:0:
192,192,6374,1,0,0:0:0:40:hat pedal.wav
64,192,6374,1,0,0:0:0:0:
320,192,6494,1,0,0:0:0:40:hat pedal.wav
64,192,6614,1,0,0:0:0:40:hat pedal.wav
448,192,6614,1,0,0:0:0:0:
320,192,6734,1,0,0:0:0:40:hat pedal.wav
192,192,6734,1,0,0:0:0:0:
64,192,6854,1,0,0:0:0:40:hat pedal.wav
448,192,6854,1,0,0:0:0:0:
320,192,6974,1,0,0:0:0:40:hat pedal.wav
64,192,7094,1,0,0:0:0:40:hat pedal.wav
192,192,7094,1,0,0:0:0:0:
320,192,7214,1,0,0:0:0:40:hat pedal.wav
448,192,7214,1,0,0:0:0:0:
192,192,7334,1,0,0:0:0:40:hat pedal.wav
64,192,7334,1,0,0:0:0:0:
320,192,7454,1,0,0:0:0:40:hat pedal.wav
64,192,7574,1,0,0:0:0:0:
448,192,7574,1,0,0:0:0:0:
192,192,7634,1,0,0:0:0:0:
320,192,7694,1,0,0:0:0:0:
448,192,7754,1,0,0:0:0:0:
192,192,7814,1,0,0:0:0:0:
64,192,7874,1,0,0:0:0:0:
320,192,7934,1,0,0:0:0:0:
192,192,7994,1,0,0:0:0:0:
448,192,8054,1,0,0:0:0:0:
320,192,8114,1,0,0:0:0:0:
64,192,8174,1,0,0:0:0:0:
448,192,8234,1,0,0:0:0:0:
192,192,8294,1,0,0:0:0:0:
64,192,8354,1,0,0:0:0:0:
320,192,8414,1,0,0:0:0:0:
192,192,8474,1,0,0:0:0:0:
448,192,8534,1,0,0:0:0:0:
64,192,8594,1,0,0:0:0:0:
320,192,8654,1,0,0:0:0:0:
448,192,8714,1,0,0:0:0:0:
64,192,8774,1,0,0:0:0:40:clap.wav
192,192,8774,1,0,0:0:0:40:tom2.wav
320,192,8834,1,0,0:0:0:0:
448,192,8894,1,0,0:0:0:0:
64,192,8954,1,0,0:0:0:0:
192,192,9014,1,0,0:0:0:0:
320,192,9094,1,0,0:0:0:0:
192,192,9174,1,0,0:0:0:0:
320,192,9254,1,0,0:0:0:40:slap.wav
448,192,9254,1,0,0:0:0:0:
64,192,9374,1,0,0:0:0:40:tom3.wav
192,192,9374,1,0,0:0:0:0:
64,192,9494,1,0,0:0:0:40:tom3.wav
192,192,9494,1,0,0:0:0:0:
64,192,9734,1,8,0:0:0:0:
320,192,9734,1,0,0:0:0:0:
448,192,9734,128,0,10214:0:0:0:0:
64,192,10214,1,8,0:0:0:0:
192,192,10214,1,0,0:0:0:0:
320,192,10214,128,0,10334:0:0:0:0:
64,192,10454,1,0,0:0:0:0:
192,192,10454,1,0,0:0:0:0:
320,192,10574,1,0,0:0:0:0:
448,192,10574,1,0,0:0:0:0:
64,192,10694,1,8,0:0:0:0:
192,192,10694,1,0,0:0:0:0:
320,192,10694,1,0,0:0:0:0:
192,192,10814,1,0,0:0:0:0:
448,192,10814,1,0,0:0:0:0:
64,192,10934,1,0,0:0:0:0:
320,192,11054,1,0,0:0:0:0:
448,192,11054,1,0,0:0:0:0:
64,192,11174,1,8,0:0:0:0:
192,192,11174,1,0,0:0:0:0:
320,192,11174,128,0,11294:0:0:0:0:
192,192,11414,1,0,0:0:0:0:
448,192,11414,1,0,0:0:0:0:
64,192,11534,1,0,0:0:0:0:
320,192,11534,1,0,0:0:0:0:
64,192,11654,128,8,11774:0:0:0:0:
192,192,11654,1,0,0:0:0:0:
448,192,11654,1,0,0:0:0:0:
320,192,11894,1,0,0:0:0:0:
448,192,11894,1,0,0:0:0:0:
64,192,12014,1,0,0:0:0:0:
192,192,12014,1,0,0:0:0:0:
192,192,12134,1,8,0:0:0:0:
320,192,12134,1,0,0:0:0:0:
448,192,12134,1,0,0:0:0:0:
320,192,12254,1,0,0:0:0:0:
192,192,12374,1,0,0:0:0:0:
448,192,12374,1,0,0:0:0:0:
64,192,12494,1,0,0:0:0:0:
320,192,12494,1,0,0:0:0:0:
64,192,12614,1,8,0:0:0:0:
192,192,12614,1,0,0:0:0:0:
448,192,12614,1,0,0:0:0:0:
448,192,12734,1,0,0:0:0:0:
64,192,12854,1,0,0:0:0:0:
192,192,12854,1,0,0:0:0:0:
320,192,12974,1,0,0:0:0:0:
448,192,12974,1,0,0:0:0:0:
64,192,13094,128,8,13334:0:0:0:0:
192,192,13094,128,0,13334:0:0:0:0:
320,192,13094,1,0,0:0:0:0:
320,192,13334,1,0,0:0:0:0:
448,192,13334,1,0,0:0:0:0:
64,192,13454,1,0,0:0:0:0:
192,192,13454,1,0,0:0:0:0:
64,192,13574,128,8,14054:0:0:0:0:
320,192,13574,1,0,0:0:0:0:
448,192,13574,1,0,0:0:0:0:
192,192,14054,128,8,14174:0:0:0:0:
320,192,14054,1,0,0:0:0:0:
448,192,14054,1,0,0:0:0:0:
320,192,14294,1,0,0:0:0:0:
448,192,14294,1,0,0:0:0:0:
64,192,14414,1,0,0:0:0:0:
192,192,14414,1,0,0:0:0:0:
192,192,14534,1,8,0:0:0:0:
320,192,14534,1,0,0:0:0:0:
448,192,14534,1,0,0:0:0:0:
64,192,14654,1,0,0:0:0:0:
320,192,14654,1,0,0:0:0:0:
448,192,14774,1,0,0:0:0:0:
64,192,14894,1,0,0:0:0:0:
192,192,14894,1,0,0:0:0:0:
64,192,15014,128,8,15134:0:0:0:0:
320,192,15014,1,0,0:0:0:0:
448,192,15014,1,0,0:0:0:0:
320,192,15254,1,0,0:0:0:0:
448,192,15254,1,0,0:0:0:0:
64,192,15374,1,0,0:0:0:0:
192,192,15374,1,0,0:0:0:0:
64,192,15494,1,8,0:0:0:0:
320,192,15494,128,0,15734:0:0:0:0:
448,192,15494,128,0,15734:0:0:0:0:
64,192,15734,128,0,15854:0:0:0:0:
192,192,15734,128,0,15854:0:0:0:0:
320,192,15854,128,0,16094:0:0:0:0:
448,192,15854,128,0,16094:0:0:0:0:
64,192,16094,128,0,16214:0:0:0:0:
192,192,16094,128,0,16214:0:0:0:0:
320,192,16214,128,0,16334:0:0:0:0:
448,192,16214,128,0,16334:0:0:0:0:
64,192,16334,128,0,16454:0:0:0:0:
192,192,16334,128,0,16454:0:0:0:0:
320,192,16454,1,8,0:0:0:0:
448,192,16454,128,0,16934:0:0:0:0:
64,192,16574,128,0,16814:0:0:0:0:
192,192,16694,128,0,16874:0:0:0:0:
320,192,16814,128,0,16934:0:0:0:0:
64,192,16934,128,8,17414:0:0:0:0:
320,192,17174,128,0,17414:0:0:0:0:
192,192,17414,128,8,17894:0:0:0:0:
448,192,17414,1,0,0:0:0:0:
64,192,17894,1,2,0:0:0:0:
320,192,17894,1,0,0:0:0:0:
448,192,17894,128,0,18014:0:0:0:0:
64,192,18134,1,0,0:0:0:0:
192,192,18134,1,0,0:0:0:0:
320,192,18254,1,0,0:0:0:0:
448,192,18254,1,0,0:0:0:0:
64,192,18374,1,8,0:0:0:0:
192,192,18374,1,0,0:0:0:0:
320,192,18374,1,0,0:0:0:0:
192,192,18494,1,0,0:0:0:0:
448,192,18494,1,0,0:0:0:0:
64,192,18614,1,0,0:0:0:0:
320,192,18734,1,0,0:0:0:0:
448,192,18734,1,0,0:0:0:0:
64,192,18854,128,2,18974:0:0:0:0:
192,192,18854,1,0,0:0:0:0:
448,192,18854,1,0,0:0:0:0:
320,192,19094,1,0,0:0:0:0:
448,192,19094,1,0,0:0:0:0:
64,192,19214,1,0,0:0:0:0:
192,192,19214,1,0,0:0:0:0:
64,192,19334,1,8,0:0:0:0:
320,192,19334,1,0,0:0:0:0:
448,192,19334,128,0,19454:0:0:0:0:
64,192,19574,1,0,0:0:0:0:
192,192,19574,1,0,0:0:0:0:
320,192,19694,1,0,0:0:0:0:
448,192,19694,1,0,0:0:0:0:
64,192,19814,1,2,0:0:0:0:
192,192,19814,1,0,0:0:0:0:
320,192,19814,1,0,0:0:0:0:
64,192,19934,1,0,0:0:0:0:
320,192,20054,1,0,0:0:0:0:
448,192,20054,1,0,0:0:0:0:
64,192,20174,1,0,0:0:0:0:
192,192,20174,1,0,0:0:0:0:
192,192,20294,1,8,0:0:0:0:
320,192,20294,1,0,0:0:0:0:
448,192,20294,1,0,0:0:0:0:
320,192,20414,1,0,0:0:0:0:
192,192,20534,1,0,0:0:0:0:
448,192,20534,1,0,0:0:0:0:
64,192,20654,1,0,0:0:0:0:
320,192,20654,1,0,0:0:0:0:
64,192,20774,128,2,21014:0:0:0:0:
192,192,20774,128,0,21014:0:0:0:0:
448,192,20774,1,0,0:0:0:0:
320,192,21014,1,0,0:0:0:0:
448,192,21014,1,0,0:0:0:0:
64,192,21134,1,0,0:0:0:0:
192,192,21134,1,0,0:0:0:0:
64,192,21254,1,8,0:0:0:0:
320,192,21254,1,0,0:0:0:40:hat pedal.wav
448,192,21254,128,0,21734:0:0:0:0:
64,192,21734,1,8,0:0:0:0:
192,192,21734,1,0,0:0:0:40:hat pedal.wav
320,192,21734,1,0,0:0:0:0:
320,192,21854,1,0,0:0:0:40:hat pedal.wav
192,192,21974,1,0,0:0:0:40:hat pedal.wav
448,192,21974,1,0,0:0:0:0:
64,192,22094,1,0,0:0:0:40:hat pedal.wav
320,192,22094,1,0,0:0:0:0:
64,192,22214,1,8,0:0:0:0:
192,192,22214,1,0,0:0:0:40:hat pedal.wav
448,192,22214,1,0,0:0:0:0:
192,192,22334,1,0,0:0:0:40:hat pedal.wav
320,192,22334,1,0,0:0:0:0:
448,192,22454,1,0,0:0:0:40:hat pedal.wav
64,192,22574,1,0,0:0:0:40:hat pedal.wav
192,192,22574,1,0,0:0:0:0:
64,192,22694,1,8,0:0:0:0:
320,192,22694,1,0,0:0:0:40:hat pedal.wav
448,192,22694,1,0,0:0:0:0:
192,192,22814,1,0,0:0:0:40:hat pedal.wav
320,192,22934,1,0,0:0:0:40:hat pedal.wav
448,192,22934,1,0,0:0:0:0:
64,192,23054,1,0,0:0:0:40:hat pedal.wav
192,192,23054,1,0,0:0:0:0:
64,192,23174,1,0,0:0:0:40:hat pedal.wav
320,192,23174,128,0,23414:0:0:0:0:
448,192,23174,128,0,23414:0:0:0:0:
64,192,23414,128,0,23534:0:0:0:40:hat pedal.wav
192,192,23414,128,0,23534:0:0:0:0:
320,192,23534,128,0,23774:0:0:0:40:hat pedal.wav
448,192,23534,128,0,23774:0:0:0:0:
64,192,23774,128,0,23894:0:0:0:40:hat pedal.wav
192,192,23774,128,0,23894:0:0:0:0:
320,192,23894,128,0,24014:0:0:0:40:hat pedal.wav
448,192,23894,128,0,24014:0:0:0:0:
64,192,24014,128,0,24134:0:0:0:40:hat pedal.wav
192,192,24014,128,0,24134:0:0:0:0:
320,192,24134,1,0,0:0:0:40:snare.wav
448,192,24134,1,0,0:0:0:0:
320,192,24454,1,0,0:0:0:40:slap.wav
64,192,24534,1,0,0:0:0:40:slap.wav
192,192,24534,1,0,0:0:0:0:
320,192,24614,1,8,2:0:0:0:
448,192,24614,1,0,0:0:0:0:
320,192,24734,1,8,2:0:0:0:
448,192,24734,1,0,0:0:0:0:
64,192,24854,1,8,2:0:0:0:
192,192,24854,128,0,24974:0:0:0:0:
320,192,24974,128,0,25094:0:0:0:0:
192,192,25094,128,2,25454:0:0:0:0:
448,192,25094,128,0,25214:0:0:0:0:
64,192,25334,1,0,0:0:0:0:
448,192,25334,1,0,0:0:0:0:
320,192,25454,128,0,25574:0:0:0:0:
64,192,25574,128,2,25694:0:0:0:0:
192,192,25574,128,0,25694:0:0:0:0:
320,192,25734,1,0,0:0:0:0:
192,192,25774,1,0,0:0:0:0:
64,192,25814,1,0,0:0:0:0:
448,192,25814,128,0,25934:0:0:0:0:
320,192,25934,128,0,26054:0:0:0:0:
64,192,26054,128,2,26174:0:0:0:0:
192,192,26054,128,0,26174:0:0:0:0:
320,192,26174,128,0,26294:0:0:0:0:
64,192,26294,1,0,0:0:0:0:
448,192,26294,128,0,26414:0:0:0:0:
192,192,26414,128,0,26534:0:0:0:0:
64,192,26534,128,2,26654:0:0:0:0:
320,192,26534,128,0,26654:0:0:0:0:
320,192,26774,1,0,0:0:0:0:
192,192,26814,1,0,0:0:0:0:
64,192,26854,1,0,0:0:0:0:
320,192,26894,1,0,0:0:0:0:
448,192,26894,128,0,27014:0:0:0:0:
64,192,27014,128,2,27374:0:0:0:0:
192,192,27014,128,0,27134:0:0:0:0:
320,192,27254,1,0,0:0:0:0:
448,192,27254,1,0,0:0:0:0:
192,192,27374,1,0,0:0:0:0:
320,192,27494,128,2,27614:0:0:0:0:
448,192,27494,128,0,27734:0:0:0:0:
64,192,27734,128,0,27974:0:0:0:40:bell.wav
192,192,27734,1,0,0:0:0:0:
320,192,27854,128,0,27974:0:0:0:40:bell.wav
192,192,27974,128,2,28094:0:0:0:0:
448,192,27974,128,0,28214:0:0:0:40:bell.wav
64,192,28094,128,0,28214:0:0:0:40:bell.wav
320,192,28214,128,0,28454:0:0:0:40:bell.wav
192,192,28254,1,0,0:0:0:0:
64,192,28294,1,0,0:0:0:0:
448,192,28374,1,0,0:0:0:0:
64,192,28454,128,2,28694:0:0:0:0:
192,192,28454,128,0,28574:0:0:0:40:bell.wav
448,192,28574,128,0,28814:0:0:0:40:bell.wav
192,192,28694,1,0,0:0:0:40:bell.wav
320,192,28694,128,0,28934:0:0:0:0:
192,192,28934,128,2,29054:0:0:0:0:
448,192,28934,128,0,29294:0:0:0:0:
192,192,29174,1,0,0:0:0:0:
320,192,29174,1,0,0:0:0:0:
64,192,29294,128,0,29414:0:0:0:0:
320,192,29414,128,2,29534:0:0:0:0:
448,192,29414,128,0,29534:0:0:0:0:
192,192,29574,1,0,0:0:0:0:
320,192,29614,1,0,0:0:0:0:
64,192,29654,128,0,29774:0:0:0:0:
448,192,29654,1,0,0:0:0:0:
320,192,29774,128,0,29894:0:0:0:0:
192,192,29894,128,2,30014:0:0:0:0:
448,192,29894,128,0,30014:0:0:0:0:
64,192,30014,128,0,30134:0:0:0:0:
192,192,30134,1,0,0:0:0:0:
320,192,30134,128,0,30254:0:0:0:0:
448,192,30254,128,0,30374:0:0:0:0:
64,192,30374,128,2,30494:0:0:0:0:
192,192,30374,128,0,30614:0:0:0:0:
320,192,30614,1,0,0:0:0:0:
448,192,30614,128,0,30734:0:0:0:0:
192,192,30774,1,0,0:0:0:0:
64,192,30814,1,0,0:0:0:0:
320,192,30854,128,2,30974:0:0:0:0:
448,192,30854,128,0,31094:0:0:0:40:bell.wav
64,192,31094,1,0,0:0:0:40:bell.wav
192,192,31094,128,0,31334:0:0:0:0:
320,192,31214,128,0,31334:0:0:0:40:bell.wav
64,192,31334,128,2,31574:0:0:0:0:
448,192,31334,128,0,31454:0:0:0:40:bell.wav
320,192,31574,1,0,0:0:0:40:bell.wav
448,192,31574,128,0,31694:0:0:0:0:
192,192,31694,128,0,31814:0:0:0:40:bell.wav
64,192,31814,128,2,32534:0:0:0:0:
448,192,31894,1,0,0:0:0:40:clap.wav
192,192,31974,1,0,0:0:0:40:clap.wav
320,192,32054,1,0,0:0:0:40:clap.wav
192,192,32174,1,0,0:0:0:40:clap.wav
320,192,32294,128,2,32774:0:0:0:0:
192,192,32534,128,2,32774:0:0:0:0:
448,192,32534,1,0,0:0:0:0:
64,192,32774,128,0,33014:0:0:0:40:chime.wav
448,192,32774,1,0,0:0:0:0:
320,192,33014,128,0,33134:0:0:0:0:
448,192,33134,128,0,33254:0:0:0:0:
64,192,33254,1,0,0:0:0:40:chime.wav
192,192,33254,128,0,33494:0:0:0:0:
64,192,33494,128,0,33614:0:0:0:0:
320,192,33614,128,0,33734:0:0:0:0:
64,192,33734,1,0,0:0:0:40:chime.wav
448,192,33734,128,0,33854:0:0:0:0:
192,192,33854,128,0,33974:0:0:0:0:
320,192,33974,128,0,34094:0:0:0:0:
192,192,34094,128,0,34214:0:0:0:0:
64,192,34214,1,0,0:0:0:40:chime.wav
320,192,34214,128,0,34454:0:0:0:0:
192,192,34454,128,0,34574:0:0:0:0:
64,192,34574,128,0,34694:0:0:0:0:
320,192,34694,1,0,0:0:0:40:chime.wav
448,192,34694,128,0,34934:0:0:0:0:
192,192,34934,128,0,35054:0:0:0:0:
320,192,35054,128,0,35174:0:0:0:0:
64,192,35174,1,0,0:0:0:40:chime.wav
448,192,35174,128,0,35294:0:0:0:0:
192,192,35294,128,0,35414:0:0:0:0:
320,192,35414,128,0,35534:0:0:0:0:
192,192,35534,128,0,35654:0:0:0:0:
64,192,35654,1,0,0:0:0:40:chime.wav
320,192,35654,128,0,35774:0:0:0:0:
448,192,35774,128,0,35894:0:0:0:0:
320,192,35894,128,0,36014:0:0:0:0:
64,192,35974,1,0,0:0:0:40:chime.wav
448,192,36014,128,0,36134:0:0:0:0:
192,192,36054,1,0,0:0:0:40:chime.wav
64,192,36134,128,2,36374:0:0:0:0:
320,192,36134,1,0,0:0:0:40:chime.wav
448,192,36254,1,0,0:0:0:0:
192,192,36374,1,0,0:0:0:0:
320,192,36374,128,0,36614:0:0:0:0:
64,192,36614,1,2,0:0:0:0:
192,192,36614,128,0,36974:0:0:0:0:
448,192,36614,128,0,36734:0:0:0:0:
64,192,36854,1,0,0:0:0:0:
320,192,36854,1,0,0:0:0:0:
448,192,36974,128,0,37094:0:0:0:0:
64,192,37094,128,2,37214:0:0:0:0:
192,192,37094,128,0,37214:0:0:0:0:
320,192,37254,1,0,0:0:0:0:
192,192,37294,1,0,0:0:0:0:
64,192,37334,1,0,0:0:0:0:
448,192,37334,128,0,37454:0:0:0:0:
320,192,37454,128,0,37574:0:0:0:0:
64,192,37574,128,2,37814:0:0:0:0:
192,192,37574,128,0,37694:0:0:0:0:
448,192,37694,128,0,37814:0:0:0:0:
192,192,37814,1,0,0:0:0:0:
320,192,37814,128,0,37934:0:0:0:0:
64,192,37934,128,0,38054:0:0:0:0:
192,192,38054,128,2,38294:0:0:0:0:
448,192,38054,128,0,38174:0:0:0:0:
320,192,38294,128,0,38414:0:0:0:0:
192,192,38454,1,0,0:0:0:0:
320,192,38494,1,0,0:0:0:0:
64,192,38534,128,2,39014:0:0:0:0:
448,192,38534,1,0,0:0:0:0:
448,192,38774,1,0,0:0:0:40:clap.wav
320,192,38894,1,0,0:0:0:40:clap.wav
192,192,39014,1,2,0:0:0:0:
320,192,39014,1,0,0:0:0:40:clap.wav
448,192,39014,128,0,39494:0:0:0:0:
320,192,39254,1,0,0:0:0:40:clap.wav
192,192,39374,1,0,0:0:0:40:clap.wav
64,192,39494,128,2,39974:0:0:0:0:
192,192,39494,1,0,0:0:0:40:clap.wav
320,192,39494,1,0,0:0:0:0:
448,192,39574,1,0,0:0:0:40:clap.wav
192,192,39654,1,0,0:0:0:40:clap.wav
448,192,39734,1,0,0:0:0:40:clap.wav
320,192,39854,1,0,0:0:0:40:clap.wav
192,192,39974,1,2,0:0:0:0:
320,192,39974,128,0,40214:0:0:0:0:
448,192,39974,1,0,0:0:0:0:
64,192,40094,128,0,40454:0:0:0:0:
192,192,40214,128,2,40454:0:0:0:0:
320,192,40334,128,0,40454:0:0:0:0:
448,192,40454,1,2,0:0:0:0:
320,192,40694,1,0,0:0:0:0:
192,192,40814,1,0,0:0:0:0:
448,192,40934,1,0,0:0:0:40:chime.wav
192,192,41054,1,0,0:0:0:0:
320,192,41174,1,0,0:0:0:0:
448,192,41294,1,0,0:0:0:0:
64,192,41414,1,0,0:0:0:40:chime.wav
448,192,41534,1,0,0:0:0:0:
320,192,41654,1,0,0:0:0:0:
192,192,41774,1,0,0:0:0:0:
448,192,41894,1,0,0:0:0:40:chime.wav
192,192,42014,1,0,0:0:0:0:
320,192,42134,1,0,0:0:0:0:
448,192,42254,1,0,0:0:0:0:
64,192,42374,1,0,0:0:0:40:chime.wav
320,192,42494,1,0,0:0:0:0:
192,192,42614,1,0,0:0:0:0:
64,192,42734,1,0,0:0:0:0:
448,192,42854,1,0,0:0:0:40:chime.wav
64,192,42974,1,0,0:0:0:0:
192,192,43094,1,0,0:0:0:0:
320,192,43214,1,0,0:0:0:0:
64,192,43334,1,0,0:0:0:40:chime.wav
320,192,43454,1,0,0:0:0:0:
192,192,43574,1,0,0:0:0:0:
64,192,43694,1,0,0:0:0:0:
448,192,43814,1,0,0:0:0:40:chime.wav
192,192,43934,1,0,0:0:0:0:
320,192,44054,1,0,0:0:0:0:
448,192,44174,1,0,0:0:0:0:
64,192,44294,1,0,0:0:0:40:chime.wav
320,192,44414,1,0,0:0:0:0:
192,192,44534,1,0,0:0:0:0:
320,192,44654,1,0,0:0:0:0:
448,192,44774,1,0,0:0:0:40:chime.wav
192,192,44894,1,0,0:0:0:0:
320,192,45014,1,0,0:0:0:0:
192,192,45134,1,0,0:0:0:0:
64,192,45254,1,0,0:0:0:40:chime.wav
320,192,45374,1,0,0:0:0:0:
192,192,45494,1,0,0:0:0:0:
320,192,45614,1,0,0:0:0:0:
448,192,45734,1,0,0:0:0:40:chime.wav
320,192,45854,1,0,0:0:0:0:
192,192,45974,1,0,0:0:0:0:
64,192,46094,1,0,0:0:0:0:
448,192,46214,1,0,0:0:0:40:chime.wav
320,192,46334,1,0,0:0:0:0:
192,192,46454,1,0,0:0:0:0:
320,192,46574,1,0,0:0:0:0:
64,192,46694,1,0,0:0:0:40:chime.wav
192,192,46814,1,0,0:0:0:0:
320,192,46934,1,0,0:0:0:0:
192,192,47054,1,0,0:0:0:0:
448,192,47174,1,0,0:0:0:40:chime.wav
320,192,47294,1,0,0:0:0:0:
192,192,47414,1,0,0:0:0:0:
320,192,47534,1,0,0:0:0:0:
64,192,47654,1,2,0:0:0:0:
448,192,47654,1,0,0:0:0:40:chime.wav
192,192,47774,1,0,0:0:0:0:
320,192,47894,1,2,0:0:0:0:
448,192,47894,1,0,0:0:0:0:
64,192,48014,1,0,0:0:0:0:
192,192,48134,1,2,0:0:0:0:
448,192,48134,1,0,0:0:0:40:chime.wav
320,192,48254,1,0,0:0:0:0:
192,192,48374,1,0,0:0:0:40:tom2.wav
64,192,48494,1,0,0:0:0:0:
448,192,48614,1,0,0:0:0:40:tom2.wav
64,192,48734,1,0,0:0:0:0:
192,192,48854,1,0,0:0:0:40:tom2.wav
320,192,48974,1,0,0:0:0:0:
64,192,49094,1,0,0:0:0:40:tom2.wav
320,192,49214,1,0,0:0:0:0:
192,192,49334,1,0,0:0:0:40:tom2.wav
64,192,49454,1,0,0:0:0:0:
448,192,49574,1,0,0:0:0:40:tom2.wav
64,192,49694,1,0,0:0:0:0:
192,192,49814,1,0,0:0:0:40:tom2.wav
320,192,49934,1,0,0:0:0:0:
64,192,50054,1,0,0:0:0:40:tom2.wav
448,192,50054,1,0,0:0:0:40:chime.wav
192,192,50174,1,0,0:0:0:0:
320,192,50294,1,0,0:0:0:40:tom2.wav
448,192,50294,1,0,0:0:0:0:
64,192,50414,1,0,0:0:0:0:
192,192,50534,1,0,0:0:0:40:tom2.wav
448,192,50534,1,0,0:0:0:40:chime.wav
320,192,50654,1,0,0:0:0:0:
64,192,50774,1,0,0:0:0:40:tom2.wav
192,192,50774,1,0,0:0:0:0:
448,192,50894,1,0,0:0:0:0:
64,192,51014,1,0,0:0:0:40:tom2.wav
320,192,51014,1,0,0:0:0:40:chime.wav
192,192,51134,1,0,0:0:0:0:
320,192,51254,1,0,0:0:0:40:tom2.wav
448,192,51254,1,0,0:0:0:0:
64,192,51374,1,0,0:0:0:0:
192,192,51494,1,0,0:0:0:40:tom2.wav
320,192,51494,1,0,0:0:0:40:chime.wav
448,192,51614,1,0,0:0:0:0:
64,192,51734,1,0,0:0:0:40:tom2.wav
320,192,51734,1,0,0:0:0:0:
192,192,51854,1,0,0:0:0:0:
64,192,51974,1,0,0:0:0:40:tom2.wav
448,192,51974,1,0,0:0:0:40:chime.wav
320,192,52034,1,0,0:0:0:0:
192,192,52094,1,0,0:0:0:40:tom2.wav
64,192,52154,1,0,0:0:0:0:
448,192,52214,1,0,0:0:0:40:tom2.wav
320,192,52274,1,0,0:0:0:0:
64,192,52334,1,0,0:0:0:0:
192,192,52394,1,0,0:0:0:0:
448,192,52454,1,0,0:0:0:40:chime.wav
64,192,52514,1,0,0:0:0:0:
320,192,52574,1,0,0:0:0:0:
448,192,52634,1,0,0:0:0:0:
64,192,52694,1,0,0:0:0:0:
192,192,52754,1,0,0:0:0:0:
320,192,52814,1,0,0:0:0:0:
448,192,52874,1,0,0:0:0:0:
64,192,52934,1,0,0:0:0:40:tom3.wav
192,192,52934,1,0,0:0:0:40:chime.wav
320,192,52994,1,0,0:0:0:0:
192,192,53054,1,0,0:0:0:0:
64,192,53114,1,0,0:0:0:0:
448,192,53174,1,0,0:0:0:0:
192,192,53234,1,0,0:0:0:0:
64,192,53294,1,0,0:0:0:40:tom3.wav
320,192,53354,1,0,0:0:0:40:tom3.wav
448,192,53354,1,0,0:0:0:0:
192,192,53414,1,0,0:0:0:40:tom3.wav
64,192,53474,1,0,0:0:0:0:
448,192,53534,1,0,0:0:0:0:
320,192,53594,1,0,0:0:0:0:
64,192,53654,1,0,0:0:0:0:
448,192,53714,1,0,0:0:0:0:
320,192,53774,1,0,0:0:0:0:
192,192,53834,1,0,0:0:0:0:
64,192,53894,128,2,54374:0:0:0:0:
320,192,53894,1,0,0:0:0:0:
448,192,53894,128,0,54014:0:0:0:0:
448,192,54134,128,0,54194:0:0:0:0:
448,192,54254,128,0,54374:0:0:0:0:
192,192,54374,128,2,54854:0:0:0:0:
320,192,54374,128,0,54494:0:0:0:0:
320,192,54614,128,0,54674:0:0:0:0:
320,192,54734,128,0,54854:0:0:0:0:
64,192,54854,128,2,54974:0:0:0:0:
448,192,54854,128,0,55334:0:0:0:0:
64,192,55094,128,0,55154:0:0:0:0:
64,192,55214,128,0,55334:0:0:0:0:
192,192,55334,1,0,0:0:0:40:tom.wav
320,192,55334,128,0,55814:0:0:0:0:
192,192,55574,128,0,55814:0:0:0:0:
64,192,55814,128,2,56174:0:0:0:0:
448,192,55814,1,0,0:0:0:0:
320,192,56174,128,0,56294:0:0:0:0:
64,192,56294,128,8,56414:0:0:0:0:
192,192,56294,1,0,0:0:0:0:
448,192,56294,128,0,56534:0:0:0:0:
64,192,56534,128,0,56654:0:0:0:0:
192,192,56534,128,0,56654:0:0:0:0:
320,192,56654,128,0,56774:0:0:0:0:
64,192,56774,128,2,57014:0:0:0:0:
192,192,56774,1,0,0:0:0:0:
448,192,56774,128,0,56894:0:0:0:0:
192,192,57014,128,0,57254:0:0:0:0:
320,192,57014,128,0,57134:0:0:0:0:
448,192,57134,128,0,57254:0:0:0:0:
64,192,57254,128,8,57374:0:0:0:0:
320,192,57254,128,0,57494:0:0:0:0:
64,192,57494,128,0,57614:0:0:0:0:
448,192,57494,128,0,57614:0:0:0:0:
192,192,57614,128,0,57734:0:0:0:0:
64,192,57734,128,2,57974:0:0:0:0:
320,192,57734,1,0,0:0:0:0:
448,192,57734,128,0,57854:0:0:0:0:
192,192,57974,128,0,58214:0:0:0:0:
448,192,57974,128,0,58034:0:0:0:0:
448,192,58094,128,0,58214:0:0:0:0:
64,192,58214,128,8,58334:0:0:0:0:
320,192,58214,128,0,58454:0:0:0:0:
64,192,58454,128,0,58514:0:0:0:0:
192,192,58454,128,0,58514:0:0:0:0:
192,192,58574,128,0,58694:0:0:0:0:
64,192,58694,1,2,0:0:0:0:
320,192,58694,128,0,58814:0:0:0:0:
448,192,58694,128,0,58934:0:0:0:0:
64,192,58934,128,0,59174:0:0:0:0:
320,192,58934,128,0,59174:0:0:0:0:
192,192,59174,128,8,59414:0:0:0:0:
448,192,59174,128,0,59294:0:0:0:0:
64,192,59414,128,0,59654:0:0:0:0:
448,192,59414,128,0,59654:0:0:0:0:
192,192,59654,128,2,59774:0:0:0:0:
320,192,59654,128,0,59894:0:0:0:0:
64,192,59894,128,0,59954:0:0:0:0:
448,192,59894,128,0,59954:0:0:0:0:
64,192,60014,128,0,60134:0:0:0:0:
192,192,60134,1,8,0:0:0:0:
320,192,60134,128,0,60374:0:0:0:0:
448,192,60134,128,0,60254:0:0:0:0:
64,192,60374,128,0,60494:0:0:0:0:
192,192,60374,128,0,60494:0:0:0:0:
448,192,60494,128,0,60614:0:0:0:0:
64,192,60614,1,2,0:0:0:0:
192,192,60614,128,0,60734:0:0:0:0:
320,192,60614,128,0,60854:0:0:0:0:
64,192,60854,128,0,60914:0:0:0:0:
448,192,60854,128,0,60914:0:0:0:0:
64,192,60974,128,0,61094:0:0:0:0:
192,192,61094,1,8,0:0:0:0:
320,192,61094,128,0,61334:0:0:0:0:
448,192,61094,128,0,61214:0:0:0:0:
64,192,61334,128,0,61454:0:0:0:0:
192,192,61334,128,0,61454:0:0:0:0:
320,192,61454,128,0,61574:0:0:0:0:
64,192,61574,128,2,61814:0:0:0:0:
192,192,61574,1,0,0:0:0:0:
448,192,61574,128,0,61694:0:0:0:0:
192,192,61814,128,0,61934:0:0:0:0:
448,192,61814,128,0,62054:0:0:0:0:
64,192,62054,128,8,62174:0:0:0:0:
192,192,62054,1,0,0:0:0:0:
320,192,62054,128,0,62294:0:0:0:0:
64,192,62294,128,0,62414:0:0:0:0:
448,192,62294,128,0,62414:0:0:0:0:
192,192,62414,128,0,62534:0:0:0:0:
64,192,62534,1,2,0:0:0:0:
320,192,62534,128,0,62774:0:0:0:0:
448,192,62534,128,0,62654:0:0:0:0:
64,192,62774,128,0,63014:0:0:0:0:
448,192,62774,128,0,63014:0:0:0:0:
192,192,63014,128,8,63254:0:0:0:0:
320,192,63014,128,0,63134:0:0:0:0:
64,192,63254,128,0,63494:0:0:0:0:
448,192,63254,128,0,63494:0:0:0:0:
192,192,63494,128,2,63734:0:0:0:0:
320,192,63494,128,0,63734:0:0:0:0:
64,192,63734,128,0,63794:0:0:0:0:
448,192,63734,128,0,63854:0:0:0:0:
320,192,63854,128,0,63974:0:0:0:0:
64,192,63974,128,8,64214:0:0:0:0:
192,192,63974,1,0,0:0:0:0:
448,192,63974,128,0,64214:0:0:0:0:
192,192,64214,128,0,64274:0:0:0:0:
320,192,64214,128,0,64454:0:0:0:0:
448,192,64334,128,0,64454:0:0:0:0:
64,192,64454,128,2,64574:0:0:0:0:
192,192,64454,128,0,64574:0:0:0:0:
320,192,64574,128,0,64814:0:0:0:0:
448,192,64574,128,0,64814:0:0:0:0:
192,192,64694,128,0,64934:0:0:0:0:
64,192,64934,128,8,65174:0:0:0:0:
320,192,64934,128,0,65054:0:0:0:0:
448,192,64934,1,0,0:0:0:0:
192,192,65054,128,0,65174:0:0:0:0:
320,192,65174,128,0,65294:0:0:0:0:
448,192,65174,128,0,65294:0:0:0:0:
192,192,65294,128,0,65414:0:0:0:0:
64,192,65414,128,2,65654:0:0:0:0:
320,192,65414,1,0,0:0:0:0:
448,192,65414,128,0,65654:0:0:0:0:
192,192,65654,128,0,65774:0:0:0:0:
320,192,65654,128,0,65774:0:0:0:0:
64,192,65774,128,0,65894:0:0:0:0:
448,192,65774,128,0,65894:0:0:0:0:
192,192,65894,128,8,66134:0:0:0:0:
320,192,65894,128,0,66134:0:0:0:0:
64,192,66134,128,0,66254:0:0:0:0:
448,192,66134,128,0,66374:0:0:0:0:
320,192,66254,128,0,66374:0:0:0:0:
64,192,66374,128,2,66614:0:0:0:0:
192,192,66374,128,0,66494:0:0:0:0:
448,192,66494,128,0,66854:0:0:0:0:
192,192,66614,128,0,66674:0:0:0:0:
192,192,66734,128,0,66854:0:0:0:0:
64,192,66854,128,8,66974:0:0:0:0:
320,192,66854,128,0,67094:0:0:0:0:
192,192,66974,128,0,67094:0:0:0:0:
64,192,67094,128,0,67214:0:0:0:0:
448,192,67094,128,0,67154:0:0:0:0:
320,192,67214,128,0,67334:0:0:0:0:
64,192,67334,128,2,67574:0:0:0:0:
192,192,67334,1,0,0:0:0:0:
448,192,67334,128,0,67574:0:0:0:0:
192,192,67574,128,0,67694:0:0:0:0:
320,192,67574,128,0,67694:0:0:0:0:
64,192,67694,128,0,67814:0:0:0:0:
448,192,67694,128,0,67814:0:0:0:0:
192,192,67814,128,8,67934:0:0:0:0:
320,192,67814,128,0,68054:0:0:0:0:
448,192,67934,128,0,68054:0:0:0:0:
64,192,68054,128,0,68174:0:0:0:0:
192,192,68054,128,0,68174:0:0:0:0:
320,192,68174,128,0,68294:0:0:0:0:
64,192,68294,1,2,0:0:0:0:
192,192,68294,128,0,68534:0:0:0:0:
448,192,68294,128,0,68534:0:0:0:0:
64,192,68534,128,0,68654:0:0:0:0:
320,192,68534,128,0,68654:0:0:0:0:
192,192,68654,128,0,68774:0:0:0:0:
448,192,68654,128,0,68774:0:0:0:0:
64,192,68774,128,8,68894:0:0:0:0:
320,192,68774,128,0,69014:0:0:0:0:
448,192,68894,128,0,69014:0:0:0:0:
64,192,69014,128,0,69254:0:0:0:0:
192,192,69014,128,0,69134:0:0:0:0:
192,192,69254,1,2,0:0:0:0:
320,192,69254,1,0,0:0:0:0:
448,192,69254,128,0,69494:0:0:0:0:
64,192,69494,128,0,69734:0:0:0:0:
320,192,69494,128,0,69614:0:0:0:0:
192,192,69734,128,8,69974:0:0:0:0:
320,192,69734,1,0,0:0:0:0:
448,192,69734,1,0,0:0:0:0:
448,192,69974,128,0,70094:0:0:0:0:
320,192,70094,128,0,70214:0:0:0:0:
192,192,70214,1,2,0:0:0:0:
64,192,70294,1,0,0:0:0:40:clap.wav
448,192,70374,1,0,0:0:0:40:clap.wav
320,192,70454,1,0,0:0:0:40:clap.wav
64,192,70574,1,0,0:0:0:40:clap.wav
192,192,70694,1,0,0:0:0:40:tom.wav
320,192,70694,128,0,71174:0:0:0:0:
448,192,70694,128,0,71174:0:0:0:0:
64,192,71174,128,2,71654:0:0:0:0:
192,192,71174,128,0,71654:0:0:0:0:
320,192,71654,128,8,71774:0:0:0:0:
448,192,71654,1,0,0:0:0:0:
64,192,71894,1,0,0:0:0:0:
192,192,71894,1,0,0:0:0:0:
320,192,72014,1,0,0:0:0:0:
448,192,72014,1,0,0:0:0:0:
64,192,72134,1,2,0:0:0:0:
192,192,72134,1,0,0:0:0:0:
448,192,72134,1,0,0:0:0:0:
64,192,72254,1,0,0:0:0:0:
320,192,72254,1,0,0:0:0:0:
448,192,72374,1,0,0:0:0:0:
64,192,72494,1,0,0:0:0:0:
192,192,72494,1,0,0:0:0:0:
64,192,72614,1,8,0:0:0:0:
320,192,72614,128,0,72734:0:0:0:0:
448,192,72614,1,0,0:0:0:0:
192,192,72854,1,0,0:0:0:0:
448,192,72854,1,0,0:0:0:0:
64,192,72974,1,0,0:0:0:0:
320,192,72974,1,0,0:0:0:0:
64,192,73094,128,2,73214:0:0:0:0:
192,192,73094,1,0,0:0:0:0:
448,192,73094,1,0,0:0:0:0:
320,192,73334,1,0,0:0:0:0:
448,192,73334,1,0,0:0:0:0:
64,192,73454,1,0,0:0:0:0:
192,192,73454,1,0,0:0:0:0:
64,192,73574,1,8,0:0:0:0:
320,192,73574,1,0,0:0:0:0:
448,192,73574,1,0,0:0:0:0:
320,192,73694,1,0,0:0:0:0:
192,192,73814,1,0,0:0:0:0:
448,192,73814,1,0,0:0:0:0:
64,192,73934,1,0,0:0:0:0:
320,192,73934,1,0,0:0:0:0:
64,192,74054,1,2,0:0:0:0:
192,192,74054,1,0,0:0:0:0:
448,192,74054,1,0,0:0:0:0:
448,192,74174,1,0,0:0:0:0:
64,192,74294,1,0,0:0:0:0:
192,192,74294,1,0,0:0:0:0:
320,192,74414,1,0,0:0:0:0:
448,192,74414,1,0,0:0:0:0:
64,192,74534,128,8,74774:0:0:0:0:
192,192,74534,128,0,74774:0:0:0:0:
320,192,74534,1,0,0:0:0:0:
320,192,74774,1,0,0:0:0:0:
448,192,74774,1,0,0:0:0:0:
64,192,74894,1,0,0:0:0:0:
192,192,74894,1,0,0:0:0:0:
64,192,75014,128,2,75494:0:0:0:0:
320,192,75014,1,0,0:0:0:0:
448,192,75014,1,0,0:0:0:0:
192,192,75494,1,8,0:0:0:0:
320,192,75494,128,0,75614:0:0:0:0:
448,192,75494,1,0,0:0:0:0:
64,192,75734,1,0,0:0:0:0:
192,192,75734,1,0,0:0:0:0:
320,192,75854,1,0,0:0:0:0:
448,192,75854,1,0,0:0:0:0:
64,192,75974,1,2,0:0:0:0:
192,192,75974,1,0,0:0:0:0:
448,192,75974,1,0,0:0:0:0:
64,192,76094,1,0,0:0:0:0:
320,192,76094,1,0,0:0:0:0:
448,192,76214,1,0,0:0:0:0:
64,192,76334,1,0,0:0:0:0:
192,192,76334,1,0,0:0:0:0:
64,192,76454,1,8,0:0:0:0:
320,192,76454,1,0,0:0:0:0:
448,192,76454,128,0,76574:0:0:0:0:
64,192,76694,1,0,0:0:0:0:
192,192,76694,1,0,0:0:0:0:
320,192,76814,1,0,0:0:0:0:
448,192,76814,1,0,0:0:0:0:
64,192,76934,128,2,77174:0:0:0:0:
192,192,76934,128,0,77174:0:0:0:0:
448,192,76934,1,0,0:0:0:0:
320,192,77174,128,0,77294:0:0:0:0:
448,192,77174,128,0,77294:0:0:0:0:
64,192,77294,128,0,77534:0:0:0:0:
192,192,77294,128,0,77534:0:0:0:0:
320,192,77534,128,0,77654:0:0:0:0:
448,192,77534,128,0,77654:0:0:0:0:
64,192,77654,128,0,77774:0:0:0:0:
192,192,77654,128,0,77774:0:0:0:0:
320,192,77774,128,0,77894:0:0:0:0:
448,192,77774,128,0,77894:0:0:0:0:
64,192,77894,128,2,78374:0:0:0:0:
192,192,77894,1,0,0:0:0:0:
448,192,78014,128,0,78254:0:0:0:0:
320,192,78134,128,0,78314:0:0:0:0:
192,192,78254,128,0,78374:0:0:0:0:
448,192,78374,128,8,78854:0:0:0:0:
64,192,78614,128,0,78854:0:0:0:0:
192,192,78854,128,2,79334:0:0:0:0:
320,192,78854,1,0,0:0:0:0:
64,192,79334,1,8,0:0:0:0:
320,192,79334,128,0,79454:0:0:0:0:
448,192,79334,1,0,0:0:0:0:
64,192,79574,1,0,0:0:0:0:
192,192,79574,1,0,0:0:0:0:
320,192,79694,1,0,0:0:0:0:
448,192,79694,1,0,0:0:0:0:
64,192,79814,1,2,0:0:0:0:
192,192,79814,1,0,0:0:0:0:
320,192,79814,1,0,0:0:0:0:
192,192,79934,1,0,0:0:0:0:
448,192,79934,1,0,0:0:0:0:
320,192,80054,1,0,0:0:0:0:
64,192,80174,1,0,0:0:0:0:
192,192,80174,1,0,0:0:0:0:
64,192,80294,1,8,0:0:0:0:
320,192,80294,128,0,80414:0:0:0:0:
448,192,80294,1,0,0:0:0:0:
64,192,80534,1,0,0:0:0:0:
192,192,80534,1,0,0:0:0:0:
320,192,80654,1,0,0:0:0:0:
448,192,80654,1,0,0:0:0:0:
64,192,80774,1,2,0:0:0:0:
192,192,80774,1,0,0:0:0:0:
448,192,80774,128,0,80894:0:0:0:0:
64,192,81014,1,0,0:0:0:0:
192,192,81014,1,0,0:0:0:0:
320,192,81134,1,0,0:0:0:0:
448,192,81134,1,0,0:0:0:0:
64,192,81254,1,8,0:0:0:0:
192,192,81254,1,0,0:0:0:0:
448,192,81254,1,0,0:0:0:0:
192,192,81374,1,0,0:0:0:0:
64,192,81494,1,0,0:0:0:0:
320,192,81494,1,0,0:0:0:0:
192,192,81614,1,0,0:0:0:0:
448,192,81614,1,0,0:0:0:0:
64,192,81734,1,2,0:0:0:0:
320,192,81734,1,0,0:0:0:0:
448,192,81734,1,0,0:0:0:0:
64,192,81854,1,0,0:0:0:0:
320,192,81974,1,0,0:0:0:0:
448,192,81974,1,0,0:0:0:0:
64,192,82094,1,0,0:0:0:0:
192,192,82094,1,0,0:0:0:0:
192,192,82214,1,8,0:0:0:0:
320,192,82214,128,0,82454:0:0:0:0:
448,192,82214,128,0,82454:0:0:0:0:
64,192,82454,1,0,0:0:0:0:
192,192,82454,1,0,0:0:0:0:
320,192,82574,1,0,0:0:0:0:
448,192,82574,1,0,0:0:0:0:
64,192,82694,128,2,83174:0:0:0:0:
192,192,82694,1,0,0:0:0:40:hat pedal.wav
448,192,82694,1,0,0:0:0:0:
192,192,83174,1,8,0:0:0:0:
320,192,83174,1,0,0:0:0:40:hat pedal.wav
448,192,83174,1,0,0:0:0:0:
448,192,83294,1,0,0:0:0:40:hat pedal.wav
64,192,83414,1,0,0:0:0:40:hat pedal.wav
320,192,83414,1,0,0:0:0:0:
192,192,83534,1,0,0:0:0:40:hat pedal.wav
448,192,83534,1,0,0:0:0:0:
64,192,83654,1,2,0:0:0:0:
192,192,83654,1,0,0:0:0:40:hat pedal.wav
320,192,83654,1,0,0:0:0:0:
64,192,83774,1,0,0:0:0:40:hat pedal.wav
448,192,83774,1,0,0:0:0:0:
320,192,83894,1,0,0:0:0:40:hat pedal.wav
64,192,84014,1,0,0:0:0:40:hat pedal.wav
192,192,84014,1,0,0:0:0:0:
64,192,84134,1,8,0:0:0:0:
320,192,84134,1,0,0:0:0:40:hat pedal.wav
448,192,84134,1,0,0:0:0:0:
192,192,84254,1,0,0:0:0:40:hat pedal.wav
320,192,84374,1,0,0:0:0:40:hat pedal.wav
448,192,84374,1,0,0:0:0:0:
64,192,84494,1,0,0:0:0:40:hat pedal.wav
192,192,84494,1,0,0:0:0:0:
64,192,84614,1,2,0:0:0:0:
320,192,84614,128,0,84734:0:0:0:0:
448,192,84614,128,0,84734:0:0:0:0:
64,192,84854,128,0,84974:0:0:0:0:
192,192,84854,128,0,84974:0:0:0:0:
320,192,84974,128,0,85214:0:0:0:0:
448,192,84974,128,0,85214:0:0:0:0:
64,192,85214,128,0,85334:0:0:0:0:
192,192,85214,128,0,85334:0:0:0:0:
320,192,85334,128,0,85454:0:0:0:0:
448,192,85334,128,0,85454:0:0:0:0:
64,192,85454,128,0,85574:0:0:0:0:
192,192,85454,128,0,85574:0:0:0:0:
320,192,85574,128,2,85814:0:0:0:0:
448,192,85574,128,0,86534:0:0:0:0:
192,192,85694,128,0,85934:0:0:0:0:
64,192,85814,128,0,86054:0:0:0:0:
320,192,85934,128,0,86174:0:0:0:0:
192,192,86054,128,0,86294:0:0:0:0:
64,192,86174,128,0,86414:0:0:0:0:
320,192,86294,1,0,0:0:0:0:
192,192,86414,1,0,0:0:0:0:
64,192,86534,1,0,0:0:0:40:cymbal.wav
320,192,86534,1,0,0:0:0:0:
192,192,86894,1,0,0:0:0:0:
448,192,87014,1,0,0:0:0:0:
192,192,87254,1,0,0:0:0:0:
320,192,87374,1,0,0:0:0:0:
448,192,87494,1,0,0:0:0:0:
192,192,87734,1,0,0:0:0:0:
448,192,87974,1,0,0:0:0:0:
64,192,88214,1,0,0:0:0:0:
192,192,88334,1,0,0:0:0:0:
448,192,88454,1,0,0:0:0:0:
192,192,88694,1,0,0:0:0:0:
320,192,88814,1,0,0:0:0:0:
64,192,88934,1,0,0:0:0:0:
448,192,89054,1,0,0:0:0:0:
320,192,89174,1,0,0:0:0:0:
192,192,89294,1,0,0:0:0:0:
448,192,89414,128,0,89894:0:0:0:0:
320,192,89654,128,0,89894:0:0:0:0:
64,192,89894,1,0,0:0:0:0:
192,192,89894,1,0,0:0:0:0:
192,192,90134,1,0,0:0:0:0:
64,192,90374,1,0,0:0:0:0:
320,192,90614,1,0,0:0:0:0:
192,192,90734,1,0,0:0:0:0:
64,192,90854,1,0,0:0:0:0:
192,192,91094,1,0,0:0:0:0:
320,192,91214,1,0,0:0:0:0:
448,192,91334,1,0,0:0:0:0:
192,192,91574,1,0,0:0:0:0:
320,192,91694,1,0,0:0:0:0:
448,192,91814,1,0,0:0:0:0:
192,192,91934,1,0,0:0:0:0:
448,192,92054,1,0,0:0:0:0:
320,192,92174,1,0,0:0:0:0:
64,192,92294,128,2,92774:0:0:0:0:
192,192,92294,1,0,0:0:0:0:
448,192,92294,1,0,0:0:0:0:
192,192,92534,1,0,0:0:0:0:
320,192,92654,1,0,0:0:0:0:
192,192,92774,1,2,0:0:0:0:
320,192,92774,1,0,0:0:0:0:
448,192,92774,128,0,93254:0:0:0:0:
320,192,93014,1,0,0:0:0:0:
192,192,93134,1,0,0:0:0:0:
64,192,93254,1,2,0:0:0:0:
192,192,93254,128,0,93734:0:0:0:40:clap.wav
320,192,93254,1,0,0:0:0:0:
448,192,93334,1,0,0:0:0:40:clap.wav
64,192,93414,1,0,0:0:0:40:clap.wav
448,192,93494,1,0,0:0:0:40:clap.wav
320,192,93614,1,0,0:0:0:40:clap.wav
64,192,93734,1,2,0:0:0:0:
320,192,93734,1,0,0:0:0:0:
448,192,93734,128,0,94214:0:0:0:0:
192,192,93854,1,0,0:0:0:0:
64,192,93974,1,2,0:0:0:0:
320,192,93974,1,0,0:0:0:0:
192,192,94094,1,0,0:0:0:0:
64,192,94214,1,0,0:0:0:0:
448,192,94574,1,0,0:0:0:0:
448,192,94694,1,2,0:0:0:0:
192,192,94934,1,0,0:0:0:0:
320,192,95054,1,0,0:0:0:0:
64,192,95174,1,0,0:0:0:0:
448,192,95174,1,0,0:0:0:0:
320,192,95414,1,0,0:0:0:0:
192,192,95534,1,0,0:0:0:0:
64,192,95654,1,2,0:0:0:0:
64,192,95774,1,0,0:0:0:0:
320,192,95894,1,0,0:0:0:0:
320,192,96014,1,0,0:0:0:0:
64,192,96134,1,0,0:0:0:0:
448,192,96134,1,0,0:0:0:0:
320,192,96374,1,0,0:0:0:0:
192,192,96494,1,0,0:0:0:0:
64,192,96614,1,2,0:0:0:0:
320,192,96734,1,0,0:0:0:0:
192,192,96854,1,0,0:0:0:0:
64,192,96974,1,0,0:0:0:0:
64,192,97094,1,0,0:0:0:0:
448,192,97094,1,0,0:0:0:0:
192,192,97334,1,0,0:0:0:0:
64,192,97454,1,0,0:0:0:0:
64,192,97574,1,0,0:0:0:40:tom2.wav
320,192,97694,1,0,0:0:0:0:
192,192,97814,1,0,0:0:0:0:
192,192,97934,1,0,0:0:0:0:
64,192,98054,1,2,0:0:0:0:
320,192,98054,1,0,0:0:0:0:
448,192,98054,128,0,98534:0:0:0:0:
192,192,98174,1,0,0:0:0:0:
320,192,98294,1,0,0:0:0:0:
64,192,98414,1,0,0:0:0:0:
64,192,98534,1,2,0:0:0:0:
192,192,98534,128,0,99014:0:0:0:0:
320,192,98534,1,0,0:0:0:0:
448,192,98654,1,0,0:0:0:0:
320,192,98774,1,0,0:0:0:0:
64,192,98894,1,0,0:0:0:0:
64,192,99014,1,2,0:0:0:0:
320,192,99014,128,0,99494:0:0:0:0:
448,192,99014,1,0,0:0:0:0:
192,192,99134,1,0,0:0:0:0:
64,192,99254,1,0,0:0:0:40:clap.wav
448,192,99374,1,0,0:0:0:40:clap.wav
64,192,99494,128,2,99974:0:0:0:0:
192,192,99494,1,0,0:0:0:40:clap.wav
448,192,99494,1,0,0:0:0:0:
320,192,99614,1,0,0:0:0:40:clap.wav
192,192,99734,1,2,0:0:0:0:
448,192,99854,1,0,0:0:0:0:
192,192,99974,128,2,100454:0:0:0:0:
320,192,99974,1,0,0:0:0:0:
448,192,99974,1,0,0:0:0:0:
64,192,100094,1,0,0:0:0:0:
320,192,100214,1,0,0:0:0:0:
448,192,100334,1,0,0:0:0:0:
64,192,100454,1,2,0:0:0:0:
320,192,100454,128,0,101054:0:0:0:0:
448,192,100454,1,0,0:0:0:0:
192,192,100574,1,0,0:0:0:0:
64,192,100694,1,0,0:0:0:0:
448,192,100814,1,0,0:0:0:0:
64,192,100934,128,2,101294:0:0:0:0:
192,192,100934,128,0,101174:0:0:0:0:
448,192,101054,128,0,101414:0:0:0:0:
320,192,101174,128,0,101414:0:0:0:0:
192,192,101294,128,0,101414:0:0:0:0:
64,192,101414,128,0,101894:0:0:0:40:tom.wav
320,192,101654,128,0,101894:0:0:0:0:
192,192,101894,1,0,0:0:0:40:cymbal.wav
448,192,101894,128,0,102254:0:0:0:0:
320,192,102254,128,0,102374:0:0:0:0:
64,192,102374,128,0,102494:0:0:0:0:
192,192,102614,128,0,102734:0:0:0:0:
320,192,102734,128,0,102854:0:0:0:0:
448,192,102854,128,0,103094:0:0:0:0:
192,192,103094,128,0,103334:0:0:0:0:
64,192,103334,128,0,103454:0:0:0:0:
192,192,103574,128,0,103694:0:0:0:0:
320,192,103694,128,0,103814:0:0:0:0:
448,192,103814,128,0,104054:0:0:0:0:
192,192,104054,128,0,104294:0:0:0:0:
320,192,104294,128,0,104534:0:0:0:0:
192,192,104534,128,0,104654:0:0:0:0:
64,192,104654,128,0,104774:0:0:0:0:
320,192,104774,1,0,0:0:0:40:clap.wav
448,192,104774,128,0,105254:0:0:0:0:
192,192,104854,1,0,0:0:0:40:clap.wav
64,192,104934,1,0,0:0:0:40:clap.wav
320,192,105014,1,0,0:0:0:40:clap.wav
192,192,105134,1,0,0:0:0:40:clap.wav
64,192,105254,128,0,105734:0:0:0:0:
192,192,105494,128,0,105734:0:0:0:0:
320,192,105734,128,2,105974:0:0:0:0:
448,192,105734,128,0,105854:0:0:0:0:
192,192,105974,128,0,106214:0:0:0:0:
448,192,105974,128,0,106034:0:0:0:0:
448,192,106094,128,0,106214:0:0:0:0:
64,192,106214,1,0,0:0:0:40:clap.wav
320,192,106214,128,0,106334:0:0:0:0:
64,192,106454,128,0,106694:0:0:0:0:
192,192,106454,128,0,106574:0:0:0:0:
320,192,106574,128,0,106694:0:0:0:0:
192,192,106694,128,2,106934:0:0:0:0:
448,192,106694,128,0,106814:0:0:0:0:
64,192,106934,128,0,106994:0:0:0:0:
320,192,106934,128,0,107174:0:0:0:0:
64,192,107054,128,0,107174:0:0:0:0:
192,192,107174,128,0,107414:0:0:0:40:clap.wav
448,192,107174,1,0,0:0:0:0:
320,192,107414,128,0,107534:0:0:0:0:
448,192,107414,128,0,107534:0:0:0:0:
192,192,107534,128,0,107654:0:0:0:0:
64,192,107654,1,2,0:0:0:0:
320,192,107654,128,0,107774:0:0:0:0:
448,192,107654,128,0,107894:0:0:0:0:
64,192,107894,128,0,108134:0:0:0:0:
320,192,107894,128,0,108014:0:0:0:0:
448,192,108014,128,0,108134:0:0:0:0:
192,192,108134,128,2,108254:0:0:0:0:
320,192,108134,128,0,108374:0:0:0:0:
192,192,108374,128,0,108494:0:0:0:0:
448,192,108374,128,0,108494:0:0:0:0:
64,192,108494,128,0,108614:0:0:0:0:
192,192,108614,1,2,0:0:0:0:
320,192,108614,128,0,108854:0:0:0:0:
448,192,108614,128,0,109094:0:0:0:0:
192,192,108854,1,0,0:0:0:0:
64,192,109094,1,0,0:0:0:40:tom.wav
192,192,109094,128,0,109574:0:0:0:0:
320,192,109094,1,0,0:0:0:0:
64,192,109334,128,0,109574:0:0:0:0:
320,192,109574,128,2,109814:0:0:0:0:
448,192,109574,128,0,109694:0:0:0:0:
192,192,109814,128,0,109874:0:0:0:0:
448,192,109814,128,0,109874:0:0:0:0:
192,192,109934,128,0,110054:0:0:0:0:
64,192,110054,1,8,0:0:0:0:
320,192,110054,128,0,110174:0:0:0:0:
448,192,110054,128,0,110294:0:0:0:0:
64,192,110294,128,0,110414:0:0:0:0:
192,192,110294,128,0,110414:0:0:0:0:
320,192,110414,128,0,110534:0:0:0:0:
64,192,110534,128,2,110774:0:0:0:0:
192,192,110534,1,0,0:0:0:0:
448,192,110534,128,0,110654:0:0:0:0:
192,192,110774,128,0,110834:0:0:0:0:
448,192,110774,128,0,110834:0:0:0:0:
448,192,110894,128,0,111014:0:0:0:0:
64,192,111014,1,8,0:0:0:0:
192,192,111014,128,0,111254:0:0:0:0:
320,192,111014,128,0,111134:0:0:0:0:
64,192,111254,128,0,111374:0:0:0:0:
320,192,111254,128,0,111374:0:0:0:0:
192,192,111374,128,0,111494:0:0:0:0:
64,192,111494,128,2,111614:0:0:0:0:
320,192,111494,1,0,0:0:0:0:
448,192,111494,128,0,111734:0:0:0:0:
192,192,111734,128,0,111854:0:0:0:0:
320,192,111734,128,0,111974:0:0:0:0:
64,192,111854,128,0,111974:0:0:0:0:
192,192,111974,128,8,112214:0:0:0:0:
448,192,111974,128,0,112094:0:0:0:0:
64,192,112214,128,0,112454:0:0:0:0:
320,192,112214,128,0,112334:0:0:0:0:
448,192,112214,128,0,112334:0:0:0:0:
192,192,112334,128,0,112454:0:0:0:0:
320,192,112454,128,2,112934:0:0:0:0:
448,192,112454,128,0,112694:0:0:0:0:
192,192,112694,128,0,112814:0:0:0:0:
64,192,112814,128,0,112934:0:0:0:0:
192,192,112934,1,8,0:0:0:0:
448,192,112934,128,0,113414:0:0:0:0:
64,192,113174,128,0,113414:0:0:0:0:
192,192,113414,128,2,113654:0:0:0:0:
320,192,113414,128,0,113534:0:0:0:0:
64,192,113654,128,0,113714:0:0:0:0:
448,192,113654,128,0,113714:0:0:0:0:
448,192,113774,128,0,113894:0:0:0:0:
64,192,113894,1,8,0:0:0:0:
192,192,113894,128,0,114134:0:0:0:0:
320,192,113894,128,0,114014:0:0:0:0:
64,192,114134,128,0,114194:0:0:0:0:
448,192,114134,128,0,114254:0:0:0:0:
64,192,114254,128,0,114374:0:0:0:0:
192,192,114374,128,2,114494:0:0:0:0:
320,192,114374,1,0,0:0:0:0:
448,192,114374,128,0,114614:0:0:0:0:
64,192,114614,128,0,114674:0:0:0:0:
320,192,114614,128,0,114674:0:0:0:0:
320,192,114734,128,0,114854:0:0:0:0:
64,192,114854,1,8,0:0:0:0:
192,192,114854,128,0,114974:0:0:0:0:
448,192,114854,128,0,115094:0:0:0:0:
64,192,115094,128,0,115214:0:0:0:0:
192,192,115094,128,0,115334:0:0:0:0:
64,192,115334,128,2,115454:0:0:0:0:
320,192,115334,128,0,115574:0:0:0:0:
448,192,115334,1,0,0:0:0:0:
192,192,115574,128,0,115694:0:0:0:0:
448,192,115574,128,0,115814:0:0:0:0:
64,192,115814,128,8,115934:0:0:0:0:
192,192,115814,128,0,116054:0:0:0:0:
320,192,115814,1,0,0:0:0:0:
320,192,116054,128,0,116294:0:0:0:0:
448,192,116054,128,0,116174:0:0:0:0:
64,192,116294,1,2,0:0:0:0:
448,192,116294,128,0,116774:0:0:0:40:clap.wav
192,192,116374,1,0,0:0:0:40:clap.wav
320,192,116454,1,0,0:0:0:40:clap.wav
64,192,116534,1,0,0:0:0:40:clap.wav
320,192,116654,1,0,0:0:0:40:clap.wav
64,192,116774,1,0,0:0:0:40:tom.wav
192,192,116774,128,0,117254:0:0:0:0:
320,192,116774,128,0,117014:0:0:0:0:
448,192,117014,128,0,117254:0:0:0:0:
64,192,117254,128,2,117614:0:0:0:0:
320,192,117254,128,0,117494:0:0:0:0:
448,192,117494,128,0,117614:0:0:0:0:
192,192,117614,128,0,117734:0:0:0:0:
64,192,117734,1,8,0:0:0:0:
320,192,117734,128,0,117854:0:0:0:0:
448,192,117734,128,0,117974:0:0:0:0:
64,192,117974,128,0,118094:0:0:0:0:
320,192,117974,128,0,118094:0:0:0:0:
192,192,118094,128,0,118214:0:0:0:0:
64,192,118214,1,2,0:0:0:0:
320,192,118214,128,0,118334:0:0:0:0:
448,192,118214,128,0,118454:0:0:0:0:
64,192,118454,128,0,118694:0:0:0:0:
192,192,118454,128,0,118574:0:0:0:0:
320,192,118574,128,0,118694:0:0:0:0:
192,192,118694,128,8,118814:0:0:0:0:
448,192,118694,128,0,118934:0:0:0:0:
64,192,118934,128,0,119174:0:0:0:0:
320,192,118934,128,0,119054:0:0:0:0:
448,192,119054,128,0,119174:0:0:0:0:
192,192,119174,128,2,119294:0:0:0:0:
320,192,119174,128,0,119414:0:0:0:0:
64,192,119414,128,0,119654:0:0:0:0:
448,192,119414,128,0,119474:0:0:0:0:
448,192,119534,128,0,119654:0:0:0:0:
192,192,119654,128,8,119774:0:0:0:0:
320,192,119654,128,0,119894:0:0:0:0:
64,192,119894,128,0,119954:0:0:0:0:
448,192,119894,128,0,120014:0:0:0:0:
64,192,120014,128,0,120134:0:0:0:0:
192,192,120134,1,2,0:0:0:0:
320,192,120134,128,0,120254:0:0:0:0:
448,192,120134,128,0,120374:0:0:0:0:
192,192,120374,128,0,120614:0:0:0:0:
320,192,120374,128,0,120614:0:0:0:0:
64,192,120614,128,8,120854:0:0:0:0:
448,192,120614,128,0,120734:0:0:0:0:
192,192,120854,128,0,121094:0:0:0:0:
320,192,120854,128,0,121094:0:0:0:0:
64,192,121094,128,2,121334:0:0:0:0:
448,192,121094,128,0,121214:0:0:0:0:
192,192,121334,128,0,121454:0:0:0:0:
448,192,121334,128,0,121394:0:0:0:0:
448,192,121454,128,0,121574:0:0:0:0:
64,192,121574,1,8,0:0:0:0:
192,192,121574,128,0,121694:0:0:0:0:
320,192,121574,128,0,121814:0:0:0:0:
64,192,121814,128,0,121934:0:0:0:0:
192,192,121814,128,0,121934:0:0:0:0:
320,192,121934,128,0,122054:0:0:0:0:
64,192,122054,1,2,0:0:0:0:
192,192,122054,128,0,122294:0:0:0:0:
448,192,122054,128,0,122174:0:0:0:0:
64,192,122294,128,0,122354:0:0:0:0:
448,192,122294,128,0,122534:0:0:0:0:
64,192,122414,128,0,122534:0:0:0:0:
192,192,122534,128,8,122654:0:0:0:0:
320,192,122534,128,0,122774:0:0:0:0:
64,192,122774,128,0,122894:0:0:0:0:
448,192,122774,128,0,122834:0:0:0:0:
448,192,122894,128,0,123014:0:0:0:0:
64,192,123014,1,2,0:0:0:0:
192,192,123014,128,0,123254:0:0:0:0:
320,192,123014,128,0,123134:0:0:0:0:
320,192,123254,128,0,123494:0:0:0:0:
448,192,123254,128,0,123374:0:0:0:0:
64,192,123374,128,0,123494:0:0:0:0:
192,192,123494,128,8,123614:0:0:0:0:
448,192,123494,128,0,123734:0:0:0:0:
64,192,123734,128,0,123854:0:0:0:0:
192,192,123734,128,0,123854:0:0:0:0:
320,192,123854,128,0,123974:0:0:0:0:
64,192,123974,128,2,124094:0:0:0:0:
192,192,123974,1,0,0:0:0:0:
448,192,123974,128,0,124214:0:0:0:0:
64,192,124214,128,0,124454:0:0:0:0:
320,192,124214,128,0,124454:0:0:0:0:
192,192,124454,128,8,124574:0:0:0:0:
448,192,124454,128,0,124694:0:0:0:0:
64,192,124694,128,0,124934:0:0:0:0:
192,192,124694,128,0,124934:0:0:0:0:
320,192,124934,128,2,125174:0:0:0:0:
448,192,124934,128,0,125174:0:0:0:0:
64,192,125174,128,0,125294:0:0:0:0:
192,192,125174,128,0,125294:0:0:0:0:
320,192,125294,128,0,125414:0:0:0:0:
64,192,125414,128,8,125654:0:0:0:0:
192,192,125414,128,0,125654:0:0:0:0:
448,192,125414,1,0,0:0:0:0:
320,192,125654,128,0,125894:0:0:0:0:
448,192,125654,128,0,125774:0:0:0:0:
192,192,125774,128,0,125894:0:0:0:0:
64,192,125894,128,2,126014:0:0:0:0:
448,192,125894,128,0,126014:0:0:0:0:
192,192,126014,128,0,126254:0:0:0:0:
320,192,126014,128,0,126254:0:0:0:0:
64,192,126134,128,0,126374:0:0:0:0:
192,192,126374,1,8,0:0:0:0:
320,192,126374,128,0,126494:0:0:0:0:
448,192,126374,128,0,126614:0:0:0:0:
64,192,126494,128,0,126614:0:0:0:0:
192,192,126614,128,0,126734:0:0:0:0:
320,192,126614,128,0,126734:0:0:0:0:
448,192,126734,128,0,126854:0:0:0:0:
64,192,126854,128,2,127094:0:0:0:0:
192,192,126854,128,0,127094:0:0:0:0:
320,192,126854,1,0,0:0:0:0:
320,192,127094,128,0,127214:0:0:0:0:
448,192,127094,128,0,127214:0:0:0:0:
64,192,127214,128,0,127334:0:0:0:0:
192,192,127214,128,0,127334:0:0:0:0:
320,192,127334,128,8,127574:0:0:0:0:
448,192,127334,128,0,127574:0:0:0:0:
64,192,127574,128,0,127694:0:0:0:0:
192,192,127574,128,0,127814:0:0:0:0:
448,192,127694,128,0,127814:0:0:0:0:
64,192,127814,128,2,127934:0:0:0:0:
320,192,127814,128,0,128054:0:0:0:0:
448,192,127934,128,0,128174:0:0:0:0:
64,192,128054,128,0,128294:0:0:0:0:
320,192,128174,128,0,128294:0:0:0:0:
192,192,128294,128,8,128414:0:0:0:0:
448,192,128294,128,0,128534:0:0:0:0:
64,192,128414,128,0,128534:0:0:0:0:
192,192,128534,128,0,128654:0:0:0:0:
320,192,128534,128,0,128654:0:0:0:0:
448,192,128654,128,0,128774:0:0:0:0:
64,192,128774,128,2,129014:0:0:0:0:
192,192,128774,128,0,129014:0:0:0:0:
320,192,128774,1,0,0:0:0:0:
320,192,129014,128,0,129134:0:0:0:0:
448,192,129014,128,0,129134:0:0:0:0:
64,192,129134,128,0,129254:0:0:0:0:
192,192,129134,128,0,129254:0:0:0:0:
320,192,129254,128,8,129494:0:0:0:0:
448,192,129254,128,0,129374:0:0:0:0:
64,192,129374,128,0,129494:0:0:0:0:
192,192,129494,128,0,129614:0:0:0:0:
448,192,129494,128,0,129614:0:0:0:0:
320,192,129614,128,0,129734:0:0:0:0:
64,192,129734,1,2,0:0:0:0:
192,192,129734,128,0,129974:0:0:0:0:
448,192,129734,128,0,129974:0:0:0:0:
64,192,129974,128,0,130094:0:0:0:0:
320,192,129974,128,0,130094:0:0:0:0:
192,192,130094,128,0,130214:0:0:0:0:
448,192,130094,128,0,130214:0:0:0:0:
64,192,130214,128,8,130334:0:0:0:0:
320,192,130214,128,0,130454:0:0:0:0:
448,192,130334,128,0,130454:0:0:0:0:
64,192,130454,128,0,130694:0:0:0:0:
192,192,130454,128,0,130574:0:0:0:0:
192,192,130694,1,2,0:0:0:0:
320,192,130694,1,0,0:0:0:0:
448,192,130694,128,0,130934:0:0:0:0:
64,192,130934,128,0,131174:0:0:0:0:
320,192,130934,128,0,131054:0:0:0:0:
192,192,131174,1,8,0:0:0:0:
320,192,131174,128,0,131414:0:0:0:0:
448,192,131174,1,0,0:0:0:0:
64,192,131414,128,0,131534:0:0:0:0:
192,192,131534,128,0,131654:0:0:0:0:
320,192,131654,1,2,0:0:0:0:
448,192,131734,1,0,0:0:0:40:clap.wav
64,192,131814,1,0,0:0:0:40:clap.wav
192,192,131894,1,0,0:0:0:40:clap.wav
320,192,132014,1,0,0:0:0:40:clap.wav
64,192,132134,128,0,132614:0:0:0:40:tom.wav
192,192,132134,128,0,132614:0:0:0:0:
448,192,132134,1,0,0:0:0:0:
320,192,132614,128,2,133094:0:0:0:0:
448,192,132614,128,0,133094:0:0:0:0:
64,192,133094,1,8,0:0:0:0:
192,192,133094,128,0,133214:0:0:0:40:cymbal.wav
320,192,133334,1,0,0:0:0:0:
448,192,133334,1,0,0:0:0:0:
64,192,133454,1,0,0:0:0:0:
192,192,133454,1,0,0:0:0:0:
64,192,133574,1,2,0:0:0:0:
320,192,133574,1,0,0:0:0:0:
448,192,133574,1,0,0:0:0:0:
192,192,133694,1,0,0:0:0:0:
448,192,133694,1,0,0:0:0:0:
320,192,133814,1,0,0:0:0:0:
64,192,133934,1,0,0:0:0:0:
448,192,133934,1,0,0:0:0:0:
64,192,134054,1,8,0:0:0:0:
192,192,134054,1,0,0:0:0:0:
320,192,134054,128,0,134174:0:0:0:0:
64,192,134294,1,0,0:0:0:0:
192,192,134294,1,0,0:0:0:0:
320,192,134414,1,0,0:0:0:0:
448,192,134414,1,0,0:0:0:0:
64,192,134534,128,2,134654:0:0:0:0:
192,192,134534,1,0,0:0:0:0:
448,192,134534,1,0,0:0:0:0:
320,192,134774,1,0,0:0:0:0:
448,192,134774,1,0,0:0:0:0:
64,192,134894,1,0,0:0:0:0:
192,192,134894,1,0,0:0:0:0:
64,192,135014,1,8,0:0:0:0:
192,192,135014,1,0,0:0:0:0:
320,192,135014,1,0,0:0:0:0:
320,192,135134,1,0,0:0:0:0:
192,192,135254,1,0,0:0:0:0:
448,192,135254,1,0,0:0:0:0:
64,192,135374,1,0,0:0:0:0:
320,192,135374,1,0,0:0:0:0:
64,192,135494,1,2,0:0:0:0:
192,192,135494,1,0,0:0:0:0:
448,192,135494,1,0,0:0:0:0:
192,192,135614,1,0,0:0:0:0:
320,192,135734,1,0,0:0:0:0:
448,192,135734,1,0,0:0:0:0:
64,192,135854,1,0,0:0:0:0:
192,192,135854,1,0,0:0:0:0:
64,192,135974,1,8,0:0:0:0:
320,192,135974,128,0,136214:0:0:0:0:
448,192,135974,128,0,136214:0:0:0:0:
64,192,136214,1,0,0:0:0:0:
192,192,136214,1,0,0:0:0:0:
320,192,136334,1,0,0:0:0:0:
448,192,136334,1,0,0:0:0:0:
64,192,136454,1,2,0:0:0:0:
192,192,136454,128,0,136934:0:0:0:0:
448,192,136454,1,0,0:0:0:0:
64,192,136934,1,8,0:0:0:0:
320,192,136934,128,0,137054:0:0:0:0:
448,192,136934,1,0,0:0:0:0:
64,192,137174,1,0,0:0:0:0:
192,192,137174,1,0,0:0:0:0:
320,192,137294,1,0,0:0:0:0:
448,192,137294,1,0,0:0:0:0:
64,192,137414,1,2,0:0:0:0:
192,192,137414,1,0,0:0:0:0:
320,192,137414,1,0,0:0:0:0:
192,192,137534,1,0,0:0:0:0:
448,192,137534,1,0,0:0:0:0:
320,192,137654,1,0,0:0:0:0:
64,192,137774,1,0,0:0:0:0:
448,192,137774,1,0,0:0:0:0:
192,192,137894,1,8,0:0:0:0:
320,192,137894,128,0,138014:0:0:0:0:
448,192,137894,1,0,0:0:0:0:
64,192,138134,1,0,0:0:0:0:
192,192,138134,1,0,0:0:0:0:
320,192,138254,1,0,0:0:0:0:
448,192,138254,1,0,0:0:0:0:
64,192,138374,128,2,138614:0:0:0:0:
192,192,138374,128,0,138614:0:0:0:0:
448,192,138374,1,0,0:0:0:0:
320,192,138614,128,0,138734:0:0:0:0:
448,192,138614,128,0,138734:0:0:0:0:
64,192,138734,128,0,138974:0:0:0:0:
192,192,138734,128,0,138974:0:0:0:0:
320,192,138974,128,0,139094:0:0:0:0:
448,192,138974,128,0,139094:0:0:0:0:
64,192,139094,128,0,139214:0:0:0:0:
192,192,139094,128,0,139214:0:0:0:0:
320,192,139214,128,0,139334:0:0:0:0:
448,192,139214,128,0,139334:0:0:0:0:
64,192,139334,128,2,139814:0:0:0:0:
192,192,139334,1,0,0:0:0:0:
448,192,139454,128,0,139694:0:0:0:0:
320,192,139574,128,0,139754:0:0:0:0:
192,192,139694,128,0,139814:0:0:0:0:
448,192,139814,128,8,140294:0:0:0:0:
64,192,140054,128,0,140294:0:0:0:0:
192,192,140294,1,2,0:0:0:0:
320,192,140294,128,0,140774:0:0:0:0:
64,192,140774,1,8,0:0:0:0:
192,192,140774,128,0,140894:0:0:0:0:
448,192,140774,1,0,0:0:0:0:
64,192,141014,1,0,0:0:0:0:
320,192,141014,1,0,0:0:0:0:
192,192,141134,1,0,0:0:0:0:
448,192,141134,1,0,0:0:0:0:
64,192,141254,1,2,0:0:0:0:
320,192,141254,1,0,0:0:0:0:
448,192,141254,1,0,0:0:0:0:
192,192,141374,1,0,0:0:0:0:
320,192,141374,1,0,0:0:0:0:
64,192,141494,1,0,0:0:0:0:
320,192,141614,1,0,0:0:0:0:
448,192,141614,1,0,0:0:0:0:
64,192,141734,128,8,141854:0:0:0:0:
192,192,141734,1,0,0:0:0:0:
448,192,141734,1,0,0:0:0:0:
320,192,141974,1,0,0:0:0:0:
448,192,141974,1,0,0:0:0:0:
64,192,142094,1,0,0:0:0:0:
192,192,142094,1,0,0:0:0:0:
64,192,142214,1,2,0:0:0:0:
320,192,142214,1,0,0:0:0:0:
448,192,142214,128,0,142334:0:0:0:0:
64,192,142454,1,0,0:0:0:0:
320,192,142454,1,0,0:0:0:0:
192,192,142574,1,0,0:0:0:0:
448,192,142574,1,0,0:0:0:0:
64,192,142694,1,8,0:0:0:0:
320,192,142694,1,0,0:0:0:0:
448,192,142694,1,0,0:0:0:0:
320,192,142814,1,0,0:0:0:0:
64,192,142934,1,0,0:0:0:0:
192,192,142934,1,0,0:0:0:0:
320,192,143054,1,0,0:0:0:0:
448,192,143054,1,0,0:0:0:0:
64,192,143174,1,2,0:0:0:0:
192,192,143174,1,0,0:0:0:0:
448,192,143174,1,0,0:0:0:0:
320,192,143294,1,0,0:0:0:0:
64,192,143414,1,0,0:0:0:0:
192,192,143414,1,0,0:0:0:0:
320,192,143534,1,0,0:0:0:0:
448,192,143534,1,0,0:0:0:0:
64,192,143654,128,8,143894:0:0:0:0:
192,192,143654,128,0,143894:0:0:0:0:
448,192,143654,1,0,0:0:0:0:
320,192,143894,1,0,0:0:0:0:
448,192,143894,1,0,0:0:0:0:
64,192,144014,1,0,0:0:0:0:
192,192,144014,1,0,0:0:0:0:
64,192,144134,1,2,0:0:0:0:
320,192,144134,128,0,144614:0:0:0:40:hat pedal.wav
448,192,144134,1,0,0:0:0:0:
64,192,144614,1,8,0:0:0:0:
192,192,144614,1,0,0:0:0:40:hat pedal.wav
448,192,144614,1,0,0:0:0:0:
192,192,144734,1,0,0:0:0:0:
320,192,144854,1,0,0:0:0:0:
448,192,144854,1,0,0:0:0:0:
64,192,144974,1,0,0:0:0:0:
192,192,144974,1,0,0:0:0:0:
64,192,145094,1,2,0:0:0:0:
320,192,145094,1,0,0:0:0:0:
448,192,145094,1,0,0:0:0:0:
192,192,145214,1,0,0:0:0:0:
448,192,145214,1,0,0:0:0:0:
320,192,145334,1,0,0:0:0:0:
64,192,145414,1,0,0:0:0:0:
192,192,145414,1,0,0:0:0:0:
320,192,145494,1,0,0:0:0:0:
448,192,145494,1,0,0:0:0:0:
64,192,145574,1,8,2:0:0:0:
192,192,145574,1,0,0:0:0:0:
320,192,145694,1,8,2:0:0:0:
448,192,145694,1,0,0:0:0:0:
192,192,145814,1,0,0:0:0:40:tom3.wav
320,192,145854,1,0,0:0:0:0:
448,192,145894,1,0,0:0:0:0:
64,192,145934,1,0,0:0:0:40:tom3.wav
192,192,145974,1,0,0:0:0:0:
320,192,146014,1,0,0:0:0:0:
448,192,146054,1,8,0:0:0:0:
