osu file format v14

[General]
AudioFilename: audio.mp3
AudioLeadIn: 0
PreviewTime: 117258
Countdown: 0
SampleSet: Soft
StackLeniency: 0.7
Mode: 3
LetterboxInBreaks: 0
SpecialStyle: 0
WidescreenStoryboard: 1

[Editor]
DistanceSpacing: 2
BeatDivisor: 8
GridSize: 4
TimelineZoom: 1.2

[Metadata]
Title:Goat Fantasia
TitleUnicode:Goat Fantasia
Artist:Memme
ArtistUnicode:Memme
Creator:Tailsdk
Version:Easy
Source:Music & Beat (O2Jam)
Tags:electronic instrumental park jong cheol U O2JamU 박종철 오투잼 - 뮤직 & 게임 dance ParkMemme video game soundtrack Dudehacker drum-hitnormal
BeatmapID:1094099
BeatmapSetID:515178

[Difficulty]
HPDrainRate:6
CircleSize:4
OverallDifficulty:7
ApproachRate:5
SliderMultiplier:1.4
SliderTickRate:1

[Events]
//Background and Video events
0,0,"background.jpg",0,0
//Break Periods
//Storyboard Layer 0 (Background)
//Storyboard Layer 1 (Fail)
//Storyboard Layer 2 (Pass)
//Storyboard Layer 3 (Foreground)
//Storyboard Layer 4 (Overlay)
//Storyboard Sound Samples

[TimingPoints]
134,480,4,2,1,40,1,0
55814,-100,4,2,1,40,0,1
71174,-100,4,2,1,40,0,0
105734,-100,4,2,1,40,0,1
116294,-100,4,2,1,40,0,0
117254,-100,4,2,1,40,0,1
132614,-100,4,2,1,40,0,0

[HitObjects]
64,192,1574,5,0,0:0:0:0:
192,192,1814,1,0,0:0:0:0:
320,192,2054,1,0,0:0:0:40:tom.wav
448,192,2054,1,0,0:0:0:0:
320,192,2534,1,0,0:0:0:0:
192,192,2774,128,0,3014:0:0:0:0:
64,192,3014,1,0,0:0:0:0:
320,192,3254,1,0,0:0:0:0:
448,192,3494,1,0,0:0:0:0:
192,192,3734,128,0,3974:0:0:0:0:
320,192,3974,1,0,0:0:0:0:
64,192,4214,128,0,4934:0:0:0:0:
448,192,4934,1,0,0:0:0:40:hat pedal.wav
320,192,5414,1,0,0:0:0:40:hat pedal.wav
192,192,5654,1,0,0:0:0:40:hat pedal.wav
64,192,5894,1,0,0:0:0:40:hat pedal.wav
320,192,6134,128,0,6374:0:0:0:40:hat pedal.wav
64,192,6374,1,0,0:0:0:40:hat pedal.wav
192,192,6614,128,0,6854:0:0:0:40:hat pedal.wav
448,192,6854,1,0,0:0:0:40:hat pedal.wav
64,192,7094,128,0,7334:0:0:0:40:hat pedal.wav
320,192,7334,1,0,0:0:0:40:hat pedal.wav
192,192,7574,1,0,0:0:0:0:
448,192,7814,128,0,9254:0:0:0:0:
64,192,8774,1,0,0:0:0:40:clap.wav
192,192,9254,1,0,0:0:0:40:slap.wav
448,192,9494,1,0,0:0:0:40:tom3.wav
64,192,9734,1,8,0:0:0:0:
320,192,9734,128,0,10214:0:0:0:0:
192,192,10214,1,8,0:0:0:0:
64,192,10694,1,8,0:0:0:0:
192,192,11174,1,8,0:0:0:0:
320,192,11654,1,8,0:0:0:0:
448,192,12134,1,8,0:0:0:0:
192,192,12374,1,0,0:0:0:0:
320,192,12614,128,8,13094:0:0:0:0:
64,192,13094,128,8,13574:0:0:0:0:
448,192,13574,128,8,14054:0:0:0:0:
192,192,14054,1,8,0:0:0:0:
320,192,14534,1,8,0:0:0:0:
448,192,15014,1,8,0:0:0:0:
320,192,15494,128,8,15974:0:0:0:0:
64,192,15974,128,8,16454:0:0:0:0:
448,192,16454,128,8,16934:0:0:0:0:
320,192,16934,128,8,17414:0:0:0:0:
64,192,17414,128,8,17894:0:0:0:0:
448,192,17894,1,2,0:0:0:0:
320,192,18374,1,8,0:0:0:0:
192,192,18854,1,2,0:0:0:0:
64,192,19334,1,8,0:0:0:0:
448,192,19814,1,2,0:0:0:0:
192,192,20054,1,0,0:0:0:0:
320,192,20294,128,8,20774:0:0:0:0:
64,192,20774,128,2,21254:0:0:0:0:
320,192,21254,128,8,21734:0:0:0:0:
192,192,21734,1,8,0:0:0:0:
64,192,22214,1,8,0:0:0:0:
448,192,22694,1,8,0:0:0:0:
192,192,22934,1,0,0:0:0:40:hat pedal.wav
320,192,23174,128,0,24134:0:0:0:40:hat pedal.wav
64,192,24134,128,0,24614:0:0:0:40:snare.wav
448,192,24134,1,0,0:0:0:0:
192,192,24614,1,8,2:0:0:0:
448,192,24854,1,8,2:0:0:0:
320,192,25094,128,2,25574:0:0:0:0:
192,192,25574,128,2,26054:0:0:0:0:
64,192,26054,128,2,26534:0:0:0:0:
320,192,26534,1,2,0:0:0:0:
192,192,26774,1,0,0:0:0:0:
448,192,27014,128,2,27494:0:0:0:0:
192,192,27494,128,2,27974:0:0:0:0:
320,192,27974,1,2,0:0:0:0:
448,192,28214,128,0,28454:0:0:0:40:bell.wav
192,192,28454,1,2,0:0:0:0:
64,192,28694,128,0,28934:0:0:0:40:bell.wav
448,192,28934,128,2,29414:0:0:0:0:
192,192,29414,128,2,29894:0:0:0:0:
320,192,29894,128,2,30374:0:0:0:0:
64,192,30374,128,2,30854:0:0:0:0:
448,192,30854,128,2,31094:0:0:0:0:
192,192,31094,1,0,0:0:0:40:bell.wav
64,192,31334,128,2,31574:0:0:0:0:
320,192,31574,1,0,0:0:0:40:bell.wav
192,192,31814,128,2,32294:0:0:0:0:
320,192,32294,128,2,32774:0:0:0:0:
448,192,32294,1,0,0:0:0:40:bell.wav
64,192,32774,1,0,0:0:0:40:chime.wav
448,192,33254,1,0,0:0:0:40:chime.wav
192,192,33734,1,0,0:0:0:40:chime.wav
320,192,34214,1,0,0:0:0:40:chime.wav
192,192,34694,1,0,0:0:0:40:chime.wav
64,192,35174,1,0,0:0:0:40:chime.wav
320,192,35654,1,0,0:0:0:40:chime.wav
192,192,35894,128,0,36134:0:0:0:0:
448,192,36134,1,2,0:0:0:0:
320,192,36374,128,0,36614:0:0:0:0:
192,192,36614,128,2,37094:0:0:0:0:
320,192,37094,128,2,37574:0:0:0:0:
64,192,37574,128,2,38054:0:0:0:0:
448,192,38054,128,2,38534:0:0:0:0:
64,192,38534,128,2,38774:0:0:0:0:
320,192,38774,1,0,0:0:0:40:clap.wav
192,192,39014,128,2,39254:0:0:0:0:
64,192,39254,1,0,0:0:0:40:clap.wav
448,192,39494,128,2,39974:0:0:0:0:
320,192,39974,128,2,40454:0:0:0:0:
192,192,40454,1,2,0:0:0:0:
448,192,40934,1,0,0:0:0:40:chime.wav
192,192,41414,1,0,0:0:0:40:chime.wav
320,192,41894,1,0,0:0:0:40:chime.wav
64,192,42374,1,0,0:0:0:40:chime.wav
448,192,42854,1,0,0:0:0:40:chime.wav
192,192,43334,1,0,0:0:0:40:chime.wav
320,192,43814,1,0,0:0:0:40:chime.wav
64,192,44294,1,0,0:0:0:40:chime.wav
192,192,44774,1,0,0:0:0:40:chime.wav
320,192,45254,1,0,0:0:0:40:chime.wav
448,192,45734,1,0,0:0:0:40:chime.wav
320,192,46214,128,0,46694:0:0:0:40:chime.wav
64,192,46694,128,0,47174:0:0:0:40:chime.wav
448,192,47174,128,0,47654:0:0:0:40:chime.wav
192,192,47654,1,2,0:0:0:0:
320,192,47894,1,2,0:0:0:0:
64,192,48134,1,2,0:0:0:0:
192,192,48614,1,0,0:0:0:40:tom2.wav
448,192,49094,1,0,0:0:0:40:tom2.wav
320,192,49574,1,0,0:0:0:40:tom2.wav
192,192,50054,1,0,0:0:0:40:tom2.wav
64,192,50534,1,0,0:0:0:40:tom2.wav
448,192,51014,1,0,0:0:0:40:tom2.wav
320,192,51494,1,0,0:0:0:40:tom2.wav
192,192,51974,128,0,52934:0:0:0:40:tom2.wav
320,192,52454,1,0,0:0:0:40:chime.wav
64,192,52934,1,0,0:0:0:40:tom3.wav
448,192,52934,128,0,53894:0:0:0:40:chime.wav
320,192,53414,1,0,0:0:0:40:tom3.wav
192,192,53894,1,2,0:0:0:0:
448,192,54374,1,2,0:0:0:0:
192,192,54854,1,2,0:0:0:0:
320,192,55334,128,0,55814:0:0:0:40:tom.wav
448,192,55334,1,0,0:0:0:0:
64,192,55814,1,2,0:0:0:0:
192,192,55814,128,0,56294:0:0:0:0:
448,192,56294,1,8,0:0:0:0:
64,192,56534,1,0,0:0:0:0:
320,192,56774,128,2,57254:0:0:0:0:
64,192,57254,1,8,0:0:0:0:
448,192,57494,1,0,0:0:0:0:
192,192,57734,128,2,57974:0:0:0:0:
320,192,58214,128,8,58454:0:0:0:0:
448,192,58694,128,2,59174:0:0:0:0:
64,192,59174,128,8,59654:0:0:0:0:
320,192,59654,128,2,59894:0:0:0:0:
192,192,60134,128,8,60374:0:0:0:0:
448,192,60614,128,2,60854:0:0:0:0:
64,192,61094,128,8,61334:0:0:0:0:
448,192,61574,128,2,62054:0:0:0:0:
320,192,62054,128,8,62534:0:0:0:0:
192,192,62534,128,2,63014:0:0:0:0:
64,192,63014,128,8,63494:0:0:0:0:
448,192,63494,128,2,63974:0:0:0:0:
320,192,63974,1,8,0:0:0:0:
64,192,64454,128,2,64934:0:0:0:0:
192,192,64934,1,8,0:0:0:0:
448,192,65414,128,2,65894:0:0:0:0:
192,192,65894,1,8,0:0:0:0:
64,192,66374,128,2,66854:0:0:0:0:
320,192,66854,1,8,0:0:0:0:
192,192,67094,1,0,0:0:0:0:
448,192,67334,128,2,67574:0:0:0:0:
320,192,67574,1,0,0:0:0:0:
192,192,67814,1,8,0:0:0:0:
448,192,68054,1,0,0:0:0:0:
64,192,68294,128,2,68534:0:0:0:0:
192,192,68534,1,0,0:0:0:0:
320,192,68774,1,8,0:0:0:0:
64,192,69014,1,0,0:0:0:0:
448,192,69254,128,2,69734:0:0:0:0:
192,192,69734,128,8,69974:0:0:0:0:
64,192,69974,128,0,70214:0:0:0:0:
320,192,70214,128,2,70694:0:0:0:0:
64,192,70694,128,0,71174:0:0:0:40:tom.wav
192,192,70694,1,0,0:0:0:0:
448,192,71174,128,2,71654:0:0:0:0:
320,192,71654,1,8,0:0:0:0:
448,192,72134,1,2,0:0:0:0:
320,192,72614,1,8,0:0:0:0:
192,192,73094,1,2,0:0:0:0:
64,192,73574,1,8,0:0:0:0:
192,192,74054,128,2,74534:0:0:0:0:
448,192,74534,128,8,75014:0:0:0:0:
320,192,75014,128,2,75494:0:0:0:0:
192,192,75494,1,8,0:0:0:0:
64,192,75974,1,2,0:0:0:0:
192,192,76454,1,8,0:0:0:0:
448,192,76934,128,2,77414:0:0:0:0:
64,192,77414,128,8,77894:0:0:0:0:
320,192,77894,128,2,78374:0:0:0:0:
192,192,78374,128,8,78854:0:0:0:0:
64,192,78854,128,2,79334:0:0:0:0:
192,192,79334,1,8,0:0:0:0:
320,192,79814,1,2,0:0:0:0:
448,192,80294,1,8,0:0:0:0:
64,192,80774,1,2,0:0:0:0:
192,192,81254,1,8,0:0:0:0:
320,192,81734,128,2,82214:0:0:0:0:
64,192,82214,128,8,82694:0:0:0:0:
320,192,82694,128,2,83174:0:0:0:0:
192,192,83174,1,8,0:0:0:0:
64,192,83654,1,2,0:0:0:0:
448,192,84134,1,8,0:0:0:0:
192,192,84614,128,2,85094:0:0:0:0:
448,192,85094,128,8,85574:0:0:0:0:
64,192,85574,128,2,86534:0:0:0:0:
448,192,86534,1,0,0:0:0:40:cymbal.wav
320,192,87014,1,0,0:0:0:0:
64,192,87254,128,0,87494:0:0:0:0:
320,192,87494,1,0,0:0:0:0:
448,192,87734,1,0,0:0:0:0:
192,192,87974,1,0,0:0:0:0:
320,192,88214,128,0,88454:0:0:0:0:
64,192,88454,1,0,0:0:0:0:
320,192,88694,1,0,0:0:0:0:
192,192,88934,1,0,0:0:0:0:
448,192,89174,1,0,0:0:0:0:
320,192,89414,128,0,89894:0:0:0:0:
192,192,89894,1,0,0:0:0:0:
64,192,90134,1,0,0:0:0:0:
448,192,90374,1,0,0:0:0:0:
192,192,90614,128,0,90854:0:0:0:0:
320,192,90854,1,0,0:0:0:0:
64,192,91094,128,0,91334:0:0:0:0:
448,192,91334,1,0,0:0:0:0:
320,192,91574,128,0,91814:0:0:0:0:
64,192,91814,1,0,0:0:0:0:
448,192,92054,1,0,0:0:0:0:
192,192,92294,128,2,92774:0:0:0:0:
320,192,92774,128,2,93254:0:0:0:0:
192,192,93254,128,2,93734:0:0:0:0:
448,192,93734,1,2,0:0:0:0:
320,192,93974,1,2,0:0:0:0:
64,192,94214,1,0,0:0:0:0:
192,192,94694,1,2,0:0:0:0:
320,192,95174,1,0,0:0:0:0:
64,192,95654,1,2,0:0:0:0:
192,192,96134,1,0,0:0:0:0:
320,192,96614,1,2,0:0:0:0:
192,192,97094,1,0,0:0:0:0:
448,192,97574,1,0,0:0:0:40:tom2.wav
192,192,97814,1,0,0:0:0:0:
64,192,98054,128,2,98294:0:0:0:0:
320,192,98534,128,2,98774:0:0:0:0:
192,192,99014,128,2,99254:0:0:0:0:
448,192,99494,128,2,99734:0:0:0:0:
64,192,99974,128,2,100454:0:0:0:0:
320,192,100454,128,2,100934:0:0:0:0:
192,192,100934,128,2,101414:0:0:0:0:
64,192,101414,128,0,101894:0:0:0:40:tom.wav
448,192,101414,1,0,0:0:0:0:
320,192,101894,128,0,102374:0:0:0:40:cymbal.wav
448,192,102614,1,0,0:0:0:0:
192,192,102854,128,0,103334:0:0:0:0:
64,192,103574,1,0,0:0:0:0:
320,192,103814,128,0,104294:0:0:0:0:
448,192,104534,1,0,0:0:0:0:
192,192,104774,128,0,105254:0:0:0:40:clap.wav
320,192,105254,128,0,105734:0:0:0:0:
64,192,105734,1,2,0:0:0:0:
448,192,105734,128,0,106214:0:0:0:0:
192,192,106214,1,0,0:0:0:40:clap.wav
320,192,106454,1,0,0:0:0:0:
64,192,106694,128,2,107174:0:0:0:0:
448,192,106694,1,0,0:0:0:0:
320,192,107174,1,0,0:0:0:40:clap.wav
192,192,107414,1,0,0:0:0:0:
448,192,107654,128,2,108134:0:0:0:0:
320,192,108134,128,2,108614:0:0:0:0:
192,192,108614,128,2,109094:0:0:0:0:
64,192,109094,128,0,109574:0:0:0:40:tom.wav
320,192,109094,1,0,0:0:0:0:
448,192,109574,128,2,110054:0:0:0:0:
64,192,110054,1,8,0:0:0:0:
320,192,110294,1,0,0:0:0:0:
192,192,110534,128,2,111014:0:0:0:0:
448,192,111014,1,8,0:0:0:0:
64,192,111254,1,0,0:0:0:0:
320,192,111494,128,2,111974:0:0:0:0:
64,192,111974,1,8,0:0:0:0:
448,192,112214,1,0,0:0:0:0:
192,192,112454,128,2,112934:0:0:0:0:
448,192,112934,1,8,0:0:0:0:
64,192,113174,1,0,0:0:0:0:
320,192,113414,128,2,113654:0:0:0:0:
64,192,113654,1,0,0:0:0:0:
192,192,113894,128,8,114134:0:0:0:0:
448,192,114134,1,0,0:0:0:0:
64,192,114374,128,2,114614:0:0:0:0:
320,192,114614,1,0,0:0:0:0:
448,192,114854,128,8,115094:0:0:0:0:
192,192,115094,128,0,115334:0:0:0:0:
320,192,115334,128,2,115814:0:0:0:0:
192,192,115814,128,8,116294:0:0:0:0:
64,192,116294,128,2,116774:0:0:0:0:
320,192,116774,128,0,117254:0:0:0:40:tom.wav
448,192,116774,1,0,0:0:0:0:
64,192,117254,128,2,117734:0:0:0:0:
192,192,117734,1,8,0:0:0:0:
320,192,117974,1,0,0:0:0:0:
448,192,118214,128,2,118694:0:0:0:0:
64,192,118694,1,8,0:0:0:0:
320,192,118934,1,0,0:0:0:0:
192,192,119174,128,2,119414:0:0:0:0:
448,192,119654,128,8,119894:0:0:0:0:
192,192,120134,128,2,120614:0:0:0:0:
320,192,120614,128,8,121094:0:0:0:0:
64,192,121094,128,2,121334:0:0:0:0:
192,192,121574,128,8,121814:0:0:0:0:
320,192,122054,128,2,122294:0:0:0:0:
448,192,122534,128,8,122774:0:0:0:0:
192,192,123014,128,2,123494:0:0:0:0:
320,192,123494,128,8,123974:0:0:0:0:
448,192,123974,128,2,124454:0:0:0:0:
192,192,124454,128,8,124934:0:0:0:0:
320,192,124934,128,2,125414:0:0:0:0:
448,192,125414,1,8,0:0:0:0:
64,192,125654,1,0,0:0:0:0:
192,192,125894,128,2,126374:0:0:0:0:
64,192,126374,1,8,0:0:0:0:
320,192,126614,1,0,0:0:0:0:
448,192,126854,128,2,127334:0:0:0:0:
320,192,127334,1,8,0:0:0:0:
192,192,127574,1,0,0:0:0:0:
64,192,127814,128,2,128294:0:0:0:0:
192,192,128294,1,8,0:0:0:0:
448,192,128534,1,0,0:0:0:0:
320,192,128774,128,2,129014:0:0:0:0:
192,192,129014,1,0,0:0:0:0:
448,192,129254,1,8,0:0:0:0:
320,192,129494,1,0,0:0:0:0:
192,192,129734,128,2,129974:0:0:0:0:
320,192,129974,1,0,0:0:0:0:
64,192,130214,1,8,0:0:0:0:
192,192,130454,1,0,0:0:0:0:
320,192,130694,128,2,131174:0:0:0:0:
192,192,131174,128,8,131414:0:0:0:0:
448,192,131414,128,0,131654:0:0:0:0:
320,192,131654,128,2,132134:0:0:0:0:
64,192,132134,1,0,0:0:0:40:tom.wav
192,192,132134,128,0,132614:0:0:0:0:
320,192,132614,128,2,133094:0:0:0:0:
192,192,133094,1,8,0:0:0:0:
64,192,133574,1,2,0:0:0:0:
192,192,134054,1,8,0:0:0:0:
320,192,134534,1,2,0:0:0:0:
448,192,135014,1,8,0:0:0:0:
192,192,135254,1,0,0:0:0:0:
320,192,135494,128,2,135974:0:0:0:0:
192,192,135974,128,8,136454:0:0:0:0:
320,192,136454,128,2,136934:0:0:0:0:
192,192,136934,1,8,0:0:0:0:
64,192,137414,1,2,0:0:0:0:
192,192,137894,1,8,0:0:0:0:
320,192,138134,1,0,0:0:0:0:
448,192,138374,128,2,138854:0:0:0:0:
64,192,138854,128,8,139334:0:0:0:0:
192,192,139334,128,2,139814:0:0:0:0:
320,192,139814,128,8,140294:0:0:0:0:
448,192,140294,128,2,140774:0:0:0:0:
64,192,140774,1,8,0:0:0:0:
192,192,141254,1,2,0:0:0:0:
320,192,141734,1,8,0:0:0:0:
192,192,142214,1,2,0:0:0:0:
448,192,142694,1,8,0:0:0:0:
64,192,142934,1,0,0:0:0:0:
320,192,143174,128,2,143654:0:0:0:0:
192,192,143654,128,8,144134:0:0:0:0:
64,192,144134,128,2,144614:0:0:0:0:
448,192,144614,1,8,0:0:0:0:
320,192,144854,1,0,0:0:0:0:
64,192,145094,1,2,0:0:0:0:
192,192,145334,1,0,0:0:0:0:
320,192,145574,1,8,2:0:0:0:
448,192,145814,128,0,146054:0:0:0:40:tom3.wav
64,192,146054,1,8,0:0:0:0:
