osu file format v14

[General]
AudioFilename: audio.mp3
AudioLeadIn: 0
PreviewTime: 69513
Countdown: 0
SampleSet: Soft
StackLeniency: 0.3
Mode: 0
LetterboxInBreaks: 0
WidescreenStoryboard: 1

[Editor]
Bookmarks: 154679
DistanceSpacing: 1
BeatDivisor: 2
GridSize: 8
TimelineZoom: 1.800001

[Metadata]
Title:Geurida
TitleUnicode:그리다
Artist:Memme
ArtistUnicode:Memme
Creator:NeilPerry
Version:Sulfur's Normal
Source:O2Jam U
Tags:lee eun jin seiyun korean missing you electronic oriental drumstep sing lowcombofc lcfc sulfur su1fu7
BeatmapID:1466060
BeatmapSetID:688183

[Difficulty]
HPDrainRate:3.5
CircleSize:3.5
OverallDifficulty:5
ApproachRate:5
SliderMultiplier:1
SliderTickRate:1

[Events]
//Background and Video events
0,0,"cherry.png",0,0
//Break Periods
2,86879,92479
2,94879,97479
2,122879,129146
//Storyboard Layer 0 (Background)
//Storyboard Layer 1 (Fail)
//Storyboard Layer 2 (Pass)
//Storyboard Layer 3 (Foreground)
//Storyboard Sound Samples

[TimingPoints]
1680,333.333333333333,3,2,1,70,1,0
18679,-100,3,2,1,30,0,0
33513,-100,3,2,1,70,0,0
42679,-100,3,2,1,70,0,1
46679,-100,3,2,1,70,0,0
102679,-100,3,2,1,70,0,1
108679,-100,3,2,1,70,0,0
110679,-100,3,2,1,70,0,1
114679,-100,3,2,1,70,0,0
130679,-100,3,2,1,70,0,0
138679,-100,3,2,1,70,0,1
154679,-100,3,2,1,70,0,0

[Colours]
Combo1 : 255,187,213
Combo2 : 160,248,103
Combo3 : 128,118,250
Combo4 : 248,179,95
Combo5 : 254,73,146
Combo6 : 186,194,203
Combo7 : 254,232,163
Combo8 : 68,194,255

[HitObjects]
113,187,1679,6,0,B|145:195|177:187|177:187|202:186|233:219|233:219|263:210|313:222,1,200,0|0,0:0|0:0,0:0:0:0:
386,171,2679,2,0,P|399:218|388:266,1,100,2|0,1:1|0:0,0:0:0:0:
362,309,3179,2,0,B|339:322|313:328|313:328|283:328|246:315,1,100,0|0,0:1|0:0,0:0:0:0:
218,308,3679,5,10,0:1:0:0:
59,186,4346,2,0,B|46:162|46:162|43:126,1,50,2|0,0:1|0:0,0:0:0:0:
66,94,4679,2,0,B|94:80|139:79|172:98,1,100,2|0,1:0|0:0,0:0:0:0:
195,132,5179,2,0,B|211:139|240:137|240:137|272:118|310:125,1,100,2|0,0:1|0:0,0:0:0:0:
341,122,5679,5,10,0:1:0:0:
442,294,6346,2,0,P|415:289|374:305,1,50,0|0,0:0|0:0,0:0:0:0:
351,321,6679,2,0,P|297:334|238:323,1,100,2|0,1:0|0:0,0:0:0:0:
205,312,7179,2,0,B|207:280|207:280|202:247|202:247|206:207,1,100,0|0,0:0|0:0,0:0:0:0:
214,163,7679,5,10,1:0:0:0:
159,79,8013,1,0,0:0:0:0:
63,79,8346,1,2,0:1:0:0:
8,163,8679,2,0,B|25:179|9:227|9:227|15:250|37:265|37:265|53:249|65:243,1,150,2|0,1:0|0:0,0:0:0:0:
148,188,9513,1,0,0:0:0:0:
148,188,9679,6,0,L|200:227,1,50,8|0,0:0|0:0,0:0:0:0:
202,266,10013,2,0,L|266:273,1,50,0|0,0:0|0:0,0:0:0:0:
301,277,10346,1,2,1:0:0:0:
382,217,10679,2,0,P|340:184|290:177,1,100,2|0,1:0|0:0,0:0:0:0:
245,185,11179,2,0,B|229:153|229:153|229:136|240:111|237:89,1,100,0|0,0:0|0:0,0:0:0:0:
211,46,11679,5,10,0:1:0:0:
408,40,12346,2,0,L|402:103,1,50,2|0,1:0|0:0,0:0:0:0:
398,139,12679,2,0,B|393:195|393:195|400:242,1,100,2|0,1:0|0:0,0:0:0:0:
417,285,13179,2,0,B|452:280|452:280|479:285,2,50,8|2|0,0:1|1:0|0:0,0:0:0:0:
374,311,13679,6,0,B|363:300|289:296|269:323,1,100,10|0,0:1|1:0,0:0:0:0:
181,302,14346,2,0,P|190:274|208:247,1,50,0|0,1:0|1:0,0:0:0:0:
232,217,14679,2,0,B|128:207|128:207|75:176,1,150,2|2,1:0|1:0,0:0:0:0:
157,111,15513,1,0,1:0:0:0:
157,111,15679,6,0,B|215:98|215:98|244:106|244:106|321:91,1,150,2|2,1:0|1:1,0:0:0:0:
337,57,16345,1,8,0:1:0:0:
437,61,16679,2,0,B|421:109|431:138|431:138|471:157|496:195,1,150,2|8,1:0|0:0,0:0:0:0:
490,226,17346,1,2,1:0:0:0:
414,291,17679,5,8,0:0:0:0:
488,358,18013,1,10,0:1:0:0:
288,363,18679,6,0,P|235:347|173:298,1,100,0|0,1:0|0:0,0:0:0:0:
120,256,19346,2,0,B|72:224|52:183|52:183|72:144|128:112,1,200
218,146,20346,6,0,P|229:194|222:243,1,100
463,47,21679,2,0,P|416:40|347:61,1,100
293,121,22346,1,0,0:0:0:0:
360,192,22679,6,0,L|354:309,1,100,0|0,0:0|0:0,0:0:0:0:
157,291,23679,2,0,L|152:192,1,100,0|0,0:0|0:0,0:0:0:0:
256,24,24679,6,0,P|269:72|257:120,2,100,0|0|0,0:0|0:0|0:0,0:0:0:0:
168,73,25679,2,0,B|140:63|140:63|123:36|102:18|69:12,1,100,0|0,0:0|0:0,0:0:0:0:
53,111,26346,1,0,0:0:0:0:
75,204,26679,6,0,P|159:186|284:211,1,200
218,290,27679,2,0,P|173:300|89:268,1,100
21,275,28346,1,0,0:0:0:0:
58,367,28679,5,0,0:0:0:0:
264,361,29346,1,0,0:0:0:0:
357,324,29679,2,0,P|410:295|443:250,1,100,0|0,0:0|0:0,0:0:0:0:
343,224,30346,1,0,0:0:0:0:
263,284,30679,6,0,P|210:255|178:115,1,200,0|0,0:0|0:0,0:0:0:0:
241,53,31679,2,0,P|197:54|139:21,1,100,0|0,0:0|0:0,0:0:0:0:
352,40,32679,6,0,P|396:39|454:72,1,100,0|0,0:0|0:0,0:0:0:0:
380,199,33513,2,0,L|374:255,1,50,0|0,0:0|1:0,0:0:0:0:
360,296,33846,1,0,1:0:0:0:
360,296,34013,2,0,L|354:352,2,50,0|0|0,1:0|1:0|1:0,0:0:0:0:
269,337,34679,6,0,P|197:326|158:342,1,100,0|0,1:0|0:0,0:0:0:0:
77,366,35346,1,0,0:0:0:0:
95,266,35679,2,0,B|107:234|107:234|99:159,1,100,8|0,0:0|0:0,0:0:0:0:
50,81,36346,1,0,0:0:0:0:
137,30,36679,5,0,1:0:0:0:
188,117,37013,2,0,B|211:114|211:114|260:118|260:118|287:116,1,100,0|0,0:0|0:0,0:0:0:0:
324,208,37679,2,0,P|353:169|401:148,1,100,8|0,0:0|0:0,0:0:0:0:
416,248,38346,1,0,0:0:0:0:
336,307,38679,5,0,1:0:0:0:
244,267,39013,2,0,L|134:257,1,100,0|0,0:0|0:0,0:0:0:0:
87,176,39679,2,0,L|186:167,1,100,8|0,0:0|0:0,0:0:0:0:
336,35,40679,5,0,1:0:0:0:
390,121,41013,2,0,P|341:136|247:82,1,150,0|0,0:0|0:0,0:0:0:0:
220,60,41679,2,0,P|168:49|112:71,2,100,8|0|0,1:0|1:0|1:0,0:0:0:0:
174,150,42679,5,0,1:0:0:0:
220,240,43013,1,0,1:0:0:0:
130,286,43346,1,0,1:0:0:0:
176,376,43679,2,0,B|210:350|210:350|274:350,1,100,8|0,1:0|1:0,0:0:0:0:
367,348,44346,1,0,1:0:0:0:
346,253,44679,6,0,P|391:235|425:174,2,100,0|0|0,1:0|1:0|0:0,0:0:0:0:
246,255,45679,1,8,1:0:0:0:
248,155,46013,2,0,P|265:109|326:75,1,100,0|0,1:0|1:0,0:0:0:0:
396,39,46679,6,0,B|340:39|340:39|301:43|268:71|268:71|222:58|172:71,1,200,0|0,1:0|0:0,0:0:0:0:
104,62,47679,2,0,P|85:118|83:183,1,100,8|0,0:0|0:0,0:0:0:0:
188,327,48679,6,0,P|205:280|210:230,1,100,0|0,1:0|0:0,0:0:0:0:
366,104,49679,1,8,0:0:0:0:
443,167,50013,2,0,L|437:216,1,50,0|0,0:0|1:0,0:0:0:0:
391,234,50346,2,0,L|396:283,1,50,0|0,1:0|1:0,0:0:0:0:
408,332,50679,6,0,P|478:341|520:383,2,100,0|0|0,1:0|0:0|0:0,0:0:0:0:
310,352,51679,1,8,0:0:0:0:
246,274,52013,2,0,B|200:256|200:256|150:270,1,100,2|0,0:1|0:0,0:0:0:0:
69,331,52679,6,0,P|50:275|76:203,2,100,0|0|0,1:0|0:0|0:0,0:0:0:0:
162,371,53679,1,8,0:0:0:0:
255,331,54013,2,0,P|274:275|248:203,1,100,0|0,0:0|1:0,0:0:0:0:
204,158,54679,5,0,1:0:0:0:
286,100,55013,2,0,L|387:92,1,100,0|0,0:0|0:0,0:0:0:0:
434,179,55679,2,0,L|334:186,1,100,8|0,0:0|0:0,0:0:0:0:
234,193,56346,1,0,1:0:0:0:
174,114,56679,6,0,B|151:89|151:89|118:73|63:68,1,100,0|0,1:0|0:0,0:0:0:0:
44,90,57179,2,0,L|48:148,1,50,8|0,0:0|1:0,0:0:0:0:
129,197,57679,2,0,L|125:246,1,50,8|8,0:0|0:0,0:0:0:0:
222,272,58179,2,0,L|225:321,1,50,8|0,1:0|1:0,0:0:0:0:
325,311,58679,6,0,P|386:333|455:327,2,100,0|0|0,1:0|0:0|0:0,0:0:0:0:
302,213,59679,1,8,0:0:0:0:
386,159,60013,2,0,P|428:122|443:38,1,100,2|0,0:1|0:0,0:0:0:0:
344,67,60679,2,0,L|238:57,1,100,0|0,1:0|0:0,0:0:0:0:
146,77,61346,1,0,0:0:0:0:
56,120,61679,6,0,B|44:73|44:73|59:23,2,100,8|2|2,0:0|0:1|0:1,0:0:0:0:
106,206,62679,2,0,P|174:196|283:297,1,200,0|0,1:0|0:0,0:0:0:0:
201,335,63679,2,0,P|142:322|108:297,1,100,8|0,0:0|0:0,0:0:0:0:
27,256,64346,1,0,0:0:0:0:
5,158,64679,6,0,P|7:77|139:79,1,200,0|0,1:0|0:0,0:0:0:0:
191,105,65679,2,0,P|261:123|320:95,1,100,8|0,0:0|0:0,0:0:0:0:
375,70,66346,1,0,1:0:0:0:
451,134,66679,6,0,P|486:208|461:322,1,200,0|0,1:0|0:0,0:0:0:0:
369,282,67679,2,0,P|324:253|241:265,2,100,8|0|0,0:0|0:0|0:0,0:0:0:0:
296,350,68679,1,2,1:1:0:0:
200,320,69013,2,0,P|148:339|50:340,1,150,2|0,0:1|0:0,0:0:0:0:
8,320,69679,5,8,0:0:0:0:
42,225,70013,2,0,L|35:153,1,50,2|2,0:1|0:1,0:0:0:0:
56,128,70346,2,0,L|49:56,1,50,2|2,0:1|0:1,0:0:0:0:
70,31,70679,2,0,P|132:11|198:35,1,100,0|0,1:0|0:0,0:0:0:0:
256,64,71346,1,0,0:0:0:0:
346,16,71679,6,0,P|396:12|442:31,1,100,8|0,0:0|0:0,0:0:0:0:
484,121,72346,1,0,0:0:0:0:
436,208,72679,2,0,B|404:205|404:205|375:222|338:223|338:223|291:200|208:226,1,200,0|0,1:0|0:0,0:0:0:0:
145,245,73679,6,0,P|124:196|127:135,1,100,8|0,0:0|0:0,0:0:0:0:
147,52,74346,1,0,1:0:0:0:
244,75,74679,2,0,B|278:94|312:84|312:84|371:51,1,100,0|0,1:0|0:0,0:0:0:0:
411,1,75346,1,0,0:0:0:0:
479,73,75679,6,0,L|465:189,1,100,8|0,0:0|0:0,0:0:0:0:
375,213,76346,1,0,0:0:0:0:
287,164,76679,2,0,B|263:146|232:141|181:148|181:148|144:120|134:94|135:54,1,200,0|0,1:0|0:0,0:0:0:0:
49,22,77679,6,0,P|50:82|34:126,1,100,8|0,0:0|0:0,0:0:0:0:
2,207,78346,1,2,1:1:0:0:
89,255,78679,2,0,B|155:246|155:246|187:251,2,100,0|0|0,1:0|0:0|0:0,0:0:0:0:
75,354,79679,6,0,B|107:359|107:359|173:350,1,100,8|0,0:0|0:0,0:0:0:0:
269,321,80346,1,0,1:0:0:0:
361,365,80679,2,0,P|366:295|341:249,1,100,0|0,1:0|0:0,0:0:0:0:
312,241,81179,2,0,B|310:192|310:192|333:133,1,100,8|0,0:0|0:0,0:0:0:0:
371,118,81679,5,8,1:0:0:0:
288,48,82013,2,0,B|264:50|264:50|239:44|239:44|151:51,1,100,0|0,1:0|1:0,0:0:0:0:
80,64,82679,2,0,B|98:71|110:94|110:94|115:153|93:220,1,150,0|0,1:0|1:0,0:0:0:0:
97,245,83346,2,0,L|157:260,1,50,8|0,0:0|1:0,0:0:0:0:
187,292,83679,6,0,L|315:276,1,100,0|0,1:0|0:0,0:0:0:0:
326,316,84179,2,0,L|386:301,1,50,0|8,1:0|0:0,0:0:0:0:
429,208,84679,2,0,P|432:149|404:88,1,100,0|0,1:0|0:0,0:0:0:0:
368,88,85179,2,0,L|301:86,1,50,8|0,0:0|1:0,0:0:0:0:
207,84,85679,5,8,0:0:0:0:
100,102,86013,2,0,B|49:116|38:171|38:171|74:201|79:237|77:268,1,200,8|0,0:0|1:0,0:0:0:0:
256,192,93679,5,0,0:0:0:0:
144,176,94013,2,0,B|156:129|156:129|203:109|203:109|224:31,1,150,0|0,1:0|1:0,0:0:0:0:
232,8,94679,1,0,1:0:0:0:
404,159,98679,5,0,1:0:0:0:
324,231,99013,2,0,L|268:223,1,50,0|0,1:0|1:0,0:0:0:0:
236,183,99346,2,0,L|186:190,1,50,0|0,1:0|1:0,0:0:0:0:
131,192,99679,2,0,P|117:255|130:301,1,100,0|0,1:0|1:0,0:0:0:0:
217,347,100346,1,0,1:0:0:0:
324,369,100679,6,0,P|374:371|442:367,1,100,0|0,1:0|0:0,0:0:0:0:
501,290,101346,1,0,1:0:0:0:
423,211,101679,2,0,P|373:208|324:211,1,100,8|2,0:0|1:0,0:0:0:0:
247,290,102346,1,8,0:1:0:0:
168,213,102679,6,0,B|155:173|155:173|175:99,1,100,2|0,1:0|0:0,0:0:0:0:
196,68,103179,2,0,L|134:48,2,50,0|2|0,0:0|0:1|0:1,0:0:0:0:
244,92,103679,2,0,B|276:93|333:103|320:134,2,100,8|0|2,0:1|0:0|1:1,0:0:0:0:
254,191,104679,6,0,B|240:228|240:228|243:267|243:267|234:299,1,100,0|0,1:0|0:1,0:0:0:0:
143,323,105346,2,0,L|77:323,1,50,2|0,0:1|0:0,0:0:0:0:
43,323,105679,1,10,0:1:0:0:
2,231,106013,2,0,B|-9:183|-9:183|10:108,1,100,0|0,0:0|0:0,0:0:0:0:
86,78,106679,5,2,1:0:0:0:
175,122,107013,1,0,0:0:0:0:
173,171,107179,2,0,L|239:165,2,50,0|2|0,0:0|0:1|0:0,0:0:0:0:
123,180,107679,1,10,0:1:0:0:
56,256,108013,2,0,B|84:267|84:303|125:286|170:278,1,100,2|2,0:1|0:1,0:0:0:0:
245,255,108679,6,0,P|314:235|392:263,1,150,2|8,1:0|0:0,0:0:0:0:
382,308,109346,1,2,1:0:0:0:
482,339,109679,1,8,0:0:0:0:
482,339,109846,2,0,L|489:181,1,150,8|10,0:0|0:1,0:0:0:0:
432,106,110679,6,0,B|383:98|383:98|321:66,1,100,2|0,1:0|0:0,0:0:0:0:
298,44,111179,2,0,L|335:4,2,50,0|2|0,0:0|0:1|0:0,0:0:0:0:
253,66,111679,2,0,L|149:60,2,100,10|0|2,0:1|0:0|1:1,0:0:0:0:
241,165,112679,6,0,P|209:228|156:259,1,100,0|0,1:1|0:0,0:0:0:0:
94,284,113346,2,0,L|108:355,1,50,2|0,0:1|0:0,0:0:0:0:
113,382,113679,1,10,0:1:0:0:
196,327,114013,2,0,P|243:313|292:320,1,100,2|2,0:1|1:1,0:0:0:0:
388,350,114679,6,0,B|396:224|447:289|454:144,1,200,0|8,1:0|0:0,0:0:0:0:
398,81,115679,2,0,P|334:64|187:60,1,200,0|8,1:1|0:0,0:0:0:0:
242,149,116679,6,0,P|155:198|59:227,1,200,0|8,1:1|0:0,0:0:0:0:
34,324,117679,2,0,L|255:317,1,200,0|0,1:1|1:0,0:0:0:0:
333,326,118679,6,0,P|400:317|319:192,1,300,0|8,1:1|0:0,0:0:0:0:
124,241,120346,1,0,1:0:0:0:
66,158,120679,6,0,B|46:129|46:129|71:68|159:69,1,150,0|8,1:0|0:0,0:0:0:0:
176,100,121346,2,0,L|249:106,1,50,0|0,1:0|1:0,0:0:0:0:
271,124,121679,2,0,P|317:97|391:102,1,100,0|0,1:0|1:0,0:0:0:0:
393,189,122346,2,0,P|347:216|273:211,1,100,0|0,1:0|1:0,0:0:0:0:
394,281,130346,5,0,1:1:0:0:
375,182,130679,2,0,P|319:121|188:130,1,200,0|0,1:0|0:0,0:0:0:0:
124,175,131679,2,0,L|134:318,2,100,8|0|0,0:0|0:0|0:0,0:0:0:0:
117,75,132679,6,0,L|-26:85,2,100,0|0|0,1:0|0:0|0:0,0:0:0:0:
216,68,133679,2,0,P|280:87|315:146,1,100,8|0,0:0|0:0,0:0:0:0:
309,210,134346,1,0,0:0:0:0:
263,298,134679,6,0,P|190:315|120:293,1,150,0|0,1:0|0:0,0:0:0:0:
122,143,135679,2,0,P|195:126|265:148,1,150,8|0,0:0|0:0,0:0:0:0:
353,271,136679,6,0,P|390:321|465:338,1,100,0|8,1:0|0:0,0:0:0:0:
448,238,137346,1,0,1:0:0:0:
467,140,137679,2,0,P|405:147|352:203,1,100,2|0,0:1|1:0,0:0:0:0:
275,200,138346,1,0,1:0:0:0:
215,119,138679,6,0,P|127:95|8:129,1,200,0|0,1:0|0:0,0:0:0:0:
8,218,139679,1,8,0:0:0:0:
73,293,140013,2,0,P|122:284|195:304,1,100,0|0,0:0|0:0,0:0:0:0:
259,339,140679,6,0,B|279:310|282:246|282:246|265:229|291:140,1,200,0|0,1:0|0:0,0:0:0:0:
273,47,141679,2,0,P|347:43|398:53,1,100,8|0,0:0|0:0,0:0:0:0:
448,112,142346,1,0,1:0:0:0:
419,207,142679,6,0,L|441:347,2,100,0|0|0,1:0|0:0|0:0,0:0:0:0:
324,178,143679,2,0,P|274:182|224:177,1,100,8|0,0:0|0:0,0:0:0:0:
137,127,144346,1,0,0:0:0:0:
47,171,144679,6,0,B|7:260|7:260|45:372,1,200,0|0,1:0|0:0,0:0:0:0:
138,341,145679,2,0,L|265:323,1,100,8|0,0:0|0:0,0:0:0:0:
336,340,146346,1,0,1:0:0:0:
350,241,146679,6,0,P|341:181|362:128,1,100,0|0,1:0|0:0,0:0:0:0:
422,72,147346,1,0,0:0:0:0:
324,48,147679,2,0,L|197:41,1,100,8|0,0:0|0:0,0:0:0:0:
234,142,148346,1,0,0:0:0:0:
136,118,148679,6,0,L|9:111,2,100,0|0|0,1:0|0:0|0:0,0:0:0:0:
112,216,149679,2,0,P|157:241|168:310,1,100,8|0,0:0|1:0,0:0:0:0:
185,378,150346,1,0,1:0:0:0:
260,321,150679,6,0,L|448:295,1,150,0|0,1:0|1:0,0:0:0:0:
458,292,151346,2,0,L|482:236,1,50,8|0,0:0|1:0,0:0:0:0:
467,196,151679,2,0,P|425:143|422:75,1,100,0|0,1:0|0:0,0:0:0:0:
416,62,152179,2,0,L|360:38,1,50,0|8,1:0|0:0,0:0:0:0:
286,97,152679,6,0,P|212:134|126:129,1,150,0|8,1:0|0:0,0:0:0:0:
96,127,153346,1,0,1:0:0:0:
97,226,153679,1,8,0:0:0:0:
153,308,154013,2,0,P|213:301|337:358,1,200,8|0,0:0|1:0,0:0:0:0:
