osu file format v14

[General]
AudioFilename: audio.mp3
AudioLeadIn: 0
PreviewTime: 69513
Countdown: 0
SampleSet: Soft
StackLeniency: 0.3
Mode: 0
LetterboxInBreaks: 0
WidescreenStoryboard: 0

[Editor]
Bookmarks: 44346
DistanceSpacing: 0.5
BeatDivisor: 4
GridSize: 32
TimelineZoom: 3.799999

[Metadata]
Title:Geurida
TitleUnicode:그리다
Artist:Memme
ArtistUnicode:Memme
Creator:NeilPerry
Version:Sing's Extra
Source:O2Jam U
Tags:lee eun jin seiyun korean missing you electronic oriental drumstep sing lowcombofc lcfc sulfur su1fu7
BeatmapID:1456418
BeatmapSetID:688183

[Difficulty]
HPDrainRate:6.2
CircleSize:4
OverallDifficulty:8.8
ApproachRate:9.4
SliderMultiplier:1.9
SliderTickRate:1

[Events]
//Background and Video events
0,0,"cherry.png",0,0
//Break Periods
2,86879,90139
2,122879,128139
//Storyboard Layer 0 (Background)
//Storyboard Layer 1 (Fail)
//Storyboard Layer 2 (Pass)
//Storyboard Layer 3 (Foreground)
//Storyboard Sound Samples

[TimingPoints]
1680,333.333333333333,3,2,1,70,1,0
1680,-125,3,2,1,70,0,0
10346,-100,3,2,1,70,0,0
10679,-111.111111111111,3,2,1,70,0,0
13346,-90.9090909090909,3,2,1,70,0,0
13679,-100,3,2,1,70,0,0
18013,-125,3,2,1,70,0,0
18679,-166.666666666667,3,2,1,70,0,0
19013,-166.666666666667,3,2,1,40,0,0
33679,-166.666666666667,3,2,1,70,0,0
34679,-142.857142857143,3,2,1,70,0,0
42679,-83.3333333333333,3,2,1,70,0,1
46679,-166.666666666667,3,2,1,70,0,0
48846,-125,3,2,1,70,0,0
49346,-100,3,2,1,70,0,0
49679,-125,3,2,1,70,0,0
50346,-100,3,2,1,70,0,0
56679,-125,3,2,1,70,0,0
60013,-100,3,2,1,70,0,0
62013,-83.3333333333333,3,2,1,70,0,0
62679,-90.9090909090909,3,2,1,70,0,0
63346,-125,3,2,1,70,0,0
63679,-90.9090909090909,3,2,1,70,0,0
64346,-125,3,2,1,70,0,0
64679,-90.9090909090909,3,2,1,70,0,0
65346,-125,3,2,1,70,0,0
65679,-90.9090909090909,3,2,1,70,0,0
66346,-125,3,2,1,70,0,0
66679,-90.9090909090909,3,2,1,70,0,0
68679,-90.9090909090909,3,2,1,70,0,0
68721,-90.9090909090909,3,2,1,5,0,0
69013,-90.9090909090909,3,2,1,20,0,0
69179,-90.9090909090909,3,2,1,40,0,0
69263,-90.9090909090909,3,2,1,60,0,0
69346,-90.9090909090909,3,2,1,70,0,0
69679,-125,3,2,1,70,0,0
70013,-62.5,3,2,1,70,0,0
70346,-100,3,2,1,70,0,0
70679,-125,3,2,1,70,0,0
78346,-100,3,2,1,70,0,0
78679,-125,3,2,1,70,0,0
86013,-166.666666666667,3,2,1,70,0,0
93679,-100,3,2,1,70,0,0
94679,-200,3,2,1,70,0,0
96846,-125,3,2,1,70,0,0
98679,-100,3,2,1,70,0,0
100679,-83.3333333333333,3,2,1,70,0,0
102013,-100,3,2,1,70,0,0
102346,-66.6666666666667,3,2,1,70,0,0
102679,-83.3333333333333,3,2,1,70,0,1
103346,-66.6666666666667,3,2,1,70,0,1
103679,-76.9230769230769,3,2,1,70,0,1
104346,-66.6666666666667,3,2,1,70,0,1
105679,-76.9230769230769,3,2,1,70,0,1
106679,-83.3333333333333,3,2,1,70,0,1
107346,-66.6666666666667,3,2,1,70,0,1
107679,-76.9230769230769,3,2,1,70,0,1
108013,-58.8235294117647,3,2,1,70,0,1
108346,-66.6666666666667,3,2,1,70,0,1
108679,-76.9230769230769,3,2,1,70,0,0
110013,-90.9090909090909,3,2,1,70,0,0
110346,-62.5,3,2,1,70,0,0
110679,-76.9230769230769,3,2,1,70,0,1
111346,-62.5,3,2,1,70,0,1
111679,-71.4285714285714,3,2,1,70,0,1
112346,-62.5,3,2,1,70,0,1
112679,-58.8235294117647,3,2,1,70,0,1
113346,-62.5,3,2,1,70,0,1
113679,-71.4285714285714,3,2,1,70,0,1
114346,-62.5,3,2,1,70,0,1
114679,-125,3,2,1,70,0,0
118679,-166.666666666667,3,2,1,70,0,0
120679,-125,3,2,1,70,0,0
130679,-100,3,2,1,70,0,0
137679,-83.3333333333333,3,2,1,70,0,0
138679,-90.9090909090909,3,2,1,70,0,1
146679,-83.3333333333333,3,2,1,70,0,1
150679,-90.9090909090909,3,2,1,70,0,1
151679,-100,3,2,1,70,0,1
152679,-111.111111111111,3,2,1,70,0,1
153679,-125,3,2,1,70,0,1
154679,-125,3,2,1,70,0,0

[Colours]
Combo1 : 255,187,213
Combo2 : 160,248,103
Combo3 : 128,118,250
Combo4 : 248,179,95
Combo5 : 254,73,146
Combo6 : 186,194,203
Combo7 : 254,232,163
Combo8 : 68,194,255

[HitObjects]
254,291,1679,6,0,L|250:232,1,47.5,0|0,1:0|0:0,0:0:0:0:
280,149,1846,1,0,1:0:0:0:
280,149,1929,1,0,1:0:0:0:
280,149,2013,2,0,P|215:163|196:164,1,76,0|0,1:0|1:0,0:0:0:0:
131,126,2346,5,0,1:0:0:0:
332,222,2513,1,0,1:0:0:0:
102,322,2679,6,2,B|212:298|198:374|323:344,1,228,2|0,1:1|0:1,0:1:0:0:
323,343,3263,1,0,0:0:0:0:
323,343,3346,1,0,0:0:0:0:
371,132,3513,1,0,0:0:0:0:
136,212,3679,6,2,P|126:131|112:55,1,152,10|0,0:1|0:1,0:1:0:0:
20,40,4179,1,0,0:0:0:0:
213,148,4346,6,2,P|250:143|287:133,1,76,2|0,0:1|0:0,0:1:0:0:
149,238,4679,2,2,P|75:222|-6:215,1,152,2|0,1:0|0:0,0:1:0:0:
50,383,5179,6,2,L|63:290,1,76,2|0,0:1|0:0,0:1:0:0:
77,191,5513,1,0,0:0:0:0:
287,133,5679,6,2,B|224:97|224:97|268:269,1,228,10|0,0:1|0:0,0:1:0:0:
224,327,6346,1,0,0:0:0:0:
344,207,6513,1,0,0:0:0:0:
479,328,6679,6,2,B|542:364|542:364|503:213,1,228,2|0,1:0|0:0,0:1:0:0:
504,214,7263,1,0,0:0:0:0:
504,214,7346,1,0,0:0:0:0:
339,301,7513,1,0,0:0:0:0:
414,151,7679,6,2,P|421:75|429:0,1,152,10|0,1:0|0:0,0:1:0:0:
512,78,8179,1,0,0:0:0:0:
325,27,8346,2,2,P|332:85|336:120,1,76,2|0,0:1|0:0,0:1:0:0:
224,327,8679,6,2,P|215:251|208:175,1,152,2|0,1:0|0:0,0:1:0:0:
193,164,9096,1,0,0:0:0:0:
175,156,9179,1,0,0:0:0:0:
157,152,9263,1,0,0:0:0:0:
138,151,9346,1,0,0:0:0:0:
119,154,9429,1,0,0:0:0:0:
101,160,9513,1,0,0:0:0:0:
85,170,9596,1,0,0:0:0:0:
71,182,9679,5,8,0:0:0:0:
316,256,9846,1,0,0:0:0:0:
232,70,10013,5,0,0:0:0:0:
130,295,10179,1,0,0:0:0:0:
0,82,10346,6,2,P|72:77|155:65,1,142.5,2|0,1:0|0:0,0:1:0:0:
247,54,10679,6,2,L|236:150,2,85.4999973907472,2|0|0,1:0|0:0|0:0,0:1:0:0:
335,193,11179,1,0,0:0:0:0:
335,193,11263,1,0,0:0:0:0:
335,193,11346,1,0,0:0:0:0:
145,91,11513,1,0,0:0:0:0:
352,23,11679,6,2,L|335:203,1,170.999994781494,10|0,0:1|0:0,0:1:0:0:
230,239,12179,1,0,0:0:0:0:
439,154,12346,2,2,L|448:69,1,85.4999973907472,2|0,1:0|0:0,0:1:0:0:
215,339,12679,6,2,B|349:314|326:397|469:364,1,256.499992172241,2|8,1:0|0:1,0:1:0:0:
420,235,13346,6,2,P|395:233|424:238,1,156.750004783631,2|0,1:0|0:0,0:1:0:0:
306,190,13679,6,2,P|288:252|300:314,1,95,10|0,0:1|0:0,0:1:0:0:
337,367,14013,1,0,1:0:0:0:
210,226,14179,1,0,1:0:0:0:
210,226,14263,1,0,1:0:0:0:
210,226,14346,1,0,1:0:0:0:
378,129,14513,1,0,1:0:0:0:
98,197,14679,6,2,P|115:285|126:391,1,190,2|0,1:0|0:0,0:1:0:0:
16,243,15179,2,2,P|26:314|31:362,1,95,2|8,1:0|0:0,0:1:0:0:
210,226,15513,1,0,1:0:0:0:
430,46,15679,6,2,P|413:134|402:240,1,190,2|0,1:0|0:0,0:1:0:0:
512,92,16179,2,2,P|502:163|497:211,1,95,2|8,1:1|0:1,0:1:0:0:
318,75,16513,1,0,0:0:0:0:
125,201,16679,6,2,B|257:174|234:265|405:233,1,285,2|8,1:0|0:0,0:1:0:0:
410,239,17263,1,0,0:0:0:0:
410,239,17346,2,2,P|394:302|390:346,1,95,2|0,1:0|0:0,0:1:0:0:
230,352,17679,5,8,0:0:0:0:
237,138,18013,2,2,P|247:71|215:150,1,304,10|0,0:1|1:0,0:1:0:0:
125,201,19013,6,0,L|119:341,1,113.999996520996
230,352,19679,2,0,L|224:212,2,113.999996520996
32,249,20679,1,0,0:0:0:0:
399,30,21679,6,0,P|394:84|388:147,2,113.999996520996
500,211,22679,2,0,P|495:157|489:94,1,113.999996520996
489,97,23679,6,0,P|448:121|299:40,1,227.999993041992
331,199,24513,1,0,0:0:0:0:
133,116,24679,6,0,P|196:119|266:132,1,113.999996520996
324,255,25179,2,0,P|328:219|334:173,1,56.9999982604981
233,224,25513,1,0,0:0:0:0:
122,137,25679,6,0,P|136:221|150:306,1,170.999994781494
53,270,26346,2,0,P|49:241|46:213,1,56.9999982604981
133,23,26679,6,0,L|121:148,2,113.999996520996
246,127,27679,2,0,L|234:2,2,113.999996520996
41,44,28679,1,0,0:0:0:0:
150,306,29346,5,0,0:0:0:0:
150,306,29679,2,0,L|25:288,2,113.999996520996
253,376,30679,6,0,L|232:184,1,170.999994781494
341,229,31346,2,0,L|336:304,1,56.9999982604981
482,76,31679,6,0,P|435:34|328:36,1,170.999994781494
305,121,32346,2,0,P|349:123|374:114,1,56.9999982604981
131,207,32679,6,0,P|137:122|139:35,1,170.999994781494
38,74,33346,2,0,P|47:121|48:151,1,56.9999982604981
135,320,33679,5,0,1:0:0:0:
232,167,33846,1,0,1:0:0:0:
232,167,33929,1,0,1:0:0:0:
232,167,34013,1,0,1:0:0:0:
27,273,34179,1,0,1:0:0:0:
241,286,34346,5,0,1:0:0:0:
49,154,34513,1,0,1:0:0:0:
235,58,34679,6,0,B|336:37|314:114|439:82,1,199.499993911743,0|0,1:0|0:0,0:0:0:0:
278,205,35346,2,0,L|269:125,1,66.4999979705811
386,179,35679,6,0,P|373:257|358:323,2,132.999995941162,8|0|0,0:0|0:0|0:0,0:0:0:0:
458,264,36513,1,0,0:0:0:0:
278,205,36679,6,0,B|205:218|205:218|166:248|166:248|89:259,1,199.499993911743,0|0,1:0|0:0,0:0:0:0:
228,371,37346,2,0,L|237:291,1,66.4999979705811
75,126,37679,6,0,L|91:270,2,132.999995941162,8|0|0,0:0|0:0|0:0,0:0:0:0:
0,209,38513,1,0,0:0:0:0:
199,68,38679,6,0,L|184:200,1,132.999995941162,0|0,1:0|0:0,0:0:0:0:
346,126,39179,2,0,P|313:133|276:138,1,66.4999979705811
113,44,39513,1,0,0:0:0:0:
267,237,39679,6,0,P|330:240|416:248,1,132.999995941162,8|0,0:0|0:0,0:0:0:0:
481,176,40179,1,0,0:0:0:0:
353,345,40346,2,0,P|320:338|283:333,1,66.4999979705811
179,245,40679,6,0,P|175:311|173:378,1,132.999995941162,0|0,1:0|0:0,0:0:0:0:
89,258,41179,2,0,P|94:221|101:177,1,66.4999979705811
272,314,41513,1,0,0:0:0:0:
84,353,41679,5,8,1:0:0:0:
284,217,41846,1,0,1:0:0:0:
284,217,41929,1,0,1:0:0:0:
284,217,42013,1,0,1:0:0:0:
80,107,42179,5,0,1:0:0:0:
80,107,42263,1,0,1:0:0:0:
80,107,42346,1,0,1:0:0:0:
292,44,42513,1,0,1:0:0:0:
179,245,42680,1,0,1:0:0:0:
172,14,42846,5,0,1:0:0:0:
172,14,42929,1,0,1:0:0:0:
172,14,43013,2,0,L|180:99,1,56.9999982604981,0|0,1:0|0:0,0:0:0:0:
260,196,43179,2,0,L|268:111,1,56.9999982604981,0|0,1:0|0:0,0:0:0:0:
310,55,43346,1,0,1:0:0:0:
97,123,43513,1,0,1:0:0:0:
355,243,43679,1,8,1:0:0:0:
132,322,43846,6,0,L|135:360,2,28.4999991302491,0|0|0,1:0|0:0|0:0,0:0:0:0:
128,295,44013,1,0,1:0:0:0:
265,139,44179,1,0,1:0:0:0:
265,139,44263,1,0,1:0:0:0:
265,139,44346,2,0,L|257:224,1,56.9999982604981,0|0,1:0|0:0,0:0:0:0:
311,371,44513,2,0,L|305:314,1,56.9999982604981,0|0,1:0|0:0,0:0:0:0:
81,220,44679,5,0,1:0:0:0:
386,130,44846,1,0,1:0:0:0:
386,130,44929,1,0,1:0:0:0:
386,130,45013,1,0,1:0:0:0:
311,371,45179,6,0,L|279:369,2,28.4999991302491,0|0|0,1:0|0:0|0:0,0:0:0:0:
406,325,45346,2,0,L|434:323,2,28.4999991302491,0|0|0,1:0|0:0|0:0,0:0:0:0:
317,266,45513,1,0,1:0:0:0:
406,32,45679,5,8,1:0:0:0:
509,224,45846,2,0,L|506:262,2,28.4999991302491,0|0|0,1:0|0:0|0:0,0:0:0:0:
511,196,46013,1,0,1:0:0:0:
239,135,46179,1,0,1:0:0:0:
512,56,46346,5,0,1:0:0:0:
331,252,46513,1,0,1:0:0:0:
331,252,46596,1,0,1:0:0:0:
331,252,46679,6,0,B|276:244|234:212|234:212|194:297|194:297|128:279|128:279|102:296|58:300,2,341.999989562989,0|8|0,1:0|0:0|1:0,0:0:0:0:
451,357,48846,6,0,P|439:283|431:189,1,152
431,200,49263,1,0,0:0:0:0:
431,194,49346,2,0,L|505:205,1,47.5
363,336,49513,2,0,L|289:346,1,47.5
88,294,49679,6,0,P|100:220|108:126,1,152,8|0,0:0|0:0,0:0:0:0:
184,248,50179,1,0,1:0:0:0:
184,248,50263,1,0,1:0:0:0:
184,248,50346,2,0,P|189:223|192:195,1,47.5,0|0,1:0|0:0,0:0:0:0:
15,227,50513,2,0,P|20:202|23:174,1,47.5,0|0,1:0|0:0,0:0:0:0:
101,30,50679,5,0,1:0:0:0:
315,342,51013,5,0,0:0:0:0:
331,252,51179,1,0,0:0:0:0:
400,310,51346,1,0,0:0:0:0:
88,294,51679,5,8,0:0:0:0:
321,38,52013,6,2,P|325:92|329:156,1,95,2|0,0:1|0:0,0:1:0:0:
327,132,52263,1,0,0:0:0:0:
327,132,52346,1,0,0:0:0:0:
412,69,52513,1,0,0:0:0:0:
32,91,52679,5,0,1:0:0:0:
431,206,53013,5,0,0:0:0:0:
325,231,53179,1,0,0:0:0:0:
400,310,53346,1,0,0:0:0:0:
234,7,53679,5,8,0:0:0:0:
89,301,54013,5,0,0:0:0:0:
65,296,54096,1,0,0:0:0:0:
85,284,54179,1,0,0:0:0:0:
61,279,54262,1,0,0:0:0:0:
81,266,54346,1,0,1:0:0:0:
32,91,54513,1,0,0:0:0:0:
191,201,54679,5,0,1:0:0:0:
0,358,54846,1,0,0:0:0:0:
0,195,55013,5,0,0:0:0:0:
215,341,55179,1,0,0:0:0:0:
0,195,55346,1,0,0:0:0:0:
334,49,55679,5,8,0:0:0:0:
471,301,56013,5,0,0:0:0:0:
475,284,56097,1,0,0:0:0:0:
495,296,56180,1,0,0:0:0:0:
499,279,56263,1,0,0:0:0:0:
479,266,56347,1,0,1:0:0:0:
512,132,56513,1,0,0:0:0:0:
315,218,56679,6,0,B|199:203|219:285|81:262,1,228,0|8,1:0|0:0,0:0:0:0:
272,383,57346,2,0,L|276:301,1,76,0|0,1:0|0:0,0:0:0:0:
117,180,57679,5,8,0:0:0:0:
362,298,57846,1,8,0:0:0:0:
173,333,58013,6,0,L|177:272,1,38,0|0,1:0|1:0,1:0:0:0:
240,144,58179,2,0,L|244:205,1,38,8|0,1:0|1:0,1:0:0:0:
275,307,58346,5,0,1:0:0:0:
152,86,58513,1,0,0:0:0:0:
441,201,58679,5,0,1:0:0:0:
66,191,59013,5,0,0:0:0:0:
80,265,59179,1,0,0:0:0:0:
94,340,59346,1,0,0:0:0:0:
182,0,59679,5,8,0:0:0:0:
466,317,60013,6,2,B|419:324|419:324|372:304,1,95,2|0,0:1|0:0,0:1:0:0:
285,240,60263,1,0,0:0:0:0:
285,240,60346,2,0,L|306:400,1,142.5,2|0,0:1|0:0,0:1:0:0:
367,149,60679,5,0,1:0:0:0:
72,361,61013,5,0,0:0:0:0:
56,277,61180,1,0,0:0:0:0:
40,195,61346,1,0,0:0:0:0:
375,305,61679,5,8,0:0:0:0:
105,9,62013,6,2,B|122:66|122:66|102:146,1,113.999996520996,2|0,0:1|0:0,0:1:0:0:
93,124,62263,1,0,0:0:0:0:
93,124,62346,2,2,L|27:114,1,56.9999982604981,2|0,0:1|0:0,0:1:0:0:
194,26,62513,2,2,L|260:15,1,56.9999982604981,2|0,0:1|0:0,0:1:0:0:
481,125,62679,6,0,B|377:107|388:179|265:154,1,209.000006378174,0|0,1:0|0:0,0:0:0:0:
438,211,63179,1,0,0:0:0:0:
331,0,63346,2,0,L|325:82,1,76
178,260,63679,6,0,B|191:105|191:105|162:130|126:148,1,209.000006378174,8|0,0:0|0:0,0:0:0:0:
65,190,64179,1,0,0:0:0:0:
273,232,64346,2,0,L|278:156,1,76
28,293,64679,6,0,B|104:304|104:304|141:337|141:337|240:351,1,209.000006378174,0|0,1:0|0:0,0:0:0:0:
64,382,65179,1,0,0:0:0:0:
172,184,65346,2,0,L|177:259,1,76
345,300,65679,6,0,B|402:238|501:243|501:243|493:258|476:295,1,209.000006378174,8|0,0:0|0:0,0:0:0:0:
424,358,66179,1,0,0:0:0:0:
273,232,66346,2,0,L|278:156,1,76,0|0,1:0|0:0,0:0:0:0:
177,59,66679,6,0,B|285:31|266:107|393:71,1,209.000006378174,0|0,1:0|0:0,0:0:0:0:
278,156,67179,1,0,0:0:0:0:
320,0,67346,1,0,0:0:0:0:
278,156,67513,1,0,0:0:0:0:
97,189,67679,6,0,B|83:44|83:44|63:73|41:95,1,209.000006378174,8|0,0:0|0:0,0:0:0:0:
5,174,68179,1,0,0:0:0:0:
181,103,68346,1,0,0:0:0:0:
0,17,68513,1,0,0:0:0:0:
247,294,68679,6,2,L|247:326,16,26.1250007972718,2|2|2|2|2|2|2|2|2|2|2|2|2|2|2|2|0,1:1|0:1|0:1|0:1|0:1|0:1|0:1|0:1|0:1|0:1|0:1|0:1|0:1|0:1|0:1|0:1|0:1,0:1:0:0:
263,204,69513,2,0,L|204:204,1,52.2500015945435
137,249,69679,6,0,P|151:293|157:371,1,114,8|0,0:0|0:0,0:0:0:0:
157,360,70013,6,0,B|129:360|129:360|113:366|113:366|72:365,1,76,2|0,0:1|0:0,0:0:0:0:
340,268,70179,2,0,B|370:267|370:267|386:273|386:273|414:273,1,76,2|0,0:1|0:0,0:0:0:0:
291,175,70346,6,2,L|293:140,6,23.75,2|2|2|2|2|2|0,0:1|0:1|0:1|0:1|0:1|0:1|0:1,0:1:0:0:
223,197,70679,6,0,B|302:204|302:204|351:237|351:237|463:248,1,228,0|0,1:0|0:0,0:0:0:0:
441,246,71346,1,0,0:0:0:0:
138,15,71679,6,0,P|133:70|123:178,2,152,8|0|0,0:0|0:0|0:0,0:0:0:0:
25,319,72679,6,0,P|78:311|169:384,1,152,0|0,1:0|0:0,0:0:0:0:
124,166,73179,2,0,L|106:298,1,114
108,278,73513,2,0,L|161:269,1,38
345,352,73679,6,0,B|359:300|338:226|338:226|329:238|310:260,1,152,8|0,0:0|0:0,0:0:0:0:
263,313,74179,1,0,0:0:0:0:
432,269,74346,1,0,1:0:0:0:
263,313,74513,1,0,0:0:0:0:
402,173,74679,6,0,P|397:118|387:10,2,152,0|0|0,1:0|0:0|0:0,0:0:0:0:
189,93,75679,2,0,P|261:71|334:88,2,152,8|0|0,0:0|0:0|0:0,0:0:0:0:
13,241,76679,6,0,P|86:258|159:237,1,152,0|0,1:0|0:0,0:0:0:0:
247,195,77179,2,0,L|231:328,1,114
233,308,77513,2,0,L|283:300,1,38
338,375,77679,5,8,0:0:0:0:
142,264,77846,1,0,0:0:0:0:
329,186,78013,1,0,0:0:0:0:
168,92,78179,6,2,L|174:151,1,38,2|0,0:1|0:1,0:1:0:0:
327,283,78346,2,2,L|480:255,1,142.5,2|0,1:1|0:1,0:1:0:0:
467,257,78679,6,0,B|446:287|442:333|442:333|399:253|425:180,1,228,0|0,1:0|0:0,0:0:0:0:
421,190,79346,1,0,0:0:0:0:
252,43,79679,6,0,L|246:216,2,152,8|0|0,0:0|0:0|1:0,0:0:0:0:
120,309,80679,6,0,P|104:256|7:214,1,152,0|0,1:0|0:0,0:0:0:0:
22,212,81179,1,8,0:0:0:0:
119,138,81346,2,0,L|126:231,1,76,0|0,1:0|0:0,0:0:0:0:
25,324,81679,5,8,1:0:0:0:
210,161,81846,1,0,1:0:0:0:
210,161,81929,1,0,1:0:0:0:
210,161,82013,1,0,1:0:0:0:
19,122,82179,5,0,1:0:0:0:
19,122,82263,1,0,1:0:0:0:
19,122,82346,1,0,1:0:0:0:
221,278,82513,1,0,1:0:0:0:
337,48,82679,6,0,B|221:34|232:107|100:80,1,228,0|0,1:0|1:0,0:0:0:0:
299,134,83346,1,8,0:0:0:0:
163,0,83513,1,0,1:0:0:0:
299,134,83679,6,0,B|360:95|360:95|333:265,1,228,0|0,1:0|1:0,0:0:0:0:
425,222,84346,2,0,L|438:131,1,76,8|0,0:0|0:0,0:0:0:0:
185,279,84679,6,0,B|263:291|263:291|305:328|305:328|397:342,1,228,0|8,1:0|0:0,0:0:0:0:
231,376,85346,1,0,1:0:0:0:
206,98,85679,5,8,0:0:0:0:
215,88,86013,2,0,P|156:39|206:98,1,227.999993041992,8|0,0:0|1:0,0:0:0:0:
256,192,90679,12,0,93679,0:0:0:0:
256,131,94013,5,0,1:0:0:0:
245,240,94179,2,0,L|242:272,2,23.75,0|0|0,1:0|0:0|0:0,0:0:0:0:
137,162,94346,5,0,1:0:0:0:
370,210,94513,1,0,1:0:0:0:
98,303,94679,6,0,B|241:279|219:359|389:325,1,285,0|0,1:0|1:0,0:0:0:0:
224,363,96013,5,0,1:0:0:0:
253,153,96179,1,0,1:0:0:0:
253,153,96263,1,0,1:0:0:0:
253,153,96346,1,0,1:0:0:0:
108,281,96513,1,0,1:0:0:0:
361,226,96679,5,0,1:0:0:0:
126,86,96846,2,0,P|133:129|139:185,1,76,0|0,1:0|0:0,0:0:0:0:
360,32,97179,2,0,P|353:75|347:131,1,76,0|0,1:0|0:0,0:0:0:0:
244,235,97513,1,0,1:0:0:0:
437,163,97679,5,0,1:0:0:0:
253,50,97846,1,0,1:0:0:0:
253,50,97929,1,0,1:0:0:0:
253,50,98013,1,0,1:0:0:0:
460,54,98179,5,0,1:0:0:0:
460,54,98263,1,0,1:0:0:0:
460,54,98346,1,0,1:0:0:0:
262,153,98513,1,0,1:0:0:0:
457,264,98679,1,0,1:0:0:0:
360,32,98846,5,0,1:0:0:0:
360,32,98929,1,0,1:0:0:0:
360,32,99013,2,0,L|351:97,1,47.5,0|0,1:0|0:0,0:0:0:0:
268,200,99179,2,0,L|259:135,1,47.5,0|0,1:0|0:0,0:0:0:0:
137,65,99346,1,0,1:0:0:0:
418,173,99513,1,0,1:0:0:0:
126,265,99679,1,0,1:0:0:0:
253,50,99846,6,0,L|258:16,2,23.75,0|0|0,1:0|0:0|0:0,0:0:0:0:
252,74,100013,1,0,1:0:0:0:
361,292,100179,1,0,1:0:0:0:
361,292,100263,1,0,1:0:0:0:
361,292,100346,2,0,L|352:227,1,47.5,0|0,1:0|0:0,0:0:0:0:
130,90,100513,2,0,L|121:155,1,47.5,0|0,1:0|0:0,0:0:0:0:
0,294,100679,6,0,B|114:265|101:342|240:311,1,227.999993041992,0|0,1:0|0:0,0:0:0:0:
32,134,101179,1,0,1:0:0:0:
32,134,101263,1,0,1:0:0:0:
32,134,101346,2,0,L|36:173,4,28.4999991302491,0|0|0|0|0,1:0|0:0|0:0|0:0|0:0,0:0:0:0:
12,4,101679,1,8,0:0:0:0:
12,4,102013,6,2,P|47:42|149:20,1,142.5,2|0,1:0|0:0,0:1:0:0:
243,16,102346,6,2,B|238:65|238:65|224:95|224:95|235:140|235:140|221:173|221:173|212:229,1,213.750008153916,10|0,0:1|0:0,0:1:0:0:
149,361,102679,6,2,B|144:286|136:186|136:186|124:211|103:242,1,227.999993041992,2|0,1:0|0:0,0:1:0:0:
0,294,103179,1,0,0:0:0:0:
0,294,103263,1,0,0:0:0:0:
0,294,103346,2,2,P|57:306|89:297,1,71.2500027179719,2|0,0:1|0:0,0:1:0:0:
282,211,103513,2,2,P|246:209|213:221,1,71.2500027179719,0|0,0:1|0:0,0:0:0:0:
237,362,103679,6,2,P|302:305|221:336,1,246.999988693238,10|0,0:1|1:0,0:1:0:0:
361,250,104179,2,2,P|373:273|380:286,2,30.8749985866547,2|2|0,1:1|1:1|1:1,1:1:0:0:
282,211,104346,6,2,B|277:177|277:177|287:133,1,71.2500027179719,2|0,1:1|0:1,0:1:0:0:
456,292,104513,2,2,B|464:327|464:327|459:361,1,71.2500027179719,0|0,0:1|0:1,0:1:0:0:
237,362,104679,5,0,1:0:0:0:
285,141,104846,2,2,P|322:140|370:150,1,71.2500027179719,2|0,0:1|0:0,0:1:0:0:
480,348,105013,1,0,0:1:0:0:
213,212,105179,5,0,0:1:0:0:
213,212,105263,1,0,0:1:0:0:
213,212,105346,2,2,B|211:185|211:185|204:167|204:167|200:128,1,71.2500027179719,2|0,0:1|0:0,0:1:0:0:
367,69,105513,2,2,B|369:42|369:42|376:24|376:24|380:-15,1,71.2500027179719,0|0,0:0|0:0,0:1:0:0:
475,242,105679,6,2,P|371:190|300:218,1,185.249991519928,10|0,0:1|0:0,0:1:0:0:
272,292,106013,2,2,L|284:369,1,61.7499971733095,2|0,1:1|0:0,0:1:0:0:
201,142,106179,2,2,L|213:65,1,61.7499971733095,0|0,1:0|0:0,0:1:0:0:
130,19,106346,5,0,1:0:0:0:
295,125,106513,1,0,0:0:0:0:
147,232,106679,6,2,B|82:163|-21:174|-21:174|-4:197|7:234,1,227.999993041992,2|0,1:0|0:0,0:1:0:0:
68,303,107179,1,0,0:0:0:0:
68,303,107263,1,0,0:0:0:0:
68,303,107346,2,2,B|72:339|72:339|58:383,1,71.2500027179719,2|0,0:1|0:0,0:1:0:0:
8,128,107513,2,2,B|-2:94|-2:94|1:58,1,71.2500027179719,0|0,0:0|0:0,0:1:0:0:
274,93,107679,6,2,L|79:80,1,185.249991519928,10|0,0:1|0:0,0:1:0:0:
89,80,108013,6,2,B|113:86|113:86|134:100|134:100|163:103,1,80.750001540184,2|0,0:1|0:0,0:1:0:0:
349,242,108179,2,2,B|324:248|324:248|303:262|303:262|274:265,1,80.750001540184,0|0,0:0|0:0,0:1:0:0:
449,61,108346,6,2,B|476:43|500:18|500:18|475:177,1,213.750008153916,2|0,0:1|0:0,0:1:0:0:
495,308,108679,6,2,B|368:288|390:379|226:336,1,246.999988693238,2|0,1:0|0:0,0:1:0:0:
103,196,109179,1,8,0:0:0:0:
163,384,109346,2,2,P|176:318|185:257,1,123.499994346619,2|0,1:0|0:0,0:1:0:0:
233,163,109679,5,8,0:0:0:0:
70,297,109846,1,8,0:0:0:0:
350,384,110013,2,2,B|364:291|364:291|336:206,1,156.750004783631,2|0,1:1|0:0,0:1:0:0:
193,74,110346,6,2,B|273:84|273:84|321:127|321:127|417:137,1,228,10|0,0:1|0:0,0:1:0:0:
82,250,110679,6,2,B|63:71|63:71|46:107|21:138,1,246.999988693238,2|0,1:0|0:0,0:1:0:0:
154,177,111179,1,0,0:0:0:0:
154,177,111263,1,0,0:0:0:0:
154,177,111346,2,2,L|141:71,1,76,2|0,0:1|0:0,0:1:0:0:
10,287,111513,2,2,L|-3:181,1,76,0|0,0:0|0:0,0:1:0:0:
184,262,111679,6,2,B|230:252|262:228|262:228|295:290|295:290|344:278|344:278|369:293|407:296,1,265.999991882324,10|0,0:1|0:0,0:1:0:0:
336,151,112179,2,2,L|329:200,2,33.2499989852906,2|2|0,1:1|0:1|0:1,0:1:0:0:
390,83,112346,6,2,B|354:65|354:65|316:67,1,76,2|0,1:1|0:0,0:1:0:0:
184,262,112513,2,2,B|221:263|221:263|256:246,1,76,0|0,1:0|0:0,0:1:0:0:
242,17,112679,5,0,1:1:0:0:
422,170,112846,2,2,B|418:200|418:200|422:223|422:223|414:264,1,80.750001540184,2|0,0:1|0:0,0:1:0:0:
223,370,113013,1,0,0:0:0:0:
197,170,113179,5,0,0:0:0:0:
197,170,113263,1,0,0:0:0:0:
197,170,113346,2,2,B|193:140|193:140|197:117|197:117|189:76,1,76,2|0,0:1|0:0,0:1:0:0:
10,287,113513,2,2,B|6:317|6:317|10:340|10:340|2:381,1,76,0|0,0:0|0:0,0:1:0:0:
192,95,113679,6,2,P|118:30|6:49,1,199.499993911743,10|0,0:1|0:0,0:1:0:0:
0,117,114013,2,2,P|59:111|86:96,1,66.4999979705811,2|0,0:1|0:0,0:1:0:0:
306,17,114179,2,2,P|274:7|241:8,1,66.4999979705811,0|0,0:0|0:0,0:1:0:0:
197,170,114346,6,2,P|177:249|212:178,1,228,2|0,1:1|0:0,0:1:0:0:
11,305,114679,6,0,B|123:289|104:361|257:336,1,228,0|0,1:0|0:0,0:0:0:0:
232,339,115346,1,8,0:0:0:0:
433,190,115679,6,0,B|471:177|500:159|500:159|459:330,1,228,0|0,1:1|0:0,0:0:0:0:
464,308,116346,1,8,0:0:0:0:
54,22,116679,6,0,B|134:34|134:34|168:85|168:85|267:108,1,228,0|0,1:1|0:0,0:0:0:0:
251,104,117346,1,8,0:0:0:0:
332,274,117679,6,0,B|270:208|161:225|161:225|173:241|184:263,1,228,0|0,1:1|0:0,0:0:0:0:
183,261,118346,1,0,1:0:0:0:
454,77,118679,6,0,B|399:69|357:37|357:37|317:122|317:122|251:104|251:104|225:121|181:125,1,341.999989562989,0|8,1:1|0:0,0:0:0:0:
399,142,120013,6,0,L|392:222,1,56.9999982604981
385,278,120346,1,0,1:0:0:0:
202,96,120679,6,0,B|142:97|94:62|94:62|64:127|-6:153,1,228,0|8,1:0|0:0,0:0:0:0:
124,174,121346,1,0,1:0:0:0:
5,45,121513,1,0,1:0:0:0:
5,45,121596,1,0,1:0:0:0:
5,45,121679,1,0,1:0:0:0:
113,289,121846,5,0,1:0:0:0:
113,289,121929,1,0,1:0:0:0:
113,289,122013,1,0,1:0:0:0:
176,3,122179,1,0,1:0:0:0:
399,289,122346,5,0,1:0:0:0:
336,3,122512,1,0,1:0:0:0:
256,166,122679,5,0,1:0:0:0:
256,192,128679,12,0,129679,0:0:0:0:
319,47,129846,5,0,1:1:0:0:
319,47,129929,1,0,1:1:0:0:
319,47,130013,1,0,1:1:0:0:
144,298,130179,1,0,1:1:0:0:
193,47,130346,5,0,1:1:0:0:
368,298,130512,1,0,1:1:0:0:
289,168,130679,6,0,B|142:153|161:250|5:213,1,285,0|0,1:0|0:0,0:0:0:0:
220,348,131346,2,0,P|228:284|235:237,1,95
84,119,131679,1,8,0:0:0:0:
84,119,132013,6,0,P|148:131|204:133,1,95
412,32,132346,2,0,P|364:36|318:46,1,95
352,323,132679,6,0,B|372:253|372:253|362:199|362:199|375:131,2,190,0|0|0,1:0|0:0|0:0,0:0:0:0:
461,183,133513,1,0,0:0:0:0:
232,253,133679,1,8,0:0:0:0:
232,253,134013,6,0,P|225:205|218:141,1,95
219,158,134263,1,0,0:0:0:0:
219,158,134346,1,0,0:0:0:0:
340,226,134513,1,0,0:0:0:0:
125,314,134679,6,0,L|104:122,1,190,0|0,1:0|0:0,0:0:0:0:
5,177,135179,2,0,P|11:225|18:272,1,95
216,362,135513,1,0,0:0:0:0:
340,226,135679,6,0,L|361:34,1,190,8|0,0:0|0:0,0:0:0:0:
460,89,136179,2,0,P|454:137|447:184,1,95
249,274,136513,1,0,0:0:0:0:
218,157,136679,6,0,P|209:110|200:64,1,95,0|0,1:0|0:0,0:0:0:0:
359,251,137013,2,0,P|349:297|340:344,1,95,8|0,0:0|1:0,0:0:0:0:
174,364,137346,1,0,1:0:0:0:
362,126,137513,5,0,1:0:0:0:
362,126,137596,1,0,1:0:0:0:
362,126,137679,2,2,P|331:112|282:113,1,56.9999982604981,2|0,0:1|0:0,0:1:0:0:
152,241,137846,2,2,P|126:253|98:257,1,56.9999982604981,2|0,1:0|1:0,0:1:0:0:
0,63,138013,5,0,1:0:0:0:
42,38,138096,1,0,1:0:0:0:
91,39,138179,1,0,1:0:0:0:
134,64,138263,1,0,1:0:0:0:
156,107,138346,1,0,1:0:0:0:
185,148,138429,1,0,1:0:0:0:
229,168,138512,1,0,1:0:0:0:
278,163,138596,1,0,1:0:0:0:
318,133,138679,6,0,B|276:112|235:83|235:83|277:308,1,313.500009567261,0|0,1:0|0:0,0:0:0:0:
169,270,139346,2,0,L|147:140,1,104.500003189087
321,27,139679,1,8,0:0:0:0:
320,27,140013,6,0,P|270:41|219:35,1,104.500003189087
49,158,140346,2,0,P|100:152|150:166,1,104.500003189087
297,341,140679,6,0,L|320:113,1,209.000006378174,0|0,1:0|0:0,0:0:0:0:
412,169,141179,2,0,L|396:335,1,156.750004783631
487,282,141513,2,0,L|495:208,1,52.2500015945435
219,35,141679,6,0,L|242:263,1,209.000006378174,8|0,0:0|0:0,0:0:0:0:
157,293,142179,1,0,0:0:0:0:
325,125,142346,1,0,1:0:0:0:
109,48,142513,1,0,0:0:0:0:
297,341,142679,5,0,1:0:0:0:
297,341,143013,2,0,B|185:324|203:394|66:369,2,209.000006378174,0|0|8,0:0|0:0|0:0,0:0:0:0:
0,95,144013,2,0,B|112:78|94:148|231:123,1,209.000006378174
312,32,144513,1,0,0:0:0:0:
323,156,144679,6,0,P|316:233|312:373,1,209.000006378174,0|0,1:0|0:0,0:0:0:0:
97,206,145179,1,0,0:0:0:0:
129,193,145262,1,0,0:0:0:0:
164,191,145345,1,0,0:0:0:0:
197,198,145429,1,0,0:0:0:0:
227,215,145512,1,0,0:0:0:0:
251,241,145595,1,0,0:0:0:0:
267,272,145679,5,8,0:0:0:0:
47,366,145846,1,0,0:0:0:0:
202,127,146013,5,0,0:0:0:0:
397,305,146179,1,0,0:0:0:0:
312,32,146346,5,0,1:0:0:0:
145,298,146513,1,0,0:0:0:0:
8,121,146679,6,0,B|48:111|97:73|97:73|134:151|134:151|201:128|201:128|237:160|292:158,1,341.999989562989,0|0,1:0|0:0,0:0:0:0:
387,49,147346,2,0,P|309:68|245:72,1,113.999996520996
189,224,147679,1,8,0:0:0:0:
189,224,148013,6,0,P|197:267|201:369,1,113.999996520996
397,305,148346,2,0,P|397:271|409:160,1,113.999996520996
494,26,148679,6,0,B|376:9|394:95|244:66,2,227.999993041992,0|0|0,1:0|0:0|0:0,0:0:0:0:
403,191,149513,1,0,0:0:0:0:
403,191,149596,1,0,0:0:0:0:
403,191,149679,1,8,0:0:0:0:
403,191,150013,6,0,L|276:178,1,113.999996520996,0|0,1:0|0:0,0:0:0:0:
289,179,150263,1,0,1:0:0:0:
289,179,150346,1,0,1:0:0:0:
368,74,150513,1,0,1:0:0:0:
433,311,150679,6,0,L|186:284,1,209.000006378174,0|0,1:0|0:0,0:0:0:0:
147,369,151179,1,0,1:0:0:0:
289,179,151346,1,8,0:0:0:0:
147,369,151513,1,0,1:0:0:0:
0,114,151679,6,0,B|67:120|67:120|112:155|112:155|189:160,1,190,0|0,1:0|0:0,0:0:0:0:
33,208,152179,1,0,1:0:0:0:
149,74,152346,1,8,0:0:0:0:
356,363,152679,6,0,B|332:184|332:184|365:220|404:241,1,256.499992172241,0|8,1:0|0:0,0:0:0:0:
253,308,153346,1,0,1:0:0:0:
368,74,153679,5,8,0:0:0:0:
368,74,154013,2,0,B|213:54|237:145|69:121,1,304,8|0,0:0|1:0,0:0:0:0:
