osu file format v14

[General]
AudioFilename: audio.mp3
AudioLeadIn: 0
PreviewTime: 69513
Countdown: 0
SampleSet: Soft
StackLeniency: 0.3
Mode: 0
LetterboxInBreaks: 0
WidescreenStoryboard: 0

[Editor]
Bookmarks: 1679,154679
DistanceSpacing: 0.6
BeatDivisor: 8
GridSize: 32
TimelineZoom: 4.199999

[Metadata]
Title:Geurida
TitleUnicode:그리다
Artist:Memme
ArtistUnicode:Memme
Creator:NeilPerry
Version:LCFC's Insane
Source:O2Jam U
Tags:lee eun jin seiyun korean missing you electronic oriental drumstep sing lowcombofc lcfc sulfur su1fu7
BeatmapID:1459309
BeatmapSetID:688183

[Difficulty]
HPDrainRate:6
CircleSize:4
OverallDifficulty:7.5
ApproachRate:9
SliderMultiplier:1.65
SliderTickRate:1

[Events]
//Background and Video events
0,0,"cherry.png",0,0
//Break Periods
2,86879,93079
2,94879,98079
2,122879,128079
//Storyboard Layer 0 (Background)
//Storyboard Layer 1 (Fail)
//Storyboard Layer 2 (Pass)
//Storyboard Layer 3 (Foreground)
//Storyboard Sound Samples

[TimingPoints]
1680,333.333333333333,3,2,1,70,1,0
18679,-133.333333333333,3,2,1,40,0,0
33679,-100,3,2,1,70,0,0
34679,-133.333333333333,3,2,1,70,0,0
41679,-100,3,2,1,70,0,0
42679,-100,3,2,1,70,0,1
46679,-133.333333333333,3,2,1,70,0,0
50013,-100,3,2,1,70,0,0
50679,-133.333333333333,3,2,1,70,0,0
56679,-100,3,2,1,70,0,0
58679,-133.333333333333,3,2,1,70,0,0
70013,-100,3,2,1,70,0,0
86013,-200,3,2,1,70,0,0
93679,-133.333333333333,3,2,1,70,0,0
98679,-100,3,2,1,70,0,0
100679,-133.333333333333,3,2,1,70,0,0
102679,-100,3,2,1,70,0,1
103179,-66.6666666666667,3,2,1,70,0,1
103679,-100,3,2,1,70,0,1
104679,-66.6666666666667,3,2,1,70,0,1
105679,-100,3,2,1,70,0,1
107179,-66.6666666666667,3,2,1,70,0,1
107679,-100,3,2,1,70,0,1
108679,-100,3,2,1,70,0,0
110013,-133.333333333333,3,2,1,70,0,0
110679,-100,3,2,1,70,0,1
111179,-66.6666666666667,3,2,1,70,0,1
111679,-100,3,2,1,70,0,1
112679,-66.6666666666667,3,2,1,70,0,1
113679,-100,3,2,1,70,0,1
114679,-100,3,2,1,70,0,0
118679,-133.333333333333,3,2,1,70,0,0
121679,-100,3,2,1,70,0,0
138679,-100,3,2,1,70,0,1
154013,-200,3,2,1,70,0,1
154679,-200,3,2,1,70,0,0

[Colours]
Combo1 : 255,187,213
Combo2 : 160,248,103
Combo3 : 128,118,250
Combo4 : 248,179,95
Combo5 : 254,73,146
Combo6 : 186,194,203
Combo7 : 254,232,163
Combo8 : 68,194,255

[HitObjects]
315,196,1679,6,0,L|304:278,1,82.5,0|0,1:0|1:0,0:0:0:0:
302,302,1929,2,0,L|346:294,1,41.25
409,223,2179,1,0,1:0:0:0:
252,142,2346,2,0,P|254:104|263:60,1,82.5,0|0,1:0|1:0,0:0:0:0:
483,67,2679,6,0,P|423:121|344:114,1,165,2|0,1:1|0:0,0:0:0:0:
344,19,3179,2,0,P|423:12|483:67,1,165,0|0,0:1|0:0,0:0:0:0:
418,207,3679,6,0,P|350:218|247:253,1,165,10|0,0:1|0:1,0:0:0:0:
258,247,4346,2,0,P|248:295|233:328,1,82.5,2|0,0:1|0:0,0:0:0:0:
99,237,4679,6,0,B|76:146|139:175|120:79,1,165,2|0,1:0|0:0,0:0:0:0:
47,23,5179,1,2,0:1:0:0:
215,84,5346,2,0,P|257:81|295:67,1,82.5,0|0,0:0|0:0,0:0:0:0:
504,123,5679,6,0,B|413:100|442:163|346:144,1,165,10|0,0:1|0:0,0:0:0:0:
346,144,6346,2,0,P|333:176|325:228,1,82.5,0|0,0:0|0:0,0:0:0:0:
508,372,6679,6,0,P|487:292|450:218,1,165,2|0,1:0|0:0,0:0:0:0:
346,144,7179,2,0,P|300:212|242:270,1,165,0|0,0:0|0:0,0:0:0:0:
2,174,7679,2,0,P|45:188|81:215,1,82.5,10|0,1:0|0:0,0:0:0:0:
163,95,8013,2,0,P|172:139|166:183,1,82.5,0|0,0:0|0:0,0:0:0:0:
157,355,8346,2,0,P|147:310|153:266,1,82.5,2|0,0:1|0:0,0:0:0:0:
239,63,8679,6,0,P|288:72|319:89,1,82.5,2|0,1:0|0:0,0:0:0:0:
363,164,9013,1,0,0:0:0:0:
503,63,9179,2,0,L|421:53,1,82.5,0|0,0:0|0:0,0:0:0:0:
353,13,9513,1,0,0:0:0:0:
467,159,9679,6,0,P|459:204|434:246,1,82.5,8|0,0:0|0:0,0:0:0:0:
285,377,10013,2,0,P|266:340|260:299,1,82.5,0|0,0:0|0:0,0:0:0:0:
352,267,10346,2,0,P|370:303|377:344,1,82.5,2|0,1:0|0:0,0:0:0:0:
287,176,10679,6,0,P|206:180|150:124,1,165,2|0,1:0|0:0,0:0:0:0:
189,29,11179,2,0,P|269:25|326:82,1,165,0|0,0:0|0:0,0:0:0:0:
449,10,11679,6,0,P|422:63|391:186,1,165,10|0,0:1|0:0,0:0:0:0:
393,164,12346,2,0,P|431:148|481:145,1,82.5,2|0,1:0|0:0,0:0:0:0:
319,308,12679,6,0,P|270:281|150:263,1,165,2|0,1:0|0:0,0:0:0:0:
21,143,13179,1,8,0:1:0:0:
90,196,13346,2,0,P|132:188|174:164,1,82.5,2|0,1:0|0:0,0:0:0:0:
199,18,13679,2,0,L|297:35,1,82.5,10|0,0:1|0:0,0:0:0:0:
357,223,14013,2,0,L|374:125,1,82.5,0|0,1:0|1:0,0:0:0:0:
374,129,14263,2,0,L|333:141,1,41.25,0|0,1:0|1:0,0:0:0:0:
445,191,14513,1,0,1:0:0:0:
260,209,14679,6,0,P|210:220|95:271,1,165,2|0,1:0|0:0,0:0:0:0:
25,228,15179,2,0,L|10:310,1,82.5,2|8,1:0|0:0,0:0:0:0:
66,371,15513,1,0,1:0:0:0:
165,203,15679,6,0,B|188:112|125:141|144:45,1,165,2|0,1:0|0:0,0:0:0:0:
74,175,16179,2,0,L|-8:194,1,82.5,2|8,1:1|0:1,0:0:0:0:
14,98,16513,1,0,0:0:0:0:
239,69,16679,6,0,P|320:69|384:117,1,165,2|0,1:0|0:0,0:0:0:0:
342,296,17179,1,8,0:0:0:0:
273,229,17346,2,0,P|314:207|357:200,1,82.5,2|0,1:0|0:0,0:0:0:0:
494,284,17679,1,8,0:0:0:0:
384,117,18013,6,0,B|363:53|424:10|424:10|410:50,1,165,10|0,0:1|0:0,0:0:0:0:
410,48,18513,1,0,0:0:0:0:
249,109,18679,6,0,L|126:94,2,123.750004720688,0|0|0,1:0|0:0|0:0,0:0:0:0:
68,166,19679,1,0,0:0:0:0:
35,80,20013,1,0,0:0:0:0:
126,94,20346,1,0,0:0:0:0:
212,251,20679,6,0,B|353:261|280:318|442:326,1,247.500009441376,0|0,0:0|0:0,0:0:0:0:
212,251,21679,2,0,L|236:384,2,123.750004720688,0|0|0,0:0|0:0|0:0,0:0:0:0:
181,62,22679,1,0,0:0:0:0:
392,181,23013,1,0,0:0:0:0:
427,205,23179,1,0,0:0:0:0:
468,203,23346,1,0,0:0:0:0:
410,278,23513,1,0,0:0:0:0:
305,296,23679,5,0,0:0:0:0:
449,127,24013,2,0,P|474:70|482:9,1,123.750004720688,0|0,0:0|0:0,0:0:0:0:
387,26,24513,1,0,0:0:0:0:
392,181,24679,5,0,0:0:0:0:
223,269,25013,1,0,0:0:0:0:
188,293,25179,1,0,0:0:0:0:
147,291,25346,1,0,0:0:0:0:
205,366,25513,1,0,0:0:0:0:
310,384,25679,5,0,0:0:0:0:
163,208,26013,1,0,0:0:0:0:
344,307,26346,1,0,0:0:0:0:
253,260,26513,1,0,0:0:0:0:
147,291,26679,6,0,L|14:312,2,123.750004720688,0|0|0,0:0|0:0|0:0,0:0:0:0:
295,165,27679,1,0,0:0:0:0:
229,107,28013,1,0,0:0:0:0:
144,124,28346,1,0,0:0:0:0:
286,254,28679,6,0,P|377:261|455:214,1,185.625007081032,0|0,0:0|0:0,0:0:0:0:
423,129,29346,1,0,0:0:0:0:
187,111,29679,6,0,P|204:138|287:168,2,123.750004720688,0|0|0,0:0|0:0|0:0,0:0:0:0:
217,29,30679,1,0,0:0:0:0:
39,160,31013,1,0,0:0:0:0:
52,197,31179,1,0,0:0:0:0:
65,234,31346,1,0,0:0:0:0:
19,307,31513,1,0,0:0:0:0:
139,357,31679,1,0,0:0:0:0:
318,198,32013,6,0,P|280:204|191:238,1,123.750004720688,0|0,0:0|0:0,0:0:0:0:
220,320,32513,1,0,0:0:0:0:
414,358,32679,1,0,0:0:0:0:
479,74,33013,1,0,0:0:0:0:
466,111,33179,1,0,0:0:0:0:
453,148,33346,1,0,0:0:0:0:
499,221,33513,1,0,0:0:0:0:
379,271,33679,5,0,1:0:0:0:
279,97,33846,1,0,1:0:0:0:
279,97,33930,1,0,1:0:0:0:
279,97,34013,1,0,1:0:0:0:
290,186,34179,1,0,1:0:0:0:
387,88,34346,2,0,P|428:94|466:111,1,82.5,0|0,1:0|1:0,0:0:0:0:
271,208,34679,6,0,P|209:217|152:240,2,123.750004720688,0|0|0,1:0|0:0|0:0,0:0:0:0:
89,313,35679,1,8,0:0:0:0:
66,211,36013,1,0,0:0:0:0:
43,109,36346,1,0,0:0:0:0:
212,242,36679,6,0,P|254:265|424:194,1,247.500009441376,0|0,1:0|0:0,0:0:0:0:
267,60,37679,2,0,P|213:87|182:140,2,123.750004720688,8|0|0,0:0|0:0|0:0,0:0:0:0:
358,113,38679,5,0,1:0:0:0:
149,39,39013,1,0,0:0:0:0:
114,63,39179,1,0,0:0:0:0:
165,119,39346,1,0,0:0:0:0:
87,182,39513,1,0,0:0:0:0:
197,255,39679,5,8,0:0:0:0:
36,361,40013,1,0,0:0:0:0:
106,318,40179,2,0,P|131:322|227:374,1,123.750004720688,0|0,0:0|0:0,0:0:0:0:
299,331,40679,1,0,1:0:0:0:
503,192,41013,1,0,0:0:0:0:
479,157,41179,1,0,0:0:0:0:
423,208,41346,1,0,0:0:0:0:
360,130,41513,1,0,0:0:0:0:
287,240,41679,5,8,1:0:0:0:
188,73,41846,1,0,1:0:0:0:
188,73,41929,1,0,1:0:0:0:
188,73,42013,1,0,1:0:0:0:
265,118,42179,2,0,L|273:165,1,41.25,0|0,1:0|1:0,0:0:0:0:
287,240,42346,2,0,L|199:258,1,82.5,0|0,1:0|1:0,0:0:0:0:
18,162,42679,5,0,1:0:0:0:
121,306,42846,1,0,1:0:0:0:
121,306,42929,1,0,1:0:0:0:
121,306,43013,2,0,L|110:362,1,41.25,0|0,1:0|0:0,0:0:0:0:
128,218,43179,2,0,L|72:207,1,41.25,0|0,1:0|0:0,0:0:0:0:
13,252,43346,1,0,1:0:0:0:
13,252,43513,1,0,1:0:0:0:
202,358,43679,5,8,1:0:0:0:
200,142,43846,2,0,L|192:110,4,20.625,0|0|0|0|0,1:0|0:0|0:0|0:0|1:0,0:0:0:0:
295,269,44179,1,0,1:0:0:0:
295,269,44263,1,0,1:0:0:0:
295,269,44346,2,0,L|284:317,1,41.25,0|0,1:0|0:0,0:0:0:0:
128,218,44513,2,0,L|87:208,1,41.25,0|0,1:0|0:0,0:0:0:0:
109,125,44679,5,0,1:0:0:0:
258,58,44846,1,0,1:0:0:0:
258,58,44929,1,0,1:0:0:0:
258,58,45013,2,0,L|246:6,1,41.25,0|0,1:0|0:0,0:0:0:0:
165,35,45179,2,0,L|173:62,4,20.625,0|0|0|0|0,1:0|0:0|0:0|0:0|1:0,0:0:0:0:
316,153,45513,1,0,1:0:0:0:
128,218,45679,5,8,1:0:0:0:
295,269,45846,2,0,L|287:296,4,20.625,0|0|0|0|0,1:0|0:0|0:0|0:0|1:0,0:0:0:0:
228,204,46179,1,0,1:0:0:0:
274,378,46346,1,0,1:0:0:0:
181,303,46513,1,0,1:0:0:0:
181,303,46596,1,0,1:0:0:0:
181,303,46679,6,0,B|347:265|292:384|457:342|457:342|479:263,2,371.250014162064,0|8|0,1:0|0:0|1:0,0:0:0:0:
99,255,48846,2,0,L|79:393,2,123.750004720688,0|0|0,0:0|0:0|0:0,0:0:0:0:
52,177,49679,5,8,0:0:0:0:
356,300,50013,2,0,L|335:219,1,82.5,0|0,2:0|1:0,0:0:0:0:
330,195,50263,2,0,L|381:204,1,41.25,0|0,1:0|1:0,0:0:0:0:
252,233,50513,1,0,0:0:0:0:
240,32,50679,5,0,1:0:0:0:
434,85,51013,1,0,0:0:0:0:
385,20,51179,1,0,0:0:0:0:
353,94,51346,1,0,0:0:0:0:
210,69,51679,5,8,0:0:0:0:
383,170,52013,1,2,0:1:0:0:
353,94,52179,2,0,P|352:79|355:64,1,30.937501180172,0|0,0:0|0:0,0:0:0:0:
303,157,52346,2,0,P|286:183|280:214,1,61.875002360344,0|0,0:0|0:0,0:0:0:0:
172,97,52679,5,0,1:0:0:0:
312,239,53013,1,0,0:0:0:0:
303,157,53179,1,0,0:0:0:0:
238,207,53346,1,0,0:0:0:0:
128,115,53679,5,8,0:0:0:0:
226,288,54013,2,0,P|246:299|268:298,1,30.937501180172,0|0,0:0|0:0,0:0:0:0:
238,207,54179,2,0,P|229:188|216:175,1,30.937501180172,0|0,0:0|0:0,0:0:0:0:
163,238,54346,2,0,P|135:251|108:283,1,61.875002360344,0|0,1:0|0:0,0:0:0:0:
316,367,54679,5,0,1:0:0:0:
387,204,54846,1,0,0:0:0:0:
377,325,55013,5,0,0:0:0:0:
326,246,55179,1,0,0:0:0:0:
352,286,55346,5,0,0:0:0:0:
299,63,55679,5,8,0:0:0:0:
133,221,56013,2,0,P|114:220|94:211,1,30.937501180172,0|0,0:0|0:0,0:0:0:0:
21,149,56179,2,0,P|40:150|60:159,1,30.937501180172,0|0,0:0|0:0,0:0:0:0:
203,273,56346,2,0,P|232:273|273:255,1,61.875002360344,0|0,1:0|0:0,0:0:0:0:
428,104,56679,6,0,B|389:67|389:67|398:120|380:178,1,165,0|0,1:0|0:0,0:0:0:0:
219,187,57179,1,8,0:0:0:0:
322,328,57346,2,0,P|358:347|399:349,1,82.5,0|0,1:0|0:0,0:0:0:0:
472,192,57679,5,8,0:0:0:0:
472,192,57846,1,8,0:0:0:0:
461,275,58013,2,0,L|472:317,1,41.25,0|0,1:0|1:0,0:0:0:0:
380,176,58179,1,8,1:0:0:0:
391,259,58346,2,0,L|380:301,1,41.25,0|0,1:0|0:0,0:0:0:0:
495,350,58513,1,0,0:0:0:0:
314,229,58679,5,0,1:0:0:0:
48,334,59013,1,0,0:0:0:0:
117,353,59179,1,0,0:0:0:0:
167,301,59346,1,0,0:0:0:0:
278,164,59679,5,8,0:0:0:0:
48,334,60013,2,0,P|25:326|10:317,1,30.937501180172,2|0,0:1|0:0,0:0:0:0:
119,334,60179,2,0,P|128:349|133:370,1,30.937501180172,0|0,0:0|0:0,0:0:0:0:
154,271,60346,1,2,0:1:0:0:
227,111,60679,5,0,1:0:0:0:
48,334,61013,1,0,0:0:0:0:
117,316,61179,1,0,0:0:0:0:
134,246,61346,1,0,0:0:0:0:
164,73,61679,5,8,0:0:0:0:
48,334,62013,2,0,P|37:349|32:365,1,30.937501180172,2|0,0:1|0:0,0:0:0:0:
110,299,62179,2,0,P|131:297|150:286,1,30.937501180172,0|0,0:0|0:0,0:0:0:0:
109,227,62346,1,2,0:1:0:0:
64,168,62513,2,0,L|71:140,2,15.468750590086,2|0|0,0:1|0:0|0:0,0:0:0:0:
35,246,62679,6,0,B|175:234|106:331|261:314,1,247.500009441376,0|0,1:0|0:0,0:0:0:0:
449,156,63679,2,0,B|294:139|363:236|222:224,1,247.500009441376,8|0,0:0|0:0,0:0:0:0:
441,315,64679,6,0,P|462:193|505:77,1,247.500009441376,0|0,1:0|0:0,0:0:0:0:
315,93,65679,2,0,P|293:214|250:330,1,247.500009441376,8|0,0:0|1:0,0:0:0:0:
169,353,66679,5,0,1:0:0:0:
105,155,67013,5,0,0:0:0:0:
96,124,67179,1,0,0:0:0:0:
126,115,67346,1,0,0:0:0:0:
135,146,67513,1,0,0:0:0:0:
82,258,67679,5,8,0:0:0:0:
273,123,68013,1,0,0:0:0:0:
287,72,68179,1,0,0:0:0:0:
239,58,68346,1,0,0:0:0:0:
224,108,68513,1,0,0:0:0:0:
310,289,68679,6,0,P|350:310|437:317,1,123.750004720688,2|2,1:1|0:1,0:0:0:0:
487,244,69179,1,2,0:1:0:0:
428,78,69346,1,0,0:1:0:0:
368,134,69513,2,0,L|382:174,1,30.937501180172,0|0,0:0|0:0,0:0:0:0:
487,244,69679,6,0,L|416:225,1,61.875002360344,8|0,0:0|0:0,0:0:0:0:
289,91,70013,2,0,B|266:91|266:91|251:102,1,41.25,2|0,0:1|0:0,0:0:0:0:
253,117,70179,2,0,B|275:116|275:116|290:105,1,41.25,2|0,0:1|0:0,0:0:0:0:
351,46,70346,2,0,L|359:16,6,20.625,2|2|2|2|2|2|0,0:1|0:1|0:1|0:1|0:1|0:1|0:1,0:0:0:0:
289,91,70679,6,0,P|219:51|137:42,1,165,0|0,1:0|0:0,0:0:0:0:
136,42,71346,2,0,P|109:58|59:69,1,82.5,0|0,0:0|0:0,0:0:0:0:
185,167,71679,6,0,P|185:198|169:247,1,82.5,8|0,0:0|0:0,0:0:0:0:
0,266,72013,2,0,P|27:250|77:239,1,82.5,0|0,0:0|0:0,0:0:0:0:
179,377,72346,2,0,P|151:361|117:323,1,82.5,0|0,0:0|0:0,0:0:0:0:
277,185,72679,6,0,B|368:162|339:225|435:206,1,165,0|0,1:0|0:0,0:0:0:0:
512,47,73179,2,0,B|486:137|446:80|414:173,1,165,0|0,0:0|0:0,0:0:0:0:
456,283,73679,6,0,P|474:308|487:358,1,82.5,8|0,0:0|0:0,0:0:0:0:
254,344,74013,1,0,0:0:0:0:
281,271,74179,1,0,0:0:0:0:
347,229,74346,2,0,P|365:204|378:154,1,82.5,0|0,1:0|0:0,0:0:0:0:
210,28,74679,5,0,1:0:0:0:
210,28,75013,2,0,P|216:109|251:184,1,165,0|0,0:0|0:0,0:0:0:0:
119,120,75679,2,0,P|105:155|77:192,1,82.5,8|0,0:0|0:0,0:0:0:0:
251,265,76013,2,0,P|256:224|251:184,1,82.5,0|0,0:0|0:0,0:0:0:0:
397,173,76346,2,0,P|420:202|438:245,1,82.5,0|0,0:0|0:0,0:0:0:0:
198,346,76679,6,0,P|265:301|346:310,1,165,0|0,1:0|0:0,0:0:0:0:
468,214,77179,2,0,P|387:222|319:178,1,165,0|0,0:0|0:0,0:0:0:0:
326,24,77679,5,8,0:0:0:0:
210,54,77846,1,0,0:0:0:0:
168,225,78013,5,0,0:0:0:0:
78,206,78179,1,2,0:1:0:0:
40,106,78346,5,2,1:1:0:0:
0,117,78513,1,0,0:0:0:0:
101,292,78679,6,0,P|126:214|127:132,1,165,0|0,1:0|0:0,0:0:0:0:
127,132,79346,2,0,P|163:112|204:107,1,82.5,0|0,0:0|0:0,0:0:0:0:
461,74,79679,6,0,P|428:49|388:37,1,82.5,8|0,0:0|0:0,0:0:0:0:
307,89,80013,2,0,P|301:129|311:169,1,82.5,0|0,0:0|0:0,0:0:0:0:
396,214,80346,2,0,P|433:198|463:169,1,82.5,0|0,1:0|0:0,0:0:0:0:
232,222,80679,6,0,P|218:248|194:393,1,165,0|0,1:0|0:0,0:0:0:0:
302,283,81179,1,8,0:0:0:0:
125,225,81346,2,0,P|106:198|93:139,1,82.5,0|0,1:0|0:0,0:0:0:0:
300,5,81679,2,0,P|290:44|268:79,1,82.5,8|0,1:0|1:0,0:0:0:0:
55,48,82013,2,0,L|147:61,1,82.5,0|0,1:0|1:0,0:0:0:0:
146,51,82263,1,0,1:0:0:0:
155,43,82346,2,0,P|164:82|186:117,1,82.5,0|0,1:0|1:0,0:0:0:0:
424,127,82679,6,0,P|348:94|267:78,1,165,0|0,1:0|0:0,0:0:0:0:
186,117,83179,1,0,1:0:0:0:
293,261,83346,2,0,L|313:177,1,82.5,8|0,0:0|1:0,0:0:0:0:
108,70,83679,6,0,P|100:149|157:205,1,165,0|0,1:0|0:0,0:0:0:0:
186,117,84179,1,0,1:0:0:0:
79,253,84346,2,0,P|44:266|-11:273,1,82.5,8|0,0:0|0:0,0:0:0:0:
243,186,84679,6,0,B|334:163|305:226|401:207,1,165,0|0,1:0|0:0,0:0:0:0:
423,77,85179,1,8,0:0:0:0:
338,40,85346,2,0,P|303:48|254:71,1,82.5,0|0,1:0|0:0,0:0:0:0:
157,205,85679,5,8,0:0:0:0:
157,205,86013,2,0,B|93:226|50:165|50:165|90:179,1,165,8|0,0:0|1:0,0:0:0:0:
426,242,93679,6,0,P|449:266|482:360,1,123.750004720688,0|0,0:0|1:0,0:0:0:0:
339,262,94179,2,0,L|331:236,4,15.468750590086,0|0|0|0|0,1:0|0:0|0:0|0:0|1:0,0:0:0:0:
309,349,94513,1,0,1:0:0:0:
369,175,94679,5,0,1:0:0:0:
433,333,98679,5,0,1:0:0:0:
245,293,98846,1,0,1:0:0:0:
245,293,98929,1,0,1:0:0:0:
245,293,99013,1,0,1:0:0:0:
306,360,99179,1,0,1:0:0:0:
331,275,99346,2,0,L|317:185,1,82.5,0|0,1:0|1:0,0:0:0:0:
433,51,99679,5,0,1:0:0:0:
241,130,99846,2,0,L|210:122,4,20.625,0|0|0|0|0,1:0|0:0|0:0|0:0|1:0,0:0:0:0:
323,56,100179,1,0,1:0:0:0:
323,56,100263,1,0,1:0:0:0:
323,56,100346,1,0,1:0:0:0:
423,257,100513,1,0,1:0:0:0:
185,229,100679,6,0,P|125:243|70:270,1,123.750004720688,0|0,1:0|0:0,0:0:0:0:
35,358,101179,1,0,1:0:0:0:
35,358,101263,1,0,1:0:0:0:
35,358,101346,6,0,L|56:365,8,15.468750590086,0|0|0|0|0|0|0|0|8,1:0|0:0|0:0|0:0|0:0|0:0|0:0|0:0|0:0,0:0:0:0:
108,154,102013,2,0,B|121:125|121:125|106:28,1,123.750004720688,2|10,1:0|0:1,0:0:0:0:
106,34,102679,6,0,L|73:28,8,20.625,2|0|0|0|0|0|0|0|0,1:0|0:0|0:0|0:0|0:0|0:0|0:0|0:0|0:0,0:0:0:0:
204,133,103179,5,0,0:0:0:0:
204,133,103263,1,0,0:0:0:0:
204,133,103346,2,0,B|234:129|234:129|237:132|237:132|271:127,1,61.875002360344,2|0,0:1|0:0,0:0:0:0:
355,23,103513,2,0,B|385:26|385:26|388:24|388:24|422:29,1,61.875002360344,0|0,0:1|0:0,0:0:0:0:
487,134,103679,6,0,P|446:138|407:125,1,82.5,10|0,0:1|0:0,0:0:0:0:
250,45,104013,2,0,P|269:61|319:192,1,165,0|2,1:0|1:1,0:0:0:0:
263,262,104513,1,0,0:1:0:0:
434,357,104679,5,0,1:0:0:0:
390,282,104846,2,0,B|360:285|360:285|334:301,1,61.875002360344,2|0,0:1|0:0,0:0:0:0:
220,159,105013,2,0,B|250:161|250:161|276:177,1,61.875002360344,0|0,0:1|0:0,0:0:0:0:
188,300,105179,5,0,0:1:0:0:
188,300,105263,1,0,0:1:0:0:
188,300,105346,2,0,B|184:270|184:270|187:267|187:267|182:233,1,61.875002360344,2|0,0:1|0:0,0:0:0:0:
310,163,105513,2,0,B|314:133|314:133|311:130|311:130|316:96,1,61.875002360344,0|0,0:0|0:0,0:0:0:0:
168,13,105679,5,10,0:1:0:0:
105,93,105846,2,0,B|111:135|111:135|133:178,2,82.5,0|2|0,0:0|1:1|1:0,0:0:0:0:
273,14,106346,2,0,B|355:27|355:27|392:60,1,123.75,0|0,1:0|0:0,0:0:0:0:
400,134,106679,6,0,L|424:131,8,20.625,2|0|0|0|0|0|0|0|0,1:0|0:0|0:0|0:0|0:0|0:0|0:0|0:0|0:0,0:0:0:0:
338,202,107179,5,0,0:0:0:0:
338,202,107263,1,0,0:0:0:0:
338,202,107346,2,0,B|308:198|308:198|305:201|305:201|271:196,1,61.875002360344,2|0,0:1|0:0,0:0:0:0:
130,110,107513,2,0,B|160:106|160:106|163:109|163:109|197:104,1,61.875002360344,0|0,0:0|0:0,0:0:0:0:
202,287,107679,6,0,P|175:257|163:218,1,82.5,10|0,0:1|0:0,0:0:0:0:
297,62,108013,2,0,L|288:116,1,41.25,2|0,0:1|0:0,0:0:0:0:
210,102,108179,2,0,L|216:61,1,41.25,0|0,0:0|0:0,0:0:0:0:
379,50,108346,2,0,L|376:70,6,20.625,2|0|0|0|0|0|0,0:1|0:0|0:0|0:0|0:0|0:0|0:0,0:0:0:0:
383,29,108679,6,0,P|441:83|444:164,1,165,2|0,1:0|0:0,0:0:0:0:
278,215,109179,1,8,0:0:0:0:
354,269,109346,2,0,L|368:188,1,82.5,2|0,1:0|0:0,0:0:0:0:
302,9,109679,1,8,0:0:0:0:
209,164,109846,1,8,0:0:0:0:
441,121,110013,6,0,B|454:92|454:92|439:1,1,123.750004720688,2|10,1:1|0:1,0:0:0:0:
439,1,110679,6,0,L|418:4,8,20.625,2|0|0|0|0|0|0|0|0,1:0|0:0|0:0|0:0|0:0|0:0|0:0|0:0|0:0,0:0:0:0:
353,74,111179,5,0,0:0:0:0:
353,74,111263,1,0,0:0:0:0:
353,74,111346,2,0,B|323:70|323:70|320:73|320:73|286:68,1,61.875002360344,2|0,0:1|0:0,0:0:0:0:
189,9,111513,2,0,B|159:13|159:13|156:10|156:10|122:15,1,61.875002360344,0|0,0:0|0:0,0:0:0:0:
45,73,111679,6,0,P|23:97|6:157,1,82.5,10|0,0:1|0:0,0:0:0:0:
155,303,112013,2,0,P|109:235|105:153,1,165,0|2,0:0|1:1,0:0:0:0:
177,96,112513,1,0,1:0:0:0:
18,238,112679,5,0,1:1:0:0:
185,175,112846,2,0,B|201:202|201:202|204:232,1,61.875002360344,2|0,0:1|0:0,0:0:0:0:
79,361,113013,2,0,B|62:333|62:333|59:303,1,61.875002360344,0|0,0:0|0:0,0:0:0:0:
185,175,113179,5,0,0:0:0:0:
185,175,113263,1,0,0:0:0:0:
185,175,113346,2,0,B|215:179|215:179|218:176|218:176|252:181,1,61.875002360344,2|0,0:1|0:0,0:0:0:0:
60,304,113513,2,0,B|30:308|30:308|27:305|27:305|-7:310,1,61.875002360344,0|0,0:0|0:0,0:0:0:0:
230,348,113679,5,10,0:1:0:0:
294,291,113846,2,0,B|312:255|312:255|318:213,2,82.5,0|2|0,0:0|0:1|0:0,0:0:0:0:
122,246,114346,2,0,B|94:215|94:215|81:133,1,123.75,2|0,1:1|0:0,0:0:0:0:
74,89,114679,6,0,B|115:156|194:141|194:141|218:88|273:77,1,247.5,0|0,1:0|0:0,0:0:0:0:
347,111,115346,1,8,0:0:0:0:
347,111,115679,6,0,B|397:102|416:51|416:51|435:207,1,247.5,0|0,1:1|0:0,0:0:0:0:
445,284,116346,1,8,0:0:0:0:
445,284,116679,6,0,B|364:303|364:303|319:354|319:354|225:374,1,247.5,0|0,1:1|0:0,0:0:0:0:
147,335,117346,1,8,0:0:0:0:
147,335,117679,6,0,B|176:267|115:185|115:185|148:228|195:220,1,247.5,0|0,1:1|0:0,0:0:0:0:
184,138,118346,1,0,1:0:0:0:
184,138,118679,6,0,P|267:54|378:91,1,247.500009441376,0|0,1:1|0:0,0:0:0:0:
263,236,119679,2,0,P|180:152|69:189,1,247.500009441376,8|0,0:0|1:0,0:0:0:0:
224,346,120679,6,0,P|282:324|344:316,1,123.750004720688,0|0,1:0|0:0,0:0:0:0:
483,237,121179,1,8,0:0:0:0:
446,335,121346,1,0,1:0:0:0:
354,171,121513,1,0,1:0:0:0:
354,171,121596,1,0,1:0:0:0:
354,171,121679,6,0,P|344:130|347:88,1,82.5,0|0,1:0|1:0,0:0:0:0:
360,69,121929,2,0,L|404:77,1,41.25,0|0,1:0|1:0,0:0:0:0:
265,189,122179,1,0,1:0:0:0:
213,257,122346,6,0,B|192:321|253:364|253:364|239:325,1,165,0|0,1:0|1:0,0:0:0:0:
256,192,128679,12,0,129679,0:0:0:0:
94,257,129846,5,0,1:1:0:0:
94,257,129929,1,0,1:1:0:0:
94,257,130013,1,0,1:1:0:0:
14,306,130179,1,0,1:1:0:0:
223,358,130346,1,0,1:1:0:0:
223,357,130679,6,0,P|267:290|257:210,1,165,0|0,1:0|0:0,0:0:0:0:
257,210,131346,2,0,P|223:227|180:232,1,82.5,0|0,0:0|0:0,0:0:0:0:
362,299,131679,6,0,P|402:303|439:320,1,82.5,8|0,0:0|0:0,0:0:0:0:
477,172,132013,2,0,P|436:167|399:150,1,82.5,0|0,0:0|0:0,0:0:0:0:
219,61,132346,2,0,P|178:65|141:82,1,82.5,0|0,0:0|0:0,0:0:0:0:
270,292,132679,6,0,B|247:201|310:230|291:134,2,165,0|0|0,1:0|0:0|0:0,0:0:0:0:
238,65,133679,2,0,P|182:32|203:139,1,247.5,8|0,0:0|0:0,0:0:0:0:
325,55,134346,2,0,P|351:43|413:35,1,82.5,0|0,0:0|0:0,0:0:0:0:
346,258,134679,6,0,P|272:223|191:213,1,165,0|0,1:0|0:0,0:0:0:0:
137,280,135179,2,0,P|112:293|47:304,1,82.5,0|0,0:0|0:0,0:0:0:0:
68,209,135513,1,0,0:0:0:0:
243,300,135679,6,0,P|278:225|288:144,1,165,8|0,0:0|0:0,0:0:0:0:
215,99,136179,2,0,P|202:74|191:9,1,82.5,0|0,0:0|0:0,0:0:0:0:
286,30,136513,1,0,0:0:0:0:
154,169,136679,6,0,P|76:182|26:121,1,165,0|8,1:0|0:0,0:0:0:0:
105,105,137179,1,0,1:0:0:0:
61,262,137346,1,0,1:0:0:0:
215,229,137513,1,0,1:0:0:0:
215,229,137596,1,0,1:0:0:0:
215,229,137679,6,0,L|300:246,1,82.5,2|2,0:1|1:0,0:0:0:0:
320,249,137929,2,0,L|316:201,1,41.25,0|0,1:0|1:0,0:0:0:0:
384,65,138179,2,0,L|387:106,1,41.25,0|0,1:0|1:0,0:0:0:0:
401,283,138346,1,0,1:0:0:0:
368,322,138429,1,0,1:0:0:0:
332,335,138513,1,0,1:0:0:0:
311,336,138596,1,0,1:0:0:0:
300,333,138679,6,0,B|209:310|238:373|142:354,1,165,0|0,1:0|0:0,0:0:0:0:
142,354,139346,2,0,P|106:335|65:332,1,82.5,0|0,0:0|0:0,0:0:0:0:
215,229,139679,6,0,P|213:188|196:150,1,82.5,8|0,0:0|0:0,0:0:0:0:
33,108,140013,2,0,P|69:127|110:130,1,82.5,0|0,0:0|0:0,0:0:0:0:
228,10,140346,2,0,P|193:31|169:65,1,82.5,0|0,0:0|0:0,0:0:0:0:
303,211,140679,6,0,P|336:222|456:157,1,165,0|0,1:0|0:0,0:0:0:0:
423,81,141179,2,0,P|390:70|270:135,1,165,0|0,0:0|0:0,0:0:0:0:
215,229,141679,2,0,P|178:231|125:209,1,82.5,8|0,0:0|0:0,0:0:0:0:
80,24,142013,1,0,0:0:0:0:
119,101,142179,1,0,0:0:0:0:
191,149,142346,2,0,P|228:151|281:129,1,82.5,0|0,1:0|0:0,0:0:0:0:
340,6,142679,5,0,1:0:0:0:
340,6,143013,2,0,B|317:97|380:68|361:164,1,165,0|0,0:0|0:0,0:0:0:0:
256,309,143679,2,0,P|279:277|294:230,1,82.5,8|0,0:0|0:0,0:0:0:0:
190,148,144013,2,0,P|199:189|195:230,1,82.5,0|0,0:0|0:0,0:0:0:0:
102,191,144346,2,0,P|85:153|58:123,1,82.5,0|0,0:0|0:0,0:0:0:0:
0,284,144679,6,0,P|37:303|159:319,1,165,0|0,1:0|0:0,0:0:0:0:
229,212,145179,2,0,P|266:193|388:177,1,165,0|0,0:0|0:0,0:0:0:0:
499,361,145679,5,8,0:0:0:0:
469,245,145846,1,0,0:0:0:0:
405,86,146013,5,0,0:0:0:0:
386,176,146179,1,0,0:0:0:0:
339,301,146346,5,0,1:0:0:0:
328,261,146513,1,0,0:0:0:0:
229,211,146679,6,0,P|166:262|159:342,1,165,0|0,1:0|0:0,0:0:0:0:
158,341,147346,2,0,P|126:344|76:365,1,82.5,0|0,0:0|0:0,0:0:0:0:
0,169,147679,6,0,P|37:185|78:190,1,82.5,8|0,0:0|0:0,0:0:0:0:
122,38,148013,2,0,P|88:62|64:95,1,82.5,0|0,0:0|0:0,0:0:0:0:
174,209,148346,2,0,P|169:168|153:130,1,82.5,0|0,0:0|0:0,0:0:0:0:
50,318,148679,6,0,P|121:359|211:373,2,165,0|0|0,1:0|0:0|0:0,0:0:0:0:
245,281,149679,2,0,P|277:281|335:258,1,82.5,8|0,0:0|0:0,0:0:0:0:
413,113,150013,2,0,L|400:205,1,82.5,0|0,1:0|0:0,0:0:0:0:
410,204,150263,1,0,1:0:0:0:
418,213,150346,2,0,P|386:213|328:236,1,82.5,0|0,1:0|1:0,0:0:0:0:
198,348,150679,6,0,P|118:361|50:318,1,165,0|0,1:0|0:0,0:0:0:0:
75,229,151179,1,0,1:0:0:0:
266,165,151346,2,0,P|275:135|278:69,1,82.5,8|0,0:0|1:0,0:0:0:0:
115,0,151679,6,0,P|118:81|156:154,1,165,0|0,1:0|0:0,0:0:0:0:
200,60,152179,1,0,1:0:0:0:
88,211,152346,2,0,P|46:208|7:197,1,82.5,8|0,0:0|0:0,0:0:0:0:
232,254,152679,6,0,P|266:233|402:216,1,165,0|0,1:0|0:0,0:0:0:0:
496,349,153179,1,8,0:0:0:0:
429,294,153346,2,0,L|348:313,1,82.5,0|0,1:0|0:0,0:0:0:0:
246,360,153679,5,8,0:0:0:0:
246,360,154013,2,0,B|225:296|286:253|286:253|272:293,1,165,8|0,0:0|1:0,0:0:0:0:
