osu file format v14

[General]
AudioFilename: audio.mp3
AudioLeadIn: 0
PreviewTime: 69513
Countdown: 0
SampleSet: Soft
StackLeniency: 0.3
Mode: 0
LetterboxInBreaks: 0
WidescreenStoryboard: 0

[Editor]
Bookmarks: 44346,52429
DistanceSpacing: 1.4
BeatDivisor: 4
GridSize: 32
TimelineZoom: 4.199999

[Metadata]
Title:Geurida
TitleUnicode:그리다
Artist:Memme
ArtistUnicode:Memme
Creator:NeilPerry
Version:Hard
Source:O2Jam U
Tags:lee eun jin seiyun korean missing you electronic oriental drumstep sing lowcombofc lcfc sulfur su1fu7
BeatmapID:1459308
BeatmapSetID:688183

[Difficulty]
HPDrainRate:5
CircleSize:4
OverallDifficulty:6
ApproachRate:7.5
SliderMultiplier:1.2
SliderTickRate:1

[Events]
//Background and Video events
0,0,"cherry.png",0,0
//Break Periods
2,86879,89854
2,122879,127854
//Storyboard Layer 0 (Background)
//Storyboard Layer 1 (Fail)
//Storyboard Layer 2 (Pass)
//Storyboard Layer 3 (Foreground)
//Storyboard Sound Samples

[TimingPoints]
1680,333.333333333333,3,2,1,70,1,0
19013,-117.647058823529,3,2,1,30,0,0
33513,-100,3,2,1,30,0,0
42679,-83.3333333333333,3,2,1,70,0,1
46679,-100,3,2,1,70,0,0
70013,-83.3333333333333,3,2,1,70,0,0
70679,-100,3,2,1,70,0,0
94679,-117.647058823529,3,2,1,70,0,0
97679,-100,3,2,1,70,0,0
102013,-83.3333333333333,3,2,1,70,0,0
102679,-83.3333333333333,3,2,1,70,0,1
108679,-83.3333333333333,3,2,1,70,0,0
110679,-83.3333333333333,3,2,1,70,0,1
114679,-100,3,2,1,70,0,0
130679,-100,3,2,1,70,0,0
138679,-83.3333333333333,3,2,1,70,0,1
150679,-100,3,2,1,70,0,1
154679,-100,3,2,1,70,0,0

[Colours]
Combo1 : 255,187,213
Combo2 : 160,248,103
Combo3 : 128,118,250
Combo4 : 248,179,95
Combo5 : 254,73,146
Combo6 : 186,194,203
Combo7 : 254,232,163
Combo8 : 68,194,255

[HitObjects]
71,124,1679,54,0,L|57:89,1,30,0|0,0:0|0:0,0:0:0:0:
45,136,1846,2,0,L|27:96,2,30,0|0|0,1:0|1:0|1:0,0:0:0:0:
38,217,2179,1,0,1:0:0:0:
38,301,2346,2,0,P|77:306|132:298,1,90,0|0,1:0|0:0,0:0:0:0:
142,291,2679,6,0,B|207:286|183:314|279:312,1,120,2|0,1:1|0:0,0:0:0:0:
331,270,3179,2,0,P|357:209|407:149,1,120,0|0,0:1|0:0,0:0:0:0:
316,124,3679,38,0,P|290:63|240:3,1,120,10|0,0:1|0:1,0:0:0:0:
425,33,4346,1,2,0:1:0:0:
451,112,4513,1,0,0:0:0:0:
477,191,4679,86,0,B|408:226|352:183|400:144,1,120,2|0,1:0|0:0,0:0:0:0:
313,119,5179,2,0,P|325:163|325:244,1,120,2|0,0:1|0:0,0:0:0:0:
302,318,5679,102,0,P|248:311|256:247,1,120,10|0,0:1|0:0,0:0:0:0:
202,92,6346,1,0,0:0:0:0:
235,168,6513,1,0,0:0:0:0:
171,223,6679,38,0,B|115:270|117:222|49:268,1,120,2|0,1:0|0:0,0:0:0:0:
15,332,7179,2,0,P|11:278|-7:191,1,120,0|0,0:0|0:0,0:0:0:0:
69,167,7679,86,0,P|73:130|105:107,1,60,10|0,1:0|0:0,0:0:0:0:
146,53,8013,2,0,P|173:92|167:116,1,60,0|0,0:0|0:0,0:0:0:0:
180,193,8346,2,0,B|175:173|212:165|246:180|264:213,1,90,2|0,0:1|0:0,0:0:0:0:
256,208,8679,102,0,P|251:264|252:341,1,120,2|0,1:0|0:0,0:0:0:0:
334,319,9179,2,0,B|403:315|370:354|465:340,1,120,0|0,0:0|0:0,0:0:0:0:
470,260,9679,38,0,P|478:229|488:198,1,60,8|0,0:0|0:0,0:0:0:0:
410,164,10013,2,0,P|402:133|392:102,1,60,0|0,0:0|0:0,0:0:0:0:
309,98,10346,1,2,1:0:0:0:
231,73,10513,1,0,0:0:0:0:
152,52,10679,86,0,B|111:34|65:50|41:82|75:96,1,120,2|0,1:0|0:0,0:0:0:0:
135,137,11179,2,0,P|124:189|116:277,1,120,0|0,0:0|0:0,0:0:0:0:
98,337,11679,102,0,P|75:281|30:226,1,120,10|0,0:1|0:0,0:0:0:0:
199,284,12346,1,2,1:0:0:0:
282,294,12513,1,0,0:0:0:0:
327,364,12679,38,0,B|299:258|387:281|369:180,1,180,2|8,1:0|0:1,0:0:0:0:
315,133,13346,1,2,1:0:0:0:
462,214,13679,86,0,B|468:186|429:160|390:173|357:211,1,120,10|0,0:1|1:0,0:0:0:0:
288,215,14179,2,0,P|288:228|300:253,2,30,0|0|0,1:0|1:0|1:0,0:0:0:0:
312,137,14513,1,0,1:0:0:0:
230,157,14679,102,0,P|172:167|104:182,1,120,2|0,1:0|0:0,0:0:0:0:
52,239,15179,2,0,P|42:213|14:172,1,60,2|8,1:0|0:0,0:0:0:0:
65,111,15513,1,0,1:0:0:0:
120,48,15679,38,0,P|179:58|237:70,1,120,2|0,1:0|0:0,0:0:0:0:
303,18,16179,2,0,P|313:44|341:85,1,60,2|8,1:1|0:1,0:0:0:0:
282,141,16513,1,0,0:0:0:0:
267,223,16679,86,0,P|258:276|251:366,1,120,2|0,1:0|0:0,0:0:0:0:
174,374,17179,1,8,0:0:0:0:
170,289,17346,2,0,B|167:262|125:255|89:269|62:303,1,120,2|8,1:0|0:0,0:0:0:0:
69,294,18013,86,0,B|35:225|51:177|51:177|68:128|30:49,1,240,10|0,0:1|1:0,0:0:0:0:
164,146,19013,6,0,P|213:150|272:169,2,102.000001945496,0|0|0,0:0|0:0|0:0,0:0:0:0:
134,296,20013,2,0,P|85:300|26:319,2,102.000001945496,0|0|0,0:0|0:0|0:0,0:0:0:0:
467,332,21679,6,0,P|476:300|490:267,1,51.0000009727478,0|0,0:0|0:0,0:0:0:0:
425,231,22013,2,0,P|416:199|402:166,1,51.0000009727478,0|0,0:0|0:0,0:0:0:0:
474,141,22346,2,0,P|483:109|497:76,1,51.0000009727478,0|0,0:0|0:0,0:0:0:0:
457,22,22679,22,0,B|350:6|373:75|235:45,1,204.000003890991,0|0,0:0|0:0,0:0:0:0:
109,16,23679,2,0,P|124:106|129:226,1,204.000003890991
118,371,24679,69,0,0:0:0:0:
239,277,25013,2,0,P|256:262|294:245,1,51.0000009727478
302,175,25346,2,0,P|323:182|350:214,1,51.0000009727478
412,168,25679,6,0,P|396:216|381:281,1,102.000001945496
417,334,26179,2,0,P|439:321|452:300,2,51.0000009727478
327,344,26679,22,0,P|275:349|225:362,2,102.000001945496
236,229,27679,2,0,B|203:148|249:149|203:66,1,153.000002918243
139,49,28346,2,0,P|129:65|133:98,1,51.0000009727478
148,170,28679,70,0,P|96:180|42:196,1,102.000001945496,0|0,0:0|0:0,0:0:0:0:
163,295,29346,2,0,P|173:319|200:337,1,51.0000009727478,0|0,0:0|0:0,0:0:0:0:
239,273,29679,6,0,P|250:192|263:115,1,153.000002918243,0|0,0:0|0:0,0:0:0:0:
325,76,30346,2,0,P|308:56|285:49,1,51.0000009727478,0|0,0:0|0:0,0:0:0:0:
209,63,30679,22,0,B|94:52|134:139|1:102,1,204.000003890991,0|0,0:0|0:0,0:0:0:0:
155,173,31679,2,0,P|146:268|135:381,1,204.000003890991,0|0,0:0|0:0,0:0:0:0:
244,268,32679,70,0,B|307:304|428:291|416:207|380:238,1,204.000003890991,0|0,0:0|0:0,0:0:0:0:
351,157,33513,102,0,P|324:169|307:200,1,60,0|0,0:0|1:0,0:0:0:0:
224,184,33846,1,0,1:0:0:0:
224,184,33929,1,0,1:0:0:0:
224,184,34013,2,0,P|208:158|181:146,2,60,0|0|0,1:0|1:0|1:0,0:0:0:0:
273,115,34513,2,0,L|281:46,1,60,0|0,1:0|1:0,0:0:0:0:
445,83,35013,6,0,L|517:96,2,60,0|0|0,0:0|0:0|0:0,0:0:0:0:
350,221,35679,2,0,L|214:240,2,120,8|0|0,0:0|0:0|0:0,0:0:0:0:
368,53,36679,5,0,1:0:0:0:
432,208,37013,2,0,P|420:247|412:276,1,60,0|0,0:0|0:0,0:0:0:0:
335,294,37346,2,0,P|347:333|355:362,1,60,0|0,0:0|0:0,0:0:0:0:
433,372,37679,22,0,P|477:370|482:304,2,120,8|0|0,0:0|0:0|0:0,0:0:0:0:
267,343,38679,69,0,1:0:0:0:
335,189,39013,2,0,P|324:152|300:136,1,60,0|0,0:0|0:0,0:0:0:0:
369,81,39346,2,0,P|336:59|308:62,1,60,0|0,0:0|0:0,0:0:0:0:
239,94,39679,6,0,B|174:91|197:128|110:121,1,120,8|0,0:0|0:0,0:0:0:0:
68,58,40179,2,0,P|91:137|96:236,1,180,0|0,0:0|1:0,0:0:0:0:
264,232,41013,22,0,P|275:269|299:285,1,60,0|0,0:0|0:0,0:0:0:0:
230,340,41346,2,0,P|262:361|290:358,1,60,0|0,0:0|0:0,0:0:0:0:
358,323,41679,53,8,1:0:0:0:
383,242,41846,2,0,L|398:190,2,30,0|0|0,1:0|1:0|1:0,0:0:0:0:
439,303,42179,2,0,L|480:325,2,30,0|0|0,1:0|1:0|1:0,0:0:0:0:
262,204,42679,37,0,1:0:0:0:
279,120,42846,1,0,1:0:0:0:
279,120,42929,1,0,1:0:0:0:
279,120,43013,2,0,P|286:84|297:41,1,71.9999978027344,0|0,1:0|1:0,0:0:0:0:
368,4,43346,2,0,P|388:41|373:70,1,71.9999978027344,0|0,1:0|1:0,0:0:0:0:
454,105,43679,54,0,P|431:140|399:142,1,71.9999978027344,8|0,1:0|1:0,0:0:0:0:
351,212,44013,1,0,1:0:0:0:
385,290,44179,1,0,1:0:0:0:
385,290,44262,1,0,1:0:0:0:
385,290,44346,2,0,P|392:326|403:369,1,71.9999978027344,0|0,1:0|1:0,0:0:0:0:
314,352,44679,6,0,P|280:315|295:282,1,71.9999978027344,0|0,1:0|1:0,0:0:0:0:
196,292,45013,2,0,P|211:244|247:240,1,71.9999978027344,0|0,1:0|1:0,0:0:0:0:
191,159,45346,2,0,P|240:148|261:177,1,71.9999978027344,0|0,1:0|1:0,0:0:0:0:
308,225,45679,37,8,1:0:0:0:
362,60,46013,2,0,L|340:128,1,71.9999978027344,0|0,1:0|1:0,0:0:0:0:
391,198,46346,2,0,L|412:266,1,71.9999978027344,0|0,1:0|1:0,0:0:0:0:
436,347,46679,86,0,B|310:378|353:273|208:302,1,240,0|0,1:0|0:0,0:0:0:0:
49,347,47679,2,0,B|77:371|141:390|193:354|221:297|165:244|129:295,1,240,8|0,0:0|0:0,0:0:0:0:
205,136,48679,6,0,P|215:237|260:384,1,240,0|0,1:0|0:0,0:0:0:0:
316,213,49679,85,8,0:0:0:0:
343,132,49846,2,0,L|357:91,2,30,0|0|0,0:0|0:0|0:0,0:0:0:0:
412,179,50179,2,0,L|426:138,2,30,0|0|0,1:0|1:0|1:0,0:0:0:0:
482,225,50513,2,0,L|496:184,2,30,0|0|0,1:0|0:0|1:0,0:0:0:0:
329,295,51013,6,0,P|293:303|256:320,2,60,0|0|0,0:0|0:0|0:0,0:0:0:0:
164,255,51679,1,8,0:0:0:0:
325,203,52013,1,2,0:1:0:0:
342,121,52179,2,0,P|327:106|305:96,2,30,0|0|0,0:0|0:0|0:0,0:0:0:0:
405,65,52513,1,0,0:0:0:0:
445,138,52679,38,0,P|456:79|474:17,2,120,0|0|0,1:0|0:0|0:0,0:0:0:0:
328,16,53679,69,8,0:0:0:0:
221,146,54013,2,0,P|230:162|243:170,3,30,0|0|0|0,0:0|0:0|0:0|0:0,0:0:0:0:
241,126,54346,2,0,P|250:142|263:150,3,30,0|0|0|0,1:0|0:0|0:0|0:0,0:0:0:0:
267,107,54679,6,0,P|293:141|316:148,1,60,0|0,1:0|0:0,0:0:0:0:
381,183,55013,2,0,P|386:137|418:47,2,120,0|0|8,0:0|0:0|0:0,0:0:0:0:
236,269,56013,22,0,P|245:253|258:245,3,30,0|0|0|0,0:0|0:0|0:0|0:0,0:0:0:0:
256,289,56346,2,0,P|265:273|278:265,3,30,0|0|0|0,1:0|0:0|0:0|0:0,0:0:0:0:
286,306,56679,70,0,P|224:310|164:321,1,120,0|0,1:0|0:0,0:0:0:0:
85,340,57179,1,8,0:0:0:0:
112,260,57346,2,0,L|90:189,1,60,0|0,1:0|0:0,0:0:0:0:
147,137,57679,5,8,0:0:0:0:
62,134,57846,2,0,P|31:153|23:186,1,60,8|0,0:0|1:0,0:0:0:0:
30,257,58179,1,8,1:0:0:0:
112,260,58346,2,0,B|163:267|213:229|202:190|159:219,1,120,0|0,1:0|1:0,0:0:0:0:
271,72,59013,22,0,P|256:102|243:134,2,60
314,235,59679,1,8,0:0:0:0:
356,72,60013,1,2,0:1:0:0:
433,104,60179,2,0,P|424:123|414:149,2,30,0|0|2,0:0|0:0|0:1,0:0:0:0:
424,19,60513,1,0,0:0:0:0:
352,62,60679,70,0,P|295:71|220:92,2,120,0|0|0,1:0|0:0|0:0,0:0:0:0:
188,22,61679,5,8,0:0:0:0:
128,179,62013,2,0,P|139:200|157:211,3,30,2|0|0|0,0:1|0:0|0:0|0:0,0:0:0:0:
102,195,62346,2,0,P|113:216|131:227,3,30,2|0|2|0,0:1|0:0|0:1|0:0,0:0:0:0:
79,237,62679,22,0,B|179:221|141:304|268:264,1,180,0|0,1:0|0:0,0:0:0:0:
331,251,63346,2,0,P|304:207|278:196,1,60,0|0,0:0|0:0,0:0:0:0:
214,194,63679,70,0,P|204:125|185:13,1,180,8|0,0:0|0:0,0:0:0:0:
100,15,64346,2,0,P|100:58|120:84,1,60,0|0,0:0|0:0,0:0:0:0:
131,152,64679,6,0,P|184:110|303:64,1,180,0|0,1:0|0:0,0:0:0:0:
342,3,65346,2,0,P|368:36|367:70,1,60,0|0,0:0|0:0,0:0:0:0:
336,129,65679,22,0,P|309:209|300:330,1,180,8|0,0:0|0:0,0:0:0:0:
335,379,66346,2,0,P|369:346|370:324,1,60,0|0,1:0|0:0,0:0:0:0:
386,252,66679,70,0,P|313:198|229:167,2,180,0|0|8,1:0|0:0|0:0,0:0:0:0:
221,287,68013,2,0,P|162:296|91:322,2,120,0|0|2,0:0|0:0|1:1,0:0:0:0:
129,145,69013,38,0,P|70:136|-1:110,2,120,2|0|8,0:1|0:1|0:0,0:0:0:0:
196,94,69846,53,0,0:0:0:0:
196,94,69929,1,0,0:0:0:0:
196,94,70013,2,0,P|180:47|154:13,1,71.9999978027344,2|2,0:1|0:1,0:0:0:0:
254,28,70346,2,0,P|275:11|296:10,3,35.9999989013672,2|2|2|0,0:1|0:1|0:1|0:1,0:0:0:0:
280,51,70679,6,0,P|269:106|259:182,1,120,0|0,1:0|0:0,0:0:0:0:
359,305,71346,2,0,P|341:271|292:271,1,90,0|0,0:0|0:0,0:0:0:0:
289,280,71679,6,0,P|239:304|167:322,2,120,8|0|0,0:0|0:0|0:0,0:0:0:0:
293,195,72513,1,0,0:0:0:0:
285,111,72679,70,0,P|277:49|267:-16,1,120,0|0,1:0|0:0,0:0:0:0:
186,13,73179,2,0,P|195:72|202:131,1,120,0|0,0:0|0:0,0:0:0:0:
174,210,73679,70,0,B|281:227|236:151|351:166,1,180,8|0,0:0|0:0,0:0:0:0:
423,147,74346,2,0,P|414:192|402:256,1,90,0|0,1:0|0:0,0:0:0:0:
402,251,74679,54,0,P|363:262|346:245,1,60,0|0,1:0|0:0,0:0:0:0:
341,336,75013,2,0,P|301:326|295:302,1,60,0|0,0:0|0:0,0:0:0:0:
211,302,75346,2,0,P|223:257|271:238,1,90,0|0,0:0|0:0,0:0:0:0:
270,234,75679,6,0,P|285:203|285:164,1,60,8|0,0:0|0:0,0:0:0:0:
365,146,76013,2,0,P|345:117|311:98,1,60,0|0,0:0|0:0,0:0:0:0:
333,19,76346,2,0,P|285:23|249:78,1,90,0|0,0:0|0:0,0:0:0:0:
250,65,76679,6,0,P|205:108|148:107,1,120,0|0,1:0|0:0,0:0:0:0:
90,48,77179,1,0,0:0:0:0:
182,188,77513,1,0,0:0:0:0:
106,225,77679,70,0,L|124:299,1,60,8|0,0:0|0:0,0:0:0:0:
36,298,78013,2,0,L|54:372,1,60,0|2,0:0|0:1,0:0:0:0:
133,364,78346,2,0,P|176:368|234:376,1,90,2|0,1:1|0:1,0:0:0:0:
236,374,78679,70,0,P|262:337|209:296,1,120,0|0,1:0|0:0,0:0:0:0:
375,245,79346,2,0,P|386:208|417:151,1,90,0|0,0:0|0:0,0:0:0:0:
423,163,79679,54,0,P|477:158|479:104,2,120,8|0|0,0:0|0:0|1:0,0:0:0:0:
360,105,80513,1,0,0:0:0:0:
276,101,80679,6,0,P|221:106|154:116,1,120,0|0,1:0|0:0,0:0:0:0:
91,167,81179,1,8,0:0:0:0:
85,83,81346,2,0,P|97:58|140:47,1,60,0|0,1:0|0:0,0:0:0:0:
155,124,81679,6,0,P|143:180|141:266,1,120,8|0,1:0|1:0,0:0:0:0:
59,268,82179,1,0,1:0:0:0:
59,268,82263,1,0,1:0:0:0:
59,268,82346,2,0,P|84:312|120:337,1,90,0|0,1:0|0:0,0:0:0:0:
126,340,82679,70,0,B|188:352|192:299|254:311,1,120,0|0,1:0|0:0,0:0:0:0:
322,303,83179,2,0,L|307:375,1,60,0|8,1:0|0:0,0:0:0:0:
393,350,83513,1,0,1:0:0:0:
401,266,83679,86,0,P|392:206|379:136,1,120,0|0,1:0|0:0,0:0:0:0:
433,81,84179,2,0,L|452:6,1,60,0|8,1:0|0:0,0:0:0:0:
363,30,84513,1,0,0:0:0:0:
311,96,84679,102,0,P|266:111|192:132,1,120,0|0,1:0|0:0,0:0:0:0:
154,57,85179,1,8,0:0:0:0:
82,12,85346,2,0,B|55:15|48:57|62:93|96:120,1,120,0|8,1:0|0:0,0:0:0:0:
87,112,86013,54,0,B|121:181|105:229|105:229|88:278|126:357,1,240,8|0,0:0|1:0,0:0:0:0:
256,192,90679,12,0,93679,0:0:0:0:
357,233,94013,37,0,1:0:0:0:
358,149,94179,2,0,P|337:151|322:158,2,30,0|0|0,1:0|0:0|1:0,0:0:0:0:
433,187,94513,1,0,1:0:0:0:
475,255,94679,86,0,P|479:184|488:99,1,153.000002918243,0|0,1:0|0:0,0:0:0:0:
460,17,95346,2,0,P|422:30|416:49,1,51.0000009727478,0|0,0:0|0:0,0:0:0:0:
411,118,95679,6,0,P|378:129|347:123,1,51.0000009727478,0|0,1:0|0:0,0:0:0:0:
296,78,96013,2,0,P|263:80|252:104,1,51.0000009727478,0|0,1:0|1:0,0:0:0:0:
185,137,96346,2,0,P|203:164|229:162,1,51.0000009727478,0|0,1:0|1:0,0:0:0:0:
298,185,96679,22,0,P|302:209|308:247,2,51.0000009727478,0|0|0,1:0|1:0|0:0,0:0:0:0:
379,177,97179,2,0,P|383:153|389:115,2,51.0000009727478,0|0|0,1:0|0:0|1:0,0:0:0:0:
456,233,97679,6,0,P|425:259|417:315,1,90,0|0,1:0|1:0,0:0:0:0:
419,316,98013,2,0,P|373:311|334:339,1,90,0|0,1:0|1:0,0:0:0:0:
331,340,98346,2,0,P|287:345|260:325,1,60,0|0,1:0|0:0,0:0:0:0:
200,298,98679,37,0,1:0:0:0:
270,234,98846,1,0,1:0:0:0:
270,234,98929,1,0,1:0:0:0:
270,234,99013,2,0,L|282:166,2,60,0|0|0,1:0|1:0|1:0,0:0:0:0:
187,248,99513,1,0,1:0:0:0:
113,287,99679,86,0,L|125:355,1,60,0|0,1:0|1:0,0:0:0:0:
39,353,100013,1,0,1:0:0:0:
26,270,100179,1,0,1:0:0:0:
26,270,100263,1,0,1:0:0:0:
26,270,100346,2,0,P|17:223|1:165,1,90,0|0,1:0|0:0,0:0:0:0:
15,179,100679,22,0,B|53:193|53:193|148:181,1,120,0|0,1:0|0:0,0:0:0:0:
215,176,101179,1,0,1:0:0:0:
215,176,101263,1,0,1:0:0:0:
215,176,101346,2,0,L|233:45,1,120,0|8,1:0|0:0,0:0:0:0:
432,40,102013,86,0,B|399:22|399:22|327:37,1,107.999996704102,2|0,1:0|0:0,0:0:0:0:
323,44,102346,1,10,0:1:0:0:
479,120,102679,6,0,P|471:173|453:268,1,143.999995605469,2|0,1:0|0:0,0:0:0:0:
413,338,103179,1,0,0:0:0:0:
413,338,103263,1,0,0:0:0:0:
413,338,103346,2,0,P|374:293|376:271,1,71.9999978027344,2|0,0:1|0:1,0:0:0:0:
390,199,103679,6,0,B|317:182|327:251|225:223,1,143.999995605469,10|0,0:1|1:0,0:0:0:0:
186,173,104179,1,2,1:1:0:0:
270,153,104346,2,0,P|261:108|250:74,1,71.9999978027344,2|0,1:1|0:1,0:0:0:0:
193,20,104679,37,0,1:0:0:0:
129,78,104846,2,0,P|118:112|112:147,1,71.9999978027344,2|0,0:1|0:1,0:0:0:0:
54,211,105179,1,0,0:1:0:0:
54,211,105263,1,0,0:1:0:0:
54,211,105346,2,0,P|95:235|125:226,1,71.9999978027344,2|0,0:1|0:0,0:0:0:0:
201,214,105679,54,0,B|287:208|256:269|362:243,1,143.999995605469,10|2,0:1|1:1,0:0:0:0:
404,194,106179,1,0,1:0:0:0:
320,172,106346,2,0,P|315:136|329:98,1,71.9999978027344,0|0,1:0|0:0,0:0:0:0:
375,31,106679,6,0,B|399:2|445:34|450:73|423:139,1,143.999995605469,2|0,1:0|0:0,0:0:0:0:
485,185,107179,1,0,0:0:0:0:
485,185,107263,1,0,0:0:0:0:
485,185,107346,2,0,P|494:229|511:276,1,71.9999978027344,2|0,0:1|0:0,0:0:0:0:
428,299,107679,38,0,P|419:255|402:208,1,71.9999978027344,10|0,0:1|0:0,0:0:0:0:
362,156,108013,2,0,P|330:141|280:160,2,71.9999978027344,2|0|2,0:1|0:0|0:1,0:0:0:0:
297,315,108679,6,0,P|291:231|274:163,1,143.999995605469,2|0,1:0|0:0,0:0:0:0:
198,136,109179,1,8,0:0:0:0:
147,206,109346,2,0,P|198:223|230:210,1,71.9999978027344,2|0,1:0|0:0,0:0:0:0:
281,164,109679,21,8,0:0:0:0:
266,78,109846,1,8,0:0:0:0:
193,30,110013,2,0,B|152:17|152:17|72:43,1,107.999996704102,2|0,1:1|0:0,0:0:0:0:
81,44,110346,1,10,0:1:0:0:
201,168,110679,6,0,P|195:234|187:320,1,143.999995605469,2|0,1:0|0:0,0:0:0:0:
272,326,111179,1,0,0:0:0:0:
272,326,111263,1,0,0:0:0:0:
272,326,111346,2,0,P|304:347|345:346,1,71.9999978027344,2|0,0:1|0:0,0:0:0:0:
414,310,111679,6,0,B|453:287|419:242|372:236|340:247|320:285,1,143.999995605469,10|0,0:1|0:0,0:0:0:0:
255,232,112179,1,2,1:1:0:0:
322,178,112346,2,0,P|330:142|338:92,1,71.9999978027344,2|0,1:1|1:0,0:0:0:0:
398,47,112679,37,0,1:1:0:0:
314,25,112846,2,0,P|269:48|268:82,1,71.9999978027344,2|0,0:1|0:0,0:0:0:0:
185,99,113179,1,0,0:0:0:0:
185,99,113263,1,0,0:0:0:0:
185,99,113346,2,0,P|210:141|245:139,1,71.9999978027344,2|0,0:1|0:0,0:0:0:0:
226,230,113679,54,0,B|316:235|266:178|373:183,1,143.999995605469,10|2,0:1|0:1,0:0:0:0:
426,233,114179,1,0,0:0:0:0:
429,146,114346,2,0,P|396:109|367:107,1,71.9999978027344,2|0,1:1|0:0,0:0:0:0:
292,97,114679,70,0,P|307:170|316:292,1,180,0|0,1:0|0:0,0:0:0:0:
392,311,115346,2,0,P|364:346|344:351,1,60,8|0,0:0|0:0,0:0:0:0:
315,274,115679,54,0,P|232:262|136:231,1,180,0|0,1:1|0:0,0:0:0:0:
61,264,116346,2,0,P|82:299|114:306,1,60,8|0,0:0|0:0,0:0:0:0:
140,232,116679,54,0,B|107:173|133:111|186:78|215:131,1,180,0|0,1:1|0:0,0:0:0:0:
264,59,117346,2,0,P|287:77|278:124,1,60,8|0,0:0|0:0,0:0:0:0:
255,182,117679,54,0,B|370:163|311:239|449:217,1,180,0|0,1:1|0:0,0:0:0:0:
504,196,118346,2,0,P|481:157|443:152,1,60,0|0,1:0|0:0,0:0:0:0:
256,192,118679,12,8,119679,0:0:0:0:
213,107,120346,5,0,1:0:0:0:
171,269,120679,2,0,P|162:206|141:134,1,120,0|0,1:0|0:0,0:0:0:0:
81,98,121179,5,8,0:0:0:0:
150,50,121346,1,0,1:0:0:0:
213,107,121513,2,0,L|264:121,2,30,0|0|0,1:0|1:0|1:0,0:0:0:0:
214,191,121846,2,0,L|265:205,2,30,0|0|0,1:0|1:0|1:0,0:0:0:0:
209,275,122179,69,0,1:0:0:0:
204,359,122346,2,0,L|346:387,1,120,0|0,1:0|1:0,0:0:0:0:
256,192,128679,12,0,129679,0:0:0:0:
445,123,130013,5,0,1:1:0:0:
374,78,130179,1,0,1:1:0:0:
295,48,130346,2,0,P|253:55|207:73,1,90,0|0,1:1|0:0,0:0:0:0:
200,77,130679,102,0,P|200:139|193:217,1,120,0|0,1:0|0:0,0:0:0:0:
98,334,131346,2,0,P|63:326|52:279,1,60,0|0,0:0|0:0,0:0:0:0:
4,236,131679,54,0,P|29:224|64:226,1,60,8|0,0:0|0:0,0:0:0:0:
137,261,132013,2,0,P|173:279|200:273,1,60,0|0,0:0|0:0,0:0:0:0:
264,234,132346,2,0,P|300:216|327:222,1,60,0|0,0:0|0:0,0:0:0:0:
363,289,132679,70,0,P|373:235|395:156,2,120,0|0|0,1:0|0:0|0:0,0:0:0:0:
476,165,133679,2,0,P|466:111|444:32,2,120,8|0|0,0:0|0:0|0:0,0:0:0:0:
311,129,134679,54,0,B|242:120|256:154|182:146,1,120,0|0,1:0|0:0,0:0:0:0:
126,96,135179,1,0,0:0:0:0:
170,24,135346,2,0,P|203:51|203:74,1,60,0|0,0:0|0:0,0:0:0:0:
194,146,135679,86,0,P|184:192|214:283,1,120,8|0,0:0|0:0,0:0:0:0:
256,324,136179,1,0,0:0:0:0:
331,287,136346,2,0,P|316:265|280:248,1,60,0|0,0:0|0:0,0:0:0:0:
200,262,136679,22,0,P|167:282|88:300,1,120,0|8,1:0|0:0,0:0:0:0:
194,169,137346,1,0,1:0:0:0:
168,88,137513,54,0,L|157:54,2,30,0|0|2,1:0|1:0|0:1,0:0:0:0:
112,151,137846,2,0,L|90:122,2,30,2|0|0,1:0|1:0|1:0,0:0:0:0:
91,232,138179,2,0,L|60:213,2,30,0|0|0,1:0|1:0|1:0,0:0:0:0:
114,313,138513,1,0,1:0:0:0:
175,252,138679,102,0,B|263:239|220:306|343:283,1,143.999995605469,0|0,1:0|0:0,0:0:0:0:
394,136,139346,2,0,P|371:163|357:218,1,71.9999978027344,0|0,0:0|0:0,0:0:0:0:
393,276,139679,54,0,L|472:315,1,71.9999978027344,8|0,0:0|0:0,0:0:0:0:
504,234,140013,2,0,L|430:200,1,71.9999978027344,0|0,0:0|0:0,0:0:0:0:
474,124,140346,2,0,L|511:35,1,71.9999978027344,0|0,0:0|0:0,0:0:0:0:
415,53,140679,70,0,B|374:5|309:8|281:54|319:82,1,143.999995605469,0|0,1:0|0:0,0:0:0:0:
227,101,141179,2,0,P|258:138|289:144,2,71.9999978027344,0|0|0,0:0|0:0|0:0,0:0:0:0:
235,14,141679,102,0,B|165:6|127:45|148:74|104:113|30:96,1,215.999993408203,8|0,0:0|0:0,0:0:0:0:
15,179,142346,2,0,P|52:192|92:177,1,71.9999978027344,0|0,1:0|0:0,0:0:0:0:
163,151,142679,53,0,1:0:0:0:
334,126,143013,2,0,P|409:133|490:154,2,143.999995605469,0|0|8,0:0|0:0|0:0,0:0:0:0:
177,199,144013,70,0,P|170:156|197:119,1,71.9999978027344,0|0,0:0|0:0,0:0:0:0:
260,94,144346,2,0,P|226:121|180:116,1,71.9999978027344,0|0,0:0|0:0,0:0:0:0:
147,53,144679,38,0,P|93:52|95:143,1,143.999995605469,0|0,1:0|0:0,0:0:0:0:
17,190,145179,2,0,P|68:217|92:205,1,71.9999978027344,0|0,0:0|0:0,0:0:0:0:
151,168,145513,1,0,0:0:0:0:
158,253,145679,54,0,L|166:339,2,71.9999978027344,8|0|0,0:0|0:0|0:0,0:0:0:0:
231,207,146179,1,0,0:0:0:0:
228,120,146346,1,0,1:0:0:0:
235,292,146679,6,0,B|309:289|291:331|386:324,1,143.999995605469,0|0,1:0|0:0,0:0:0:0:
482,190,147346,2,0,L|474:105,1,71.9999978027344,0|0,0:0|0:0,0:0:0:0:
409,61,147679,38,0,P|370:71|352:110,1,71.9999978027344,8|0,0:0|0:0,0:0:0:0:
268,115,148013,2,0,P|284:155|321:169,1,71.9999978027344,0|0,0:0|0:0,0:0:0:0:
314,253,148346,2,0,P|356:245|377:199,1,71.9999978027344,0|0,0:0|0:0,0:0:0:0:
437,165,148679,54,0,P|453:100|484:20,2,143.999995605469,0|0|0,1:0|0:0|0:0,0:0:0:0:
435,338,149679,6,0,P|401:345|356:360,1,71.9999978027344,8|0,0:0|0:0,0:0:0:0:
281,378,150013,1,0,1:0:0:0:
306,295,150179,2,0,L|288:245,2,35.9999989013672,0|0|0,0:0|1:0|1:0,0:0:0:0:
421,172,150679,54,0,L|444:42,1,120,0|0,1:0|0:0,0:0:0:0:
371,8,151179,1,0,1:0:0:0:
356,91,151346,2,0,P|327:85|308:64,1,60,8|0,0:0|1:0,0:0:0:0:
236,19,151679,86,0,P|182:18|123:63,1,120,0|0,1:0|0:0,0:0:0:0:
96,131,152179,1,0,1:0:0:0:
101,214,152346,1,8,0:0:0:0:
256,275,152679,22,0,P|194:277|126:297,1,120,0|0,1:0|0:0,0:0:0:0:
54,282,153179,1,8,0:0:0:0:
101,214,153346,2,0,B|132:175|123:136|105:115|70:137,1,120,0|8,1:0|0:0,0:0:0:0:
77,132,154013,54,0,B|56:202|82:247|82:247|106:292|84:366,1,240,8|0,0:0|1:0,0:0:0:0:
