osu file format v14

[General]
AudioFilename: audio.mp3
AudioLeadIn: 0
PreviewTime: 69513
Countdown: 0
SampleSet: Soft
StackLeniency: 0.3
Mode: 0
LetterboxInBreaks: 0
WidescreenStoryboard: 0

[Editor]
Bookmarks: 44346,52429
DistanceSpacing: 1
BeatDivisor: 2
GridSize: 32
TimelineZoom: 1.4

[Metadata]
Title:Geurida
TitleUnicode:그리다
Artist:Memme
ArtistUnicode:Memme
Creator:NeilPerry
Version:Easy
Source:O2Jam U
Tags:lee eun jin seiyun korean missing you electronic oriental drumstep sing lowcombofc lcfc sulfur su1fu7
BeatmapID:1464403
BeatmapSetID:688183

[Difficulty]
HPDrainRate:2
CircleSize:3
OverallDifficulty:2
ApproachRate:3
SliderMultiplier:0.8
SliderTickRate:1

[Events]
//Background and Video events
0,0,"cherry.png",0,0
//Break Periods
2,18679,33239
2,86679,92239
2,94879,97239
2,122879,128906
//Storyboard Layer 0 (Background)
//Storyboard Layer 1 (Fail)
//Storyboard Layer 2 (Pass)
//Storyboard Layer 3 (Foreground)
//Storyboard Sound Samples

[TimingPoints]
1680,333.333333333333,3,2,1,70,1,0
34679,-100,3,2,1,30,0,0
42679,-100,3,2,1,70,0,1
46679,-100,3,2,1,70,0,0
70679,-100,3,2,1,70,0,0
97679,-100,3,2,1,70,0,0
102679,-100,3,2,1,70,0,1
108679,-100,3,2,1,70,0,0
110679,-100,3,2,1,70,0,1
114679,-100,3,2,1,70,0,0
138679,-100,3,2,1,70,0,1
154679,-100,3,2,1,70,0,0

[Colours]
Combo1 : 255,187,213
Combo2 : 160,248,103
Combo3 : 128,118,250
Combo4 : 248,179,95
Combo5 : 254,73,146
Combo6 : 186,194,203
Combo7 : 254,232,163
Combo8 : 68,194,255

[HitObjects]
60,103,2679,70,0,B|154:84|120:149|238:124,1,160,2|0,1:1|0:0,0:0:0:0:
207,48,3679,2,0,P|264:62|283:168,1,160,10|2,0:1|0:1,0:0:0:0:
250,220,4679,6,0,P|263:295|334:322,1,160,2|0,1:0|0:0,0:0:0:0:
414,332,5679,2,0,L|447:173,1,160,10|2,0:1|1:0,0:0:0:0:
471,99,6679,22,0,B|381:80|399:163|287:127,1,160,2|0,1:0|0:0,0:0:0:0:
246,104,7679,2,0,L|226:14,2,80,10|0|2,1:0|0:0|0:1,0:0:0:0:
255,183,8679,70,0,L|217:352,1,160,2|0,1:0|0:0,0:0:0:0:
140,346,9679,2,0,P|98:366|58:361,1,80,8|0,0:0|0:0,0:0:0:0:
10,304,10346,1,2,1:0:0:0:
87,283,10679,6,0,B|111:190|52:221|103:115,1,160,2|0,1:0|0:0,0:0:0:0:
153,70,11679,2,0,P|229:48|315:95,1,160,10|2,0:1|1:0,0:0:0:0:
305,158,12679,22,0,P|377:188|452:166,1,160,2|0,1:0|1:0,0:0:0:0:
490,96,13679,1,10,0:1:0:0:
479,255,14346,1,0,1:0:0:0:
444,327,14679,70,0,L|301:342,1,120,2|2,1:0|1:0,0:0:0:0:
229,266,15679,2,0,L|372:251,1,120,2|2,1:0|1:1,0:0:0:0:
456,305,16679,6,0,B|474:268|474:268|454:179,2,120,2|8|8,1:0|0:0|0:0,0:0:0:0:
405,367,18013,1,10,0:1:0:0:
163,75,34679,102,0,P|207:82|270:102,2,80,0|0|0,1:0|0:0|0:0,0:0:0:0:
96,119,35679,1,8,0:0:0:0:
68,43,36013,2,0,P|34:60|19:115,2,80,0|0|0,0:0|0:0|1:0,0:0:0:0:
294,122,37679,6,0,P|333:134|378:152,2,80,8|0|0,0:0|0:0|0:0,0:0:0:0:
217,98,38679,2,0,P|206:56|194:7,2,80,0|0|0,1:0|0:0|0:0,0:0:0:0:
237,175,39679,21,8,0:0:0:0:
224,254,40013,1,0,0:0:0:0:
77,317,40679,2,0,B|171:288|144:373|248:346,1,160,0|0,1:0|0:0,0:0:0:0:
304,337,41679,1,8,1:0:0:0:
465,159,42679,54,0,B|472:188|472:188|457:251,1,80,0|0,1:0|1:0,0:0:0:0:
433,312,43346,1,0,1:0:0:0:
381,250,43679,2,0,P|321:249|283:270,1,80,8|0,1:0|1:0,0:0:0:0:
234,297,44346,1,0,1:0:0:0:
229,217,44679,38,0,L|223:124,1,80,0|0,1:0|1:0,0:0:0:0:
218,57,45346,1,0,1:0:0:0:
288,18,45679,2,0,B|315:5|315:5|378:25,2,80,8|0|0,1:0|1:0|1:0,0:0:0:0:
320,91,46679,6,0,L|335:272,1,160,0|0,1:0|0:0,0:0:0:0:
357,326,47679,2,0,B|312:337|284:313|284:313|251:282|197:302,1,160,8|0,0:0|0:0,0:0:0:0:
138,342,48679,86,0,P|72:365|-2:305,1,160,0|0,1:0|0:0,0:0:0:0:
25,240,49679,1,8,0:0:0:0:
229,114,50679,102,0,L|243:21,2,80,0|0|0,1:0|0:0|0:0,0:0:0:0:
215,193,51679,1,8,0:0:0:0:
453,223,52679,6,0,L|471:331,2,80,0|0|0,1:0|0:0|0:0,0:0:0:0:
435,144,53679,1,8,0:0:0:0:
338,271,54346,1,0,1:0:0:0:
258,281,54679,22,0,L|95:302,1,160,0|0,1:0|0:0,0:0:0:0:
22,279,55679,2,0,P|59:230|102:224,1,80,8|0,0:0|0:0,0:0:0:0:
154,214,56346,1,0,1:0:0:0:
233,203,56679,6,0,L|255:42,1,160,0|0,1:0|1:0,0:0:0:0:
177,24,57679,2,0,L|165:111,2,80,8|0|0,0:0|1:0|1:0,0:0:0:0:
96,20,58679,54,0,P|53:24|20:54,2,80,0|0|0,1:0|0:0|0:0,0:0:0:0:
85,99,59679,1,8,0:0:0:0:
125,254,60346,1,2,0:1:0:0:
202,271,60679,6,0,P|237:278|282:315,2,80,0|0|0,1:0|0:0|0:0,0:0:0:0:
181,193,61679,2,0,P|174:139|154:104,2,80,8|2|2,0:0|0:1|0:1,0:0:0:0:
124,250,62679,22,0,P|83:264|44:304,1,80,0|0,1:0|0:0,0:0:0:0:
18,358,63346,1,0,0:0:0:0:
97,365,63679,2,0,P|134:357|173:317,1,80,8|0,0:0|0:0,0:0:0:0:
205,260,64346,1,0,0:0:0:0:
197,180,64679,6,0,L|184:77,1,80,0|0,1:0|0:0,0:0:0:0:
137,37,65346,1,0,0:0:0:0:
101,108,65679,2,0,L|114:211,1,80,8|0,0:0|0:0,0:0:0:0:
125,266,66346,1,0,1:0:0:0:
186,215,66679,6,0,B|337:198|262:296|428:269,1,240,0|8,1:0|0:0,0:0:0:0:
419,31,68679,6,0,B|271:6|346:104|195:87,1,240,2|8,1:1|0:0,0:0:0:0:
122,315,70679,22,0,P|109:226|89:149,1,160,0|0,1:0|0:0,0:0:0:0:
92,78,71679,2,0,B|63:76|63:76|8:112,2,80,8|0|0,0:0|0:0|0:0,0:0:0:0:
171,88,72679,6,0,L|338:123,1,160,0|0,1:0|0:0,0:0:0:0:
406,106,73679,2,0,P|403:149|382:178,1,80,8|0,0:0|0:0,0:0:0:0:
310,214,74346,1,0,1:0:0:0:
230,217,74679,70,0,P|188:227|159:263,2,80,0|0|0,1:0|0:0|0:0,0:0:0:0:
265,144,75679,2,0,P|249:97|213:71,2,80,8|0|0,0:0|0:0|0:0,0:0:0:0:
309,210,76679,70,0,P|385:231|464:308,1,160,0|0,1:0|0:0,0:0:0:0:
486,351,77679,1,8,0:0:0:0:
505,192,78346,1,2,1:1:0:0:
495,112,78679,54,0,B|411:102|428:160|319:129,1,160,0|0,1:0|0:0,0:0:0:0:
262,152,79679,2,0,B|252:117|252:117|298:52,2,80,8|0|0,0:0|0:0|1:0,0:0:0:0:
290,227,80679,6,0,L|319:355,2,120,0|8|8,1:0|0:0|1:0,0:0:0:0:
145,296,82346,1,0,1:0:0:0:
100,229,82679,6,0,B|83:178|83:178|111:90,1,120,0|0,1:0|1:0,0:0:0:0:
204,51,83679,2,0,B|221:102|221:102|197:180,1,120,0|0,1:0|1:0,0:0:0:0:
176,282,84679,70,0,L|38:320,2,120,0|8|8,1:0|0:0|0:0,0:0:0:0:
253,260,86013,1,8,0:0:0:0:
170,75,93679,22,0,B|266:63|220:118|357:104,1,160,0|0,0:0|1:0,0:0:0:0:
403,102,94679,1,0,1:0:0:0:
302,318,98679,5,0,1:0:0:0:
366,270,99013,2,0,P|368:219|345:178,1,80,0|0,1:0|1:0,0:0:0:0:
300,136,99679,1,0,1:0:0:0:
255,202,100013,2,0,P|183:227|77:226,1,160,0|0,1:0|1:0,0:0:0:0:
380,75,102013,22,0,B|366:101|366:101|372:172,1,80,2|10,1:0|0:1,0:0:0:0:
376,231,102679,54,0,L|461:251,2,80,2|0|2,1:0|0:0|0:1,0:0:0:0:
303,196,103679,2,0,B|172:190|208:277|69:253,1,240,10|0,0:1|1:0,0:0:0:0:
26,192,105013,38,0,P|24:150|27:103,1,80,0|2,0:1|0:1,0:0:0:0:
55,37,105679,2,0,P|104:31|108:177,1,240,10|2,0:1|1:0,0:0:0:0:
60,229,107013,54,0,P|97:257|144:238,1,80,0|2,0:0|0:1,0:0:0:0:
203,223,107679,1,10,0:1:0:0:
260,168,108013,2,0,P|298:166|326:194,1,80,2|2,0:1|0:1,0:0:0:0:
320,273,108679,70,0,L|309:367,2,80,2|0|2,1:0|0:0|1:0,0:0:0:0:
399,266,109679,2,0,L|408:186,2,80,8|2|10,0:0|1:1|0:1,0:0:0:0:
390,345,110679,54,0,B|426:356|426:356|496:338,2,80,2|0|2,1:0|0:0|0:1,0:0:0:0:
325,297,111679,2,0,B|171:341|230:235|75:259,1,240,10|0,0:1|1:1,0:0:0:0:
22,279,113013,38,0,B|12:248|12:248|40:191,1,80,0|2,0:0|0:1,0:0:0:0:
107,176,113679,2,0,L|123:8,1,160,10|2,0:1|1:1,0:0:0:0:
202,16,114679,6,0,P|247:25|270:65,1,80,0|0,1:0|0:0,0:0:0:0:
265,130,115346,1,8,0:0:0:0:
335,92,115679,2,0,P|371:84|417:101,1,80,0|0,1:1|0:0,0:0:0:0:
472,148,116346,1,8,0:0:0:0:
406,194,116679,6,0,P|370:202|324:185,1,80,0|0,1:1|0:0,0:0:0:0:
264,142,117346,1,8,0:0:0:0:
207,84,117679,2,0,P|162:76|113:103,1,80,0|0,1:1|0:0,0:0:0:0:
62,129,118346,1,0,1:0:0:0:
9,189,118679,6,0,B|149:172|70:277|240:240,1,240,0|8,1:1|0:0,0:0:0:0:
320,109,120346,2,0,L|337:15,1,80,0|0,1:0|1:0,0:0:0:0:
214,29,121179,6,0,P|115:29|82:56,1,120,8|0,0:0|1:0,0:0:0:0:
48,98,122013,2,8,P|39:135|46:186,1,80,8|4,1:0|0:0,0:0:0:0:
90,240,122679,1,0,3:0:0:0:
94,118,130346,5,0,1:1:0:0:
173,122,130679,2,0,B|242:126|242:126|259:142|259:142|352:148,1,160,0|0,1:0|0:0,0:0:0:0:
406,148,131679,38,0,L|427:63,2,80,8|0|0,0:0|0:0|0:0,0:0:0:0:
368,219,132679,2,0,L|389:304,2,80,0|0|0,1:0|0:0|0:0,0:0:0:0:
325,150,133679,54,0,L|234:117,1,80,8|0,0:0|0:0,0:0:0:0:
174,95,134346,1,0,0:0:0:0:
106,51,134679,70,0,B|86:89|86:89|117:173,1,120,0|0,1:0|0:0,0:0:0:0:
206,236,135679,2,0,B|226:198|226:198|194:113,1,120,8|0,0:0|0:0,0:0:0:0:
257,13,136679,86,0,B|160:3|205:65|71:48,1,160,0|0,1:0|1:0,0:0:0:0:
28,27,137679,1,2,0:1:0:0:
40,106,138013,2,0,L|58:206,1,80,0|0,1:0|1:0,0:0:0:0:
67,263,138679,86,0,B|108:286|108:286|235:257,1,160,0|0,1:0|0:0,0:0:0:0:
294,236,139679,2,0,L|308:137,2,80,8|0|0,0:0|0:0|0:0,0:0:0:0:
285,315,140679,38,0,L|465:337,1,160,0|0,1:0|0:0,0:0:0:0:
472,259,141679,1,8,0:0:0:0:
502,101,142346,1,0,1:0:0:0:
437,53,142679,54,0,P|470:26|507:19,2,80,0|0|0,1:0|0:0|0:0,0:0:0:0:
425,132,143679,2,0,P|430:174|418:209,2,80,8|0|0,0:0|0:0|0:0,0:0:0:0:
362,81,144679,6,0,B|315:74|315:74|227:99,1,120,0|0,1:0|0:0,0:0:0:0:
201,205,145679,2,0,B|234:213|234:213|299:192,1,80,8|0,0:0|0:0,0:0:0:0:
351,166,146346,1,0,1:0:0:0:
430,157,146679,38,0,B|442:250|399:211|421:331,1,160,0|0,1:0|0:0,0:0:0:0:
338,317,147679,2,0,P|348:361|401:387,2,80,8|0|0,0:0|0:0|0:0,0:0:0:0:
316,239,148679,54,0,P|276:260|264:317,2,80,0|0|0,1:0|0:0|0:0,0:0:0:0:
396,235,149679,2,0,P|400:165|372:63,1,160,8|0,0:0|1:0,0:0:0:0:
298,75,150679,70,0,P|260:119|245:198,1,120,0|0,1:0|1:0,0:0:0:0:
140,240,151679,2,0,P|178:284|193:363,1,120,0|0,1:0|1:0,0:0:0:0:
287,267,152679,86,0,P|336:242|339:172,2,120,0|8|8,1:0|0:0|0:0,0:0:0:0:
263,190,154013,1,8,0:0:0:0:
396,102,154679,101,0,1:0:0:0:
