osu file format v14

[General]
AudioFilename: audio.mp3
AudioLeadIn: 0
PreviewTime: 77448
Countdown: 0
SampleSet: Normal
StackLeniency: 1
Mode: 0
LetterboxInBreaks: 0
WidescreenStoryboard: 1

[Editor]
Bookmarks: 1448,13448,24114,45448,56114,77448,98781,112114
DistanceSpacing: 1.2
BeatDivisor: 4
GridSize: 4
TimelineZoom: 1.399999

[Metadata]
Title:Force of RA
TitleUnicode:Force of RA
Artist:Memme
ArtistUnicode:Memme
Creator:Castagne
Version:Normal
Source:Pump It Up Prime
Tags:electronic arabic instrumental video game 포스 오브 라 맴매 parkmemme
BeatmapID:2657838
BeatmapSetID:1270694

[Difficulty]
HPDrainRate:3
CircleSize:3
OverallDifficulty:4
ApproachRate:5
SliderMultiplier:1
SliderTickRate:1

[Events]
//Background and Video events
0,0,"ombel.jpg",0,0
//Break Periods
//Storyboard Layer 0 (Background)
//Storyboard Layer 1 (Fail)
//Storyboard Layer 2 (Pass)
//Storyboard Layer 3 (Foreground)
//Storyboard Layer 4 (Overlay)
//Storyboard Sound Samples

[TimingPoints]
147,333.333333333333,4,1,1,60,1,0
1813,-100,4,3,2,40,0,0
3980,-100,4,1,1,60,0,0
4813,-100,4,3,2,40,0,0
5313,-100,4,1,1,60,0,0
7146,-100,4,1,1,60,0,0
7313,-100,4,3,2,40,0,0
9313,-100,4,1,1,60,0,0
13480,-100,4,1,1,62,0,0
24146,-100,4,1,3,70,0,0
33480,-100,4,3,2,100,0,0
34813,-100,4,1,3,70,0,0
42813,-100,4,1,1,90,0,0
45480,-125,4,1,1,65,0,0
54813,-125,4,1,1,90,0,0
56146,-125,4,1,1,40,0,0
65646,-125,4,1,1,60,0,0
66646,-125,4,1,1,85,0,0
76813,-100,4,1,1,85,0,0
77480,-100,4,1,1,90,0,1
98813,-100,4,3,2,65,0,0
101480,-100,4,1,1,75,0,0
104146,-100,4,3,2,80,0,0
105313,-100,4,3,2,90,0,0
106813,-100,4,1,1,80,0,0
112146,-100,4,2,0,40,0,0

[Colours]
Combo1 : 113,143,54
Combo2 : 238,150,17
Combo3 : 128,30,84
Combo4 : 196,64,77

[HitObjects]
200,204,1313,6,0,P|196:175|188:143,1,50,0|4,1:0|0:0,0:0:0:0:
158,39,1813,6,0,L|265:42,1,100,4|0,0:0|0:0,0:0:0:0:
377,32,2480,1,0,0:0:0:0:
395,150,2813,2,0,P|347:142|286:140,1,100,2|0,0:0|0:0,0:0:0:0:
230,240,3480,2,0,P|278:232|339:230,1,100,2|0,0:0|0:0,0:0:0:0:
355,248,3980,1,4,0:0:0:0:
355,248,4146,6,0,P|349:295|346:361,1,100,10|2,0:0|0:0,0:0:0:0:
457,303,4813,2,0,P|454:253|448:203,1,100,4|0,0:0|0:0,0:0:0:0:
427,188,5313,1,4,0:0:0:0:
427,188,6646,6,0,L|429:133,1,50,2|4,0:0|0:0,0:0:0:0:
336,215,7146,6,0,P|284:215|228:205,1,100,0|0,0:0|0:0,0:0:0:0:
153,120,7813,1,0,0:0:0:0:
81,216,8146,2,0,P|74:272|71:320,1,100,2|0,0:0|0:0,0:0:0:0:
179,367,8813,2,0,P|175:317|169:267,1,100,2|0,0:0|0:0,0:0:0:0:
148,149,9480,6,0,B|201:167|201:167|288:125,1,150,4|4,0:0|0:0,0:0:0:0:
138,22,10480,2,0,B|85:4|85:4|-2:46,1,150,4|4,0:0|0:0,0:0:0:0:
86,203,11480,1,6,0:0:0:0:
205,195,11813,1,6,0:0:0:0:
301,276,12146,5,14,0:0:0:0:
301,276,13146,1,4,0:0:0:0:
195,334,13480,5,4,0:0:0:0:
85,285,13813,2,0,P|96:251|111:217,1,50,2|0,0:0|0:0,0:0:0:0:
119,220,14146,2,0,L|115:101,1,100,2|2,0:0|0:0,0:0:0:0:
126,97,14646,1,2,0:0:0:0:
137,74,14813,2,0,P|201:85|254:83,1,100,0|2,0:0|0:0,0:0:0:0:
259,75,15313,1,0,0:0:0:0:
259,75,15480,1,2,0:0:0:0:
297,188,15813,2,0,P|346:190|396:196,1,100,2|4,0:0|0:0,0:0:0:0:
468,100,16480,5,4,0:3:0:0:
370,30,16813,1,4,0:3:0:0:
259,75,17146,1,4,0:3:0:0:
194,179,17480,5,4,0:3:0:0:
194,179,17646,1,0,0:0:0:0:
194,179,17813,2,0,L|129:173,1,50,8|8,0:0|0:0,0:0:0:0:
124,158,18146,2,0,P|112:190|104:259,1,100,8|2,0:0|0:0,0:0:0:0:
77,372,18813,5,4,0:0:0:0:
186,324,19146,2,0,P|214:337|244:358,1,50,2|0,0:0|0:0,0:0:0:0:
243,368,19480,2,0,L|350:362,1,100,2|2,0:0|0:0,0:0:0:0:
407,261,20146,2,0,L|300:255,1,100,2|2,0:0|0:0,0:0:0:0:
285,242,20646,1,0,0:0:0:0:
263,229,20813,2,0,P|273:175|273:112,2,100,2|2|0,0:0|0:0|0:0,0:0:0:0:
146,197,21813,5,4,0:3:0:0:
124,79,22146,1,4,0:3:0:0:
221,8,22480,1,4,0:3:0:0:
332,51,22813,5,4,0:3:0:0:
332,51,23813,1,4,0:0:0:0:
446,16,24146,6,0,P|465:63|477:120,1,100,4|8,0:0|0:0,0:0:0:0:
461,131,24646,1,2,0:0:0:0:
446,151,24813,2,0,L|342:144,1,100,2|8,0:0|0:0,0:0:0:0:
292,252,25480,2,0,L|396:245,1,100,0|10,0:0|0:0,0:0:0:0:
419,257,25980,1,2,0:0:0:0:
419,257,26146,1,8,0:3:0:0:
348,358,26480,1,8,0:0:0:0:
229,342,26813,6,0,P|208:284|183:235,1,100,4|10,0:0|0:0,0:0:0:0:
169,236,27313,1,2,0:0:0:0:
148,222,27480,2,0,L|90:226,2,50,0|0|10,0:0|0:0|0:0,0:0:0:0:
242,148,28146,2,0,P|264:76|279:44,1,100,0|10,0:0|0:0,0:0:0:0:
297,45,28646,1,2,0:0:0:0:
321,37,28813,2,0,L|377:42,1,50,2|0,0:0|0:0,0:0:0:0:
394,33,29146,1,8,0:0:0:0:
454,137,29480,6,0,P|424:211|417:245,1,100,4|10,0:0|0:0,0:0:0:0:
396,240,29980,1,0,0:0:0:0:
373,250,30146,2,0,P|359:201|338:156,1,100,0|10,0:0|0:0,0:0:0:0:
318,141,30646,1,8,0:3:0:0:
217,201,30980,2,0,L|159:197,2,50,0|8|0,0:0|0:0|0:0,0:0:0:0:
209,81,31646,1,0,0:0:0:0:
209,81,31813,2,0,P|216:55|233:27,1,50,8|0,0:0|0:0,0:0:0:0:
250,25,32146,2,0,L|351:18,2,100,0|10|0,0:0|0:0|0:0,0:0:0:0:
130,16,33146,1,8,0:2:0:0:
79,125,33480,5,4,0:0:0:0:
79,125,34813,6,0,P|109:180|125:227,1,100,4|10,0:0|0:0,0:0:0:0:
144,225,35313,1,2,0:0:0:0:
166,235,35480,2,0,P|183:188|208:144,1,100,8|8,0:3|0:0,0:0:0:0:
317,192,36146,2,0,L|426:186,1,100,0|10,0:0|0:0,0:0:0:0:
442,177,36646,1,2,0:0:0:0:
442,177,36813,1,8,0:3:0:0:
419,60,37146,1,8,0:0:0:0:
313,1,37480,6,0,P|285:51|274:102,1,100,4|10,0:0|0:0,0:0:0:0:
288,113,37980,1,2,0:0:0:0:
300,134,38146,2,0,L|351:130,2,50,0|0|10,0:0|0:0|0:0,0:0:0:0:
198,197,38813,2,0,P|146:181|94:175,1,100,0|8,0:0|0:0,0:0:0:0:
81,191,39313,1,0,0:0:0:0:
62,207,39480,2,0,L|67:279,1,50,0|0,0:0|0:0,0:0:0:0:
47,274,39813,1,8,0:0:0:0:
117,371,40146,6,0,P|138:335|164:273,1,100,4|8,0:0|0:0,0:0:0:0:
182,269,40646,1,0,0:0:0:0:
204,257,40813,2,0,P|223:303|248:346,1,100,0|10,0:0|0:0,0:0:0:0:
272,353,41313,1,4,0:0:0:0:
352,263,41646,1,0,0:0:0:0:
352,263,41813,2,0,L|347:210,1,50,8|0,0:0|0:0,0:0:0:0:
358,190,42146,1,0,0:0:0:0:
475,219,42480,1,10,0:0:0:0:
256,192,42813,12,8,44813,0:0:0:0:
421,61,45480,5,4,0:0:0:0:
339,9,45813,2,0,P|319:11|284:20,1,40
284,28,46146,2,0,L|297:164,1,120,2|8,0:0|0:0,0:0:0:0:
394,165,46980,1,0,0:0:0:0:
394,165,47146,2,0,L|437:168,1,40
450,179,47480,2,0,P|466:239|471:267,2,80,8|8|0,0:0|0:0|0:0,0:0:0:0:
377,243,48480,5,4,0:3:0:0:
289,204,48813,1,4,0:3:0:0:
196,228,49146,1,4,0:3:0:0:
140,306,49480,2,0,L|90:312,2,40,0|0|2,0:0|0:0|0:0,0:0:0:0:
234,325,50146,2,0,P|238:354|239:384,2,60,6|10|8,0:0|0:0|0:0,0:0:0:0:
222,308,50813,5,0,0:0:0:0:
260,220,51146,2,0,P|285:217|311:207,1,40
314,199,51480,2,0,L|305:72,1,120,2|8,0:0|0:0,0:0:0:0:
222,122,52313,1,0,0:0:0:0:
222,122,52480,2,0,P|193:122|164:117,1,40
164,110,52813,2,0,L|158:28,2,80,8|8|0,0:0|0:0|0:0,0:0:0:0:
81,159,53813,5,4,0:3:0:0:
45,247,54146,1,4,0:3:0:0:
94,329,54480,1,4,0:3:0:0:
187,350,54813,5,4,0:0:0:0:
187,350,56146,6,0,P|252:313|344:309,1,160,4|4,0:0|0:3,0:0:0:0:
424,344,57146,1,0,0:0:0:0:
502,289,57480,2,0,L|513:198,2,80,8|8|4,0:3|0:3|0:3,0:0:0:0:
297,248,58813,6,0,P|321:157|351:88,1,160,4|4,0:0|0:3,0:0:0:0:
304,9,59813,1,0,0:0:0:0:
212,38,60146,2,0,P|167:32|122:22,1,80,8|0,0:3|0:3,0:0:0:0:
83,107,60813,2,0,P|38:113|-7:123,1,80,12|0,0:3|0:3,0:0:0:0:
49,204,61480,6,0,P|75:292|91:369,1,160,4|4,0:0|0:3,0:0:0:0:
185,357,62480,1,0,0:0:0:0:
236,275,62813,2,0,P|245:221|252:189,1,80,8|0,0:3|0:3,0:0:0:0:
339,160,63480,2,0,P|330:106|320:67,1,80,4|0,0:3|0:0,0:0:0:0:
243,29,64146,6,0,B|191:80|97:69|97:69|131:118|134:188,1,280,0|4,0:0|0:0,0:0:0:0:
134,185,66646,6,0,P|219:170|259:167,1,120,4|4,0:0|0:3,0:0:0:0:
343,135,67480,1,4,0:3:0:0:
389,218,67813,1,4,0:3:0:0:
316,280,68146,2,0,L|232:273,1,80,4|4,0:0|0:3,0:0:0:0:
150,230,68813,1,4,0:3:0:0:
88,303,69146,1,4,0:3:0:0:
175,343,69480,6,0,P|166:253|147:181,1,160,4|4,0:0|0:3,0:0:0:0:
86,112,70480,1,4,0:3:0:0:
149,40,70813,2,0,P|191:34|230:23,2,80,4|4|4,0:0|0:3|0:3,0:0:0:0:
192,131,71813,1,4,0:3:0:0:
192,131,71980,6,0,P|268:118|323:113,1,120,4|2,0:0|0:0,0:0:0:0:
314,208,72813,2,0,L|310:256,2,40,2|0|2,0:0|0:0|0:0,0:0:0:0:
332,194,73313,2,0,P|406:200|459:209,1,120,4|2,0:0|0:0,0:0:0:0:
444,111,74146,2,0,P|438:87|435:56,2,40,2|0|2,0:0|0:0|0:0,0:0:0:0:
456,124,74646,2,0,P|400:118|333:107,1,120,0|12,0:0|0:0,0:0:0:0:
242,124,75480,2,0,P|233:73|231:30,1,80,12|12,0:0|0:0,0:0:0:0:
244,32,75980,1,0,0:0:0:0:
461,50,76813,2,0,L|465:-10,2,50,0|0|4,0:0|0:0|3:0,0:0:0:0:
343,37,77480,6,0,P|289:30|229:33,1,100,4|0,0:2|0:0,0:0:0:0:
227,47,77980,1,0,0:0:0:0:
227,47,78146,1,0,0:0:0:0:
282,160,78480,1,2,0:2:0:0:
282,160,78646,2,0,L|292:267,1,100,4|8,0:2|0:0,0:0:0:0:
280,282,79146,1,8,0:0:0:0:
379,214,79480,2,0,B|422:240|422:240|478:233,2,100,0|0|4,0:0|0:0|0:3,0:0:0:0:
330,104,80480,5,4,0:3:0:0:
239,24,80813,1,4,0:3:0:0:
129,66,81146,1,4,0:3:0:0:
129,66,81313,2,0,B|145:141|85:200|85:200|198:177|175:255|285:232,1,350,4|0,0:2|0:0,0:0:0:0:
232,122,82813,6,0,P|237:72|245:23,1,100,4|0,0:2|0:0,0:0:0:0:
340,97,83480,2,0,P|336:124|334:150,2,50,0|0|2,0:0|0:0|0:0,0:0:0:0:
357,82,83980,2,0,P|415:95|459:100,1,100,4|10,0:2|0:0,0:0:0:0:
478,91,84480,1,8,0:0:0:0:
450,207,84813,2,0,B|468:253|468:253|462:306,2,100,0|0|4,0:0|0:0|0:3,0:0:0:0:
337,155,85813,5,4,0:3:0:0:
218,132,86146,1,4,0:3:0:0:
210,256,86480,1,4,0:3:0:0:
210,256,86646,2,0,B|249:241|267:206|267:206|253:309|359:385|457:338,1,350,4|4,0:0|0:3,0:0:0:0:
489,230,88146,6,0,P|434:238|379:241,1,100,4|0,0:2|0:0,0:0:0:0:
323,140,88813,1,0,0:0:0:0:
207,155,89146,1,2,0:0:0:0:
207,155,89313,2,0,P|190:93|176:52,1,100,4|8,0:2|0:0,0:0:0:0:
159,42,89813,1,8,0:0:0:0:
275,10,90146,2,0,B|320:35|320:35|385:28,2,100,0|0|4,0:0|0:0|0:3,0:0:0:0:
248,127,91146,5,4,0:3:0:0:
278,243,91480,1,4,0:3:0:0:
400,259,91813,1,4,0:3:0:0:
400,259,91980,2,0,B|443:224|443:224|420:127,1,150,4|0,0:2|0:0,0:0:0:0:
311,84,92813,2,0,P|259:96|204:104,2,100,0|0|4,0:0|0:0|0:2,0:0:0:0:
408,14,93813,5,0,0:0:0:0:
470,116,94146,2,0,L|466:167,2,50,0|8|8,0:0|0:0|0:0,0:0:0:0:
452,108,94646,2,0,P|369:133|301:145,1,150,4|2,0:2|0:0,0:0:0:0:
213,220,95480,1,2,0:0:0:0:
114,275,95813,2,0,P|92:283|68:297,1,50,10|8,0:0|0:0,0:0:0:0:
36,312,96146,6,0,B|76:271|76:271|63:169,1,150,4|4,0:0|0:0,0:0:0:0:
203,64,97146,2,0,B|191:155|191:155|231:196,2,150,4|4|0,0:0|0:0|0:0,0:0:0:0:
309,7,98480,1,4,0:3:0:0:
331,120,98813,6,0,P|417:115|519:171,1,200,14|2,0:0|0:0,0:0:0:0:
455,271,99813,1,2,0:0:0:0:
345,319,100146,2,0,P|348:269|360:211,1,100,2|2,0:0|0:0,0:0:0:0:
250,166,100813,2,0,P|259:215|262:264,1,100,2|0,0:0|0:0,0:0:0:0:
186,358,101480,6,0,P|91:311|-8:298,1,200,4|0,0:0|0:0,0:0:0:0:
59,193,102480,1,0,0:0:0:0:
59,193,102646,2,0,P|80:118|99:36,1,150,4|2,0:0|0:0,0:0:0:0:
213,17,103480,1,2,0:0:0:0:
228,250,104146,6,0,P|329:222|424:212,1,200,6|2,0:0|0:0,0:0:0:0:
511,130,105146,1,0,0:0:0:0:
511,130,105313,2,0,P|427:117|358:94,1,150,6|0,0:0|0:0,0:0:0:0:
351,83,105980,1,2,0:0:0:0:
351,83,106146,1,2,0:0:0:0:
231,69,106480,1,2,0:0:0:0:
154,161,106813,6,0,B|190:195|190:195|173:314,1,150,12|12,0:0|0:0,0:0:0:0:
352,258,107813,2,0,B|337:158|337:158|373:124,2,150,12|12|12,0:0|0:0|0:0,0:0:0:0:
414,360,109146,1,12,0:0:0:0:
500,276,109480,6,0,L|335:256,2,150,4|4|0,0:0|0:0|0:0,0:0:0:0:
256,192,110646,12,0,112146,0:0:0:0:
