osu file format v14

[General]
AudioFilename: audio.mp3
AudioLeadIn: 0
PreviewTime: 77448
Countdown: 0
SampleSet: Normal
StackLeniency: 0.4
Mode: 0
LetterboxInBreaks: 0
WidescreenStoryboard: 1

[Editor]
Bookmarks: 1448,13448,24114,45448,56114,77448,98781,112114
DistanceSpacing: 1.3
BeatDivisor: 4
GridSize: 16
TimelineZoom: 1.399999

[Metadata]
Title:Force of RA
TitleUnicode:Force of RA
Artist:Memme
ArtistUnicode:Memme
Creator:Castagne
Version:Insane
Source:Pump It Up Prime
Tags:electronic arabic instrumental video game 포스 오브 라 맴매 parkmemme
BeatmapID:2676909
BeatmapSetID:1270694

[Difficulty]
HPDrainRate:6
CircleSize:3.6
OverallDifficulty:8
ApproachRate:9
SliderMultiplier:1.6
SliderTickRate:1

[Events]
//Background and Video events
0,0,"ombel.jpg",0,0
//Break Periods
//Storyboard Layer 0 (Background)
//Storyboard Layer 1 (Fail)
//Storyboard Layer 2 (Pass)
//Storyboard Layer 3 (Foreground)
//Storyboard Layer 4 (Overlay)
//Storyboard Sound Samples

[TimingPoints]
147,333.333333333333,4,1,1,60,1,0
1480,-76.9230769230769,4,1,1,60,0,0
1563,-76.9230769230769,4,3,2,40,0,0
1813,-100,4,3,2,40,0,0
3980,-100,4,1,1,60,0,0
4146,-76.9230769230769,4,1,1,60,0,0
4813,-100,4,3,2,40,0,0
5313,-166.666666666667,4,1,1,60,0,0
6813,-76.9230769230769,4,1,1,60,0,0
7146,-100,4,1,1,60,0,0
7313,-100,4,3,2,40,0,0
9313,-100,4,1,1,60,0,0
9480,-117.647058823529,4,1,1,60,0,0
12146,-166.666666666667,4,1,1,60,0,0
13480,-100,4,1,1,62,0,0
16146,-83.3333333333333,4,1,1,62,0,0
18480,-100,4,1,1,62,0,0
18813,-83.3333333333333,4,1,1,62,0,0
21480,-83.3333333333333,4,1,1,62,0,0
23480,-55.5555555555556,4,1,1,62,0,0
23813,-166.666666666667,4,1,1,62,0,0
24146,-83.3333333333333,4,1,3,70,0,0
29146,-166.666666666667,4,1,3,70,0,0
29480,-83.3333333333333,4,1,3,70,0,0
33480,-100,4,3,2,100,0,0
34480,-166.666666666667,4,3,2,100,0,0
34813,-83.3333333333333,4,1,3,70,0,0
39813,-166.666666666667,4,1,3,70,0,0
40146,-83.3333333333333,4,1,3,70,0,0
42480,-111.111111111111,4,1,3,70,0,0
42813,-100,4,1,1,90,0,0
43313,-83.3333333333333,4,1,1,90,0,0
43813,-69.4444444444444,4,1,1,90,0,0
44313,-57.8703703703704,4,1,1,90,0,0
44813,-66.6666666666667,4,1,1,90,0,0
45480,-100,4,1,1,65,0,0
46480,-133.333333333333,4,1,1,65,0,0
46813,-100,4,1,1,65,0,0
54813,-100,4,1,1,90,0,0
55146,-66.6666666666667,4,1,1,90,0,0
55396,-100,4,1,1,90,0,0
56146,-133.333333333333,4,1,1,40,0,0
65646,-66.6666666666667,4,1,1,60,0,0
66646,-100,4,1,1,85,0,0
71980,-76.9230769230769,4,1,1,85,0,0
76813,-76.9230769230769,4,1,1,85,0,0
77480,-100,4,1,1,90,0,1
77813,-50,4,1,1,90,0,1
78480,-66.6666666666667,4,1,1,90,0,1
81313,-100,4,1,1,90,0,1
83146,-50,4,1,1,90,0,1
83813,-66.6666666666667,4,1,1,90,0,1
83980,-100,4,1,1,90,0,1
84480,-66.6666666666667,4,1,1,90,0,1
86646,-100,4,1,1,90,0,1
87480,-66.6666666666667,4,1,1,90,0,1
88146,-100,4,1,1,90,0,1
88480,-50,4,1,1,90,0,1
89146,-66.6666666666667,4,1,1,90,0,1
92813,-100,4,1,1,90,0,1
93480,-100,4,1,1,90,0,1
93813,-50,4,1,1,90,0,1
94146,-100,4,1,1,90,0,1
94480,-66.6666666666667,4,1,1,90,0,1
95146,-100,4,1,1,90,0,1
96146,-66.6666666666667,4,1,1,90,0,1
96646,-76.9230769230769,4,1,1,90,0,1
97146,-90.9090909090909,4,1,1,90,0,1
97646,-111.111111111111,4,1,1,90,0,1
98146,-58.8235294117647,4,1,1,90,0,1
98813,-76.9230769230769,4,3,2,65,0,0
101146,-100,4,3,2,65,0,0
101480,-100,4,1,1,75,0,0
104146,-100,4,3,2,80,0,0
105313,-100,4,3,2,90,0,0
106813,-66.6666666666667,4,1,1,80,0,0
107313,-83.3333333333333,4,1,1,80,0,0
107813,-100,4,1,1,80,0,0
109146,-50,4,1,1,80,0,0
109396,-50,4,2,0,40,0,0
109480,-83.3333333333333,4,1,1,80,0,0
112146,-83.3333333333333,4,2,0,40,0,0

[Colours]
Combo1 : 113,143,54
Combo2 : 238,150,17
Combo3 : 128,30,84
Combo4 : 196,64,77

[HitObjects]
322,84,1313,5,0,1:0:0:0:
437,121,1480,6,0,P|373:111|219:102,1,207.999990478516,4|4,0:0|0:0,0:0:0:0:
210,111,1896,1,0,0:0:0:0:
210,111,1980,1,0,0:0:0:0:
345,232,2146,2,0,P|386:224|446:218,1,80,4|0,0:0|0:0,0:0:0:0:
448,228,2396,1,0,0:0:0:0:
448,228,2480,1,0,0:0:0:0:
250,292,2646,1,4,0:0:0:0:
250,292,2730,1,0,0:0:0:0:
250,292,2813,6,0,L|243:205,1,80,0|4,0:0|0:0,0:0:0:0:
244,189,3063,1,0,0:0:0:0:
244,189,3146,1,0,0:0:0:0:
142,237,3313,1,0,0:0:0:0:
47,165,3480,2,0,P|42:117|71:57,1,80,4|0,0:0|0:0,0:0:0:0:
64,78,3702,2,0,L|97:81,2,26.6666666666667,0|0|0,0:0|0:0|0:0,0:0:0:0:
142,237,3980,1,4,0:0:0:0:
235,102,4146,6,0,P|128:113|26:107,1,207.999990478516,10|2,0:0|0:0,0:0:0:0:
293,174,4813,1,4,0:0:0:0:
319,144,4897,1,0,0:0:0:0:
330,106,4980,1,0,0:0:0:0:
325,67,5063,1,0,0:0:0:0:
305,33,5146,1,0,0:0:0:0:
400,299,5313,6,0,B|348:308|318:269|318:269|187:319|122:141|317:141|264:258,1,383.99998828125,4|2,0:0|0:0,0:0:0:0:
162,365,6813,6,0,P|148:307|101:163,1,207.999990478516,4|0,0:0|0:0,0:0:0:0:
88,157,7230,1,0,0:0:0:0:
88,157,7313,1,4,0:0:0:0:
327,190,7480,2,0,P|332:150|340:111,1,80,0|4,0:0|0:0,0:0:0:0:
354,99,7730,1,0,0:0:0:0:
354,99,7813,1,0,0:0:0:0:
371,291,7980,1,0,0:0:0:0:
371,291,8063,1,0,0:0:0:0:
371,291,8146,5,0,0:0:0:0:
266,347,8313,1,0,0:0:0:0:
187,161,8480,2,0,P|244:177|290:193,1,80,4|0,0:0|0:0,0:0:0:0:
276,175,8702,2,0,L|278:142,2,26.6666666666667,0|0|0,0:0|0:0|0:0,0:0:0:0:
148,237,8980,1,4,0:0:0:0:
126,17,9146,6,0,P|136:56|140:99,1,80,0|2,0:0|0:0,0:0:0:0:
43,270,9480,6,0,P|99:258|181:289,1,136.000002593994,4|0,0:0|0:0,0:0:0:0:
393,111,9980,2,0,P|337:99|255:130,1,136.000002593994,4|0,0:0|0:0,0:0:0:0:
384,338,10480,2,0,P|369:281|342:194,1,136.000002593994,4|0,0:0|0:0,0:0:0:0:
500,22,10980,2,0,P|479:86|462:152,1,136.000002593994,4|0,0:0|0:0,0:0:0:0:
494,303,11480,1,6,0:0:0:0:
318,126,11813,1,6,0:0:0:0:
494,276,12146,6,0,B|417:204|239:239|375:407|422:278,1,287.999991210938,14|4,0:0|0:0,0:0:0:0:
415,291,13480,6,0,L|405:196,1,80,4|2,0:0|0:0,0:0:0:0:
242,345,13813,2,0,L|252:250,1,80,2|0,0:0|0:0,0:0:0:0:
183,208,14063,1,0,0:0:0:0:
183,208,14146,2,0,P|231:219|334:163,1,160,2|2,0:0|0:0,0:0:0:0:
240,65,14646,1,2,0:0:0:0:
93,282,14813,6,0,P|100:239|104:193,1,80,0|0,0:0|0:0,0:0:0:0:
98,186,15063,1,0,0:0:0:0:
98,186,15146,2,0,L|-3:195,1,80,2|0,0:0|0:0,0:0:0:0:
146,11,15480,2,0,L|247:20,1,80,2|2,0:0|0:0,0:0:0:0:
227,204,15813,1,2,0:0:0:0:
181,108,15980,1,2,0:0:0:0:
93,282,16146,5,4,0:0:0:0:
216,340,16313,5,8,0:3:0:0:
216,340,16396,1,8,0:3:0:0:
216,340,16480,1,4,0:3:0:0:
318,266,16646,5,8,0:3:0:0:
318,266,16730,1,8,0:3:0:0:
318,266,16813,1,4,0:3:0:0:
387,365,16980,5,8,0:3:0:0:
387,365,17063,1,8,0:3:0:0:
387,365,17146,1,4,0:3:0:0:
452,255,17313,5,8,0:3:0:0:
452,255,17396,1,8,0:3:0:0:
452,255,17480,2,0,L|445:146,1,95.9999970703126,4|0,0:3|0:0,0:0:0:0:
326,23,17813,1,8,0:0:0:0:
301,162,17980,1,8,0:0:0:0:
169,108,18146,2,0,L|63:98,1,95.9999970703126,8|0,0:0|0:0,0:0:0:0:
51,123,18396,1,0,0:0:0:0:
51,123,18480,2,0,L|59:211,1,80,2|0,0:0|0:0,0:0:0:0:
26,19,18813,6,0,P|74:7|137:3,1,95.9999970703126,4|0,0:0|0:0,0:0:0:0:
237,196,19146,2,0,P|189:184|126:180,1,95.9999970703126,2|0,0:0|0:0,0:0:0:0:
56,214,19396,1,0,0:0:0:0:
56,214,19480,2,0,P|64:155|109:15,1,191.999994140625,2|2,0:0|0:0,0:0:0:0:
312,56,19980,1,0,0:0:0:0:
165,180,20146,6,0,L|52:170,1,95.9999970703126,2|0,0:0|0:0,0:0:0:0:
282,304,20480,1,2,0:0:0:0:
337,212,20646,1,0,0:0:0:0:
155,290,20813,2,0,L|161:390,1,95.9999970703126,2|0,0:0|0:0,0:0:0:0:
46,117,21146,2,0,L|40:217,1,95.9999970703126,2|0,0:0|0:0,0:0:0:0:
0,378,21480,5,0,0:0:0:0:
80,303,21646,5,8,0:3:0:0:
80,303,21730,1,8,0:3:0:0:
80,303,21813,1,4,0:3:0:0:
168,366,21980,5,8,0:3:0:0:
168,366,22063,1,8,0:3:0:0:
168,366,22146,1,4,0:3:0:0:
268,315,22313,5,8,0:3:0:0:
268,315,22396,1,8,0:3:0:0:
268,315,22480,2,0,P|279:261|294:210,1,95.9999970703126,4|8,0:3|0:3,0:0:0:0:
507,148,22813,6,4,L|510:41,2,95.9999970703126,4|8|8,0:3|0:2|0:2,0:0:0:0:
296,112,23313,1,0,0:0:0:0:
296,112,23396,1,0,0:0:0:0:
296,112,23480,2,0,P|298:75|307:37,1,71.9999978027344,8|0,0:2|0:0,0:0:0:0:
194,0,23646,2,0,P|201:35|203:71,1,71.9999978027344,8|0,0:2|0:0,0:0:0:0:
507,148,23813,2,0,P|465:155|431:181,1,71.9999978027344,4|0,0:0|0:0,0:0:0:0:
440,170,24146,6,0,L|429:62,1,95.9999970703126,4|0,0:0|0:0,0:0:0:0:
332,114,24396,1,0,0:0:0:0:
332,114,24480,2,0,L|343:6,1,95.9999970703126,8|2,0:0|0:0,0:0:0:0:
244,302,24813,2,0,P|198:304|141:317,1,95.9999970703126,2|0,0:0|0:0,0:0:0:0:
140,326,25063,1,0,0:0:0:0:
140,326,25146,1,8,0:0:0:0:
234,105,25313,1,0,0:0:0:0:
234,105,25396,1,0,0:0:0:0:
234,105,25480,6,0,P|249:158|259:206,1,95.9999970703126,0|0,0:0|0:0,0:0:0:0:
25,288,25813,1,10,0:0:0:0:
86,145,25980,1,2,0:0:0:0:
239,219,26146,2,0,B|337:208|326:284|426:275,1,191.999994140625,8|8,0:3|0:0,0:0:0:0:
400,183,26646,1,0,0:0:0:0:
312,365,26813,6,0,P|305:298|281:161,1,191.999994140625,4|10,0:0|0:0,0:0:0:0:
195,62,27313,1,2,0:0:0:0:
387,129,27480,2,0,P|394:75|406:26,1,95.9999970703126,0|0,0:0|0:0,0:0:0:0:
424,18,27730,1,2,0:0:0:0:
424,18,27813,1,10,0:0:0:0:
461,179,27980,6,0,P|383:164|265:154,1,191.999994140625,8|0,0:3|0:0,0:0:0:0:
168,191,28480,2,0,P|144:147|130:92,1,95.9999970703126,10|2,0:0|0:0,0:0:0:0:
284,305,28813,1,2,0:0:0:0:
343,188,28980,1,0,0:0:0:0:
41,282,29146,2,0,P|69:314|81:353,1,71.9999978027344,8|0,0:0|0:0,0:0:0:0:
79,341,29480,6,0,P|128:334|179:332,1,95.9999970703126,4|0,0:0|0:0,0:0:0:0:
155,205,29730,1,2,0:0:0:0:
155,205,29813,2,0,P|204:210|253:221,1,95.9999970703126,10|0,0:0|0:0,0:0:0:0:
27,126,30146,2,0,L|21:24,2,95.9999970703126,0|0|10,0:0|0:0|0:0,0:0:0:0:
339,58,30646,6,0,B|244:38|248:110|153:88,1,191.999994140625,8|0,0:3|0:0,0:0:0:0:
185,0,31146,1,8,0:0:0:0:
259,170,31313,2,0,P|235:240|207:363,1,191.999994140625,0|0,0:0|0:0,0:0:0:0:
311,322,31813,2,0,P|358:312|415:309,1,95.9999970703126,8|0,0:0|0:0,0:0:0:0:
512,357,32146,5,0,0:0:0:0:
423,135,32313,1,2,0:0:0:0:
423,135,32396,1,2,0:0:0:0:
423,135,32480,1,10,0:0:0:0:
394,279,32646,2,0,P|393:216|374:59,1,191.999994140625,8|0,0:3|0:0,0:0:0:0:
302,0,33146,5,8,0:2:0:0:
302,0,33313,1,8,0:2:0:0:
220,185,33480,2,0,P|263:175|310:172,1,80,4|0,0:0|0:0,0:0:0:0:
203,285,33813,2,0,P|163:281|124:271,1,80,0|0,0:0|0:0,0:0:0:0:
75,68,34146,2,0,P|89:122|94:159,1,80,0|0,0:0|0:0,0:0:0:0:
75,177,34396,1,0,0:0:0:0:
75,177,34480,2,0,L|6:183,1,47.9999985351563,0|4,0:0|0:0,0:0:0:0:
203,285,34813,6,0,P|213:235|218:179,1,95.9999970703126,4|0,0:0|0:0,0:0:0:0:
315,207,35063,1,0,0:0:0:0:
315,207,35146,2,0,P|311:156|302:100,1,95.9999970703126,10|2,0:0|0:0,0:0:0:0:
178,384,35480,2,0,P|241:372|305:367,1,95.9999970703126,8|0,0:3|0:0,0:0:0:0:
300,378,35730,1,0,0:0:0:0:
300,378,35813,1,8,0:0:0:0:
37,275,35980,1,0,0:0:0:0:
37,275,36063,1,0,0:0:0:0:
37,275,36146,6,0,P|60:197|67:150,1,95.9999970703126,0|0,0:0|0:0,0:0:0:0:
27,60,36480,1,10,0:0:0:0:
148,140,36646,1,2,0:0:0:0:
228,22,36813,2,0,P|308:35|427:44,1,191.999994140625,8|8,0:3|0:0,0:0:0:0:
494,0,37313,1,0,0:0:0:0:
371,127,37480,6,0,P|389:192|417:329,1,191.999994140625,4|10,0:0|0:0,0:0:0:0:
314,384,37980,1,2,0:0:0:0:
176,251,38146,2,0,L|286:261,1,95.9999970703126,0|0,0:0|0:0,0:0:0:0:
289,277,38396,1,0,0:0:0:0:
289,277,38480,1,10,0:0:0:0:
452,102,38646,2,0,B|359:86|367:165|271:148,1,191.999994140625,8|0,0:3|0:0,0:0:0:0:
171,92,39063,1,0,0:0:0:0:
171,92,39146,2,0,P|194:41|204:-10,1,95.9999970703126,8|0,0:0|0:0,0:0:0:0:
31,43,39480,5,0,0:0:0:0:
71,167,39646,1,0,0:0:0:0:
193,107,39813,2,0,P|177:135|172:184,1,71.9999978027344,8|0,0:0|0:0,0:0:0:0:
171,173,40146,6,0,L|291:164,1,95.9999970703126,4|0,0:0|0:0,0:0:0:0:
255,265,40396,1,0,0:0:0:0:
255,265,40480,2,0,L|375:274,1,95.9999970703126,8|0,0:0|0:0,0:0:0:0:
371,143,40813,2,0,P|347:193|342:236,2,95.9999970703126,0|0|10,0:0|0:0|0:0,0:0:0:0:
374,384,41313,2,0,P|314:366|157:341,1,191.999994140625,4|0,0:0|0:0,0:0:0:0:
85,384,41813,1,8,0:0:0:0:
258,243,41980,2,0,P|238:179|208:45,1,191.999994140625,0|0,0:0|0:0,0:0:0:0:
320,9,42480,2,0,P|357:19|413:20,1,71.9999978027344,10|0,0:0|0:0,0:0:0:0:
152,152,42813,6,0,L|147:252,2,80,12|0|8,0:0|0:0|0:0,0:0:0:0:
348,191,43313,6,0,L|361:294,2,95.9999970703126,12|0|8,0:0|0:0|0:0,0:0:0:0:
122,117,43813,6,0,L|94:245,2,115.2000028125,12|0|8,0:0|0:0|0:0,0:0:0:0:
448,52,44313,6,0,L|484:199,2,138.240003375,12|8|8,0:0|0:0|0:0,0:0:0:0:
358,144,44813,1,8,0:0:0:0:
141,16,45146,1,4,0:0:0:0:
257,277,45480,6,0,P|250:220|227:114,1,160,4|0,0:0|0:0,0:0:0:0:
142,156,45980,1,0,0:0:0:0:
142,156,46146,2,0,P|93:162|51:163,1,80,2|0,0:0|0:0,0:0:0:0:
43,140,46396,1,0,0:0:0:0:
43,140,46480,2,0,L|52:70,1,60.0000022888184,8|0,0:3|0:3,0:0:0:0:
11,228,46813,6,0,P|32:313|43:392,1,160,0|0,0:0|0:0,0:0:0:0:
129,341,47313,1,0,0:0:0:0:
129,341,47480,2,0,P|140:290|152:257,1,80,8|8,0:0|0:0,0:0:0:0:
241,289,47813,2,0,P|290:273|325:266,1,80,8|0,0:0|0:0,0:0:0:0:
410,292,48146,5,0,0:0:0:0:
472,244,48313,5,8,0:3:0:0:
472,244,48396,1,8,0:3:0:0:
472,244,48480,1,4,0:3:0:0:
415,178,48646,5,8,0:3:0:0:
415,178,48730,1,8,0:3:0:0:
415,178,48813,1,4,0:3:0:0:
456,111,48980,5,8,0:3:0:0:
456,111,49063,1,8,0:3:0:0:
456,111,49146,2,0,P|454:68|447:28,1,80,4|0,0:3|0:0,0:0:0:0:
304,78,49480,6,0,L|212:83,1,80,0|0,0:0|0:0,0:0:0:0:
143,151,49813,1,2,0:0:0:0:
124,57,49980,1,2,0:0:0:0:
243,100,50146,2,0,L|233:255,2,120,6|10|8,0:0|0:0|0:0,0:0:0:0:
243,100,50813,6,0,P|314:114|400:70,1,160,0|0,0:0|0:0,0:0:0:0:
482,17,51313,1,0,0:0:0:0:
482,17,51480,2,0,P|472:53|466:102,1,80,2|0,0:0|0:0,0:0:0:0:
483,122,51730,1,0,0:0:0:0:
483,122,51813,1,0,0:0:0:0:
353,194,51980,2,0,L|513:204,1,160,8|0,0:3|0:0,0:0:0:0:
451,324,52480,1,0,0:0:0:0:
364,363,52646,1,0,0:0:0:0:
279,316,52813,6,0,P|270:273|266:225,1,80,8|8,0:0|0:0,0:0:0:0:
185,184,53146,2,0,P|180:223|172:262,1,80,8|0,0:0|0:0,0:0:0:0:
98,325,53480,5,0,0:0:0:0:
41,259,53646,5,8,0:3:0:0:
41,259,53730,1,8,0:3:0:0:
41,259,53813,1,4,0:3:0:0:
107,195,53980,5,8,0:3:0:0:
107,195,54063,1,8,0:3:0:0:
107,195,54146,1,4,0:3:0:0:
41,127,54313,5,8,0:3:0:0:
41,127,54396,1,8,0:3:0:0:
41,127,54480,2,0,P|51:87|68:46,1,80,4|0,0:3|0:0,0:0:0:0:
268,269,54813,6,0,P|262:197|246:114,1,120,4|0,0:0|0:0,0:0:0:0:
239,174,55146,2,0,B|301:185|301:185|376:162,1,120.000004577637,4|0,0:3|0:0,0:0:0:0:
415,95,55396,1,8,0:0:0:0:
510,221,55563,1,0,0:0:0:0:
510,221,55646,1,0,0:0:0:0:
382,352,55813,2,0,P|391:310|396:261,1,80,10|0,0:0|0:0,0:0:0:0:
133,299,56146,6,0,P|191:287|251:278,1,120.000004577637,4|0,0:0|0:0,0:0:0:0:
251,277,56646,1,0,0:0:0:0:
173,373,56813,2,0,P|167:329|149:238,1,120.000004577637,4|0,0:3|0:0,0:0:0:0:
126,121,57313,1,0,0:0:0:0:
208,186,57480,2,0,L|270:186,2,60.0000022888184,8|8|8,0:3|0:3|0:3,0:0:0:0:
208,186,58146,2,0,P|220:124|229:57,1,120.000004577637,4|0,0:3|0:0,0:0:0:0:
227,67,58646,1,0,0:0:0:0:
77,0,58813,6,0,P|85:59|96:118,1,120.000004577637,4|0,0:0|0:0,0:0:0:0:
96,118,59313,1,0,0:0:0:0:
28,163,59480,2,0,P|89:158|165:154,1,120.000004577637,4|0,0:3|0:0,0:0:0:0:
238,202,59980,1,0,0:0:0:0:
269,61,60146,2,0,P|235:62|203:64,2,60.0000022888184,8|8|8,0:3|0:3|0:3,0:0:0:0:
269,61,60813,2,0,P|262:120|256:200,1,120.000004577637,4|0,0:3|0:0,0:0:0:0:
257,180,61313,1,2,0:0:0:0:
370,117,61480,6,0,P|432:110|508:103,1,120.000004577637,4|0,0:0|0:0,0:0:0:0:
489,104,61980,1,0,0:0:0:0:
439,266,62146,2,0,P|379:260|319:253,1,120.000004577637,4|0,0:3|0:0,0:0:0:0:
255,323,62646,1,0,0:0:0:0:
178,234,62813,2,0,L|250:231,2,60.0000022888184,8|8|8,0:3|0:3|0:3,0:0:0:0:
178,234,63480,2,0,P|167:168|152:92,1,120.000004577637,4|0,0:3|0:0,0:0:0:0:
78,174,63980,6,0,P|148:161|213:151,1,120.000004577637,4|0,0:0|0:0,0:0:0:0:
299,203,64480,1,2,0:0:0:0:
369,126,64646,1,2,0:0:0:0:
278,71,64813,2,0,P|249:67|212:64,2,60.0000022888184,4|0|0,0:3|0:0|0:0,0:0:0:0:
400,294,65313,5,4,0:0:0:0:
400,294,65646,2,0,B|461:286|461:286|515:319,2,120.000004577637,4|4|4,0:0|0:0|0:0,0:0:0:0:
280,384,66146,2,0,P|293:316|298:253,1,120.000004577637,0|0,0:0|0:0,0:0:0:0:
292,246,66396,1,0,0:0:0:0:
292,246,66480,1,0,0:0:0:0:
163,288,66646,6,0,P|102:276|-11:262,1,160,4|0,0:0|0:0,0:0:0:0:
129,115,67146,1,4,0:3:0:0:
129,115,67480,2,0,P|111:39|27:48,1,160,4|4,0:3|0:3,0:0:0:0:
71,176,67980,1,0,0:0:0:0:
71,176,68063,1,0,0:0:0:0:
71,176,68146,6,0,P|152:161|238:148,1,160,4|4,0:0|0:3,0:0:0:0:
321,172,68646,1,0,0:0:0:0:
435,69,68813,2,0,P|386:71|334:79,1,80,4|0,0:3|0:0,0:0:0:0:
338,83,69063,1,0,0:0:0:0:
338,83,69146,1,4,0:3:0:0:
486,3,69313,2,0,P|471:63|432:240,1,240,4|4,0:0|0:3,0:0:0:0:
432,236,70146,1,4,0:3:0:0:
432,236,70480,2,0,P|382:227|326:222,1,80,4|0,0:3|0:0,0:0:0:0:
335,239,70730,1,0,0:0:0:0:
335,239,70813,6,0,L|344:329,1,80,4|0,0:0|0:0,0:0:0:0:
194,184,71146,2,0,P|186:146|186:100,1,80,4|0,0:3|0:0,0:0:0:0:
129,270,71480,2,0,P|103:241|80:201,1,80,4|0,0:3|0:0,0:0:0:0:
245,282,71813,1,4,0:3:0:0:
326,141,71980,6,0,B|298:220|269:366,1,207.999990478516,4|0,0:0|0:0,0:0:0:0:
389,292,72480,2,0,P|456:281|508:277,1,103.999995239258,2|0,0:0|0:0,0:0:0:0:
227,127,72813,2,0,P|175:121|124:112,1,103.999995239258,2|0,0:0|0:0,0:0:0:0:
120,0,73146,1,2,0:0:0:0:
40,257,73313,6,0,P|112:247|263:239,1,207.999990478516,4|0,0:0|0:0,0:0:0:0:
376,100,73813,2,0,P|353:45|342:1,1,103.999995239258,2|0,0:0|0:0,0:0:0:0:
482,179,74146,2,0,P|468:229|448:276,1,103.999995239258,2|0,0:0|0:0,0:0:0:0:
304,151,74480,1,2,0:0:0:0:
183,281,74646,1,0,0:0:0:0:
183,281,74730,1,0,0:0:0:0:
183,281,74813,6,0,L|187:399,1,103.999995239258,12|0,0:0|0:0,0:0:0:0:
59,191,75146,2,0,L|55:309,1,103.999995239258,12|0,0:0|0:0,0:0:0:0:
255,74,75480,1,12,0:0:0:0:
180,5,75646,1,0,0:0:0:0:
189,193,75813,2,0,L|327:183,1,103.999995239258,12|0,0:0|0:0,0:0:0:0:
256,192,76146,12,4,77146,3:0:0:0:
292,185,77480,6,0,P|305:139|323:87,1,80,4|0,0:2|0:0,0:0:0:0:
326,286,77813,6,0,P|226:263|165:254,1,160
81,273,78063,1,0,0:0:0:0:
81,273,78146,1,0,0:0:0:0:
10,131,78313,1,0,0:0:0:0:
10,131,78396,1,0,0:0:0:0:
10,131,78480,2,0,P|27:161|44:198,1,60.0000022888184,2|0,0:2|0:0,0:0:0:0:
79,383,78646,6,0,P|96:315|157:141,1,240.000009155274,4|8,0:2|0:0,0:0:0:0:
299,236,79146,2,0,P|360:255|434:256,1,120.000004577637,8|0,0:0|0:0,0:0:0:0:
212,306,79480,2,0,P|255:352|318:390,1,120.000004577637,0|0,0:0|0:0,0:0:0:0:
248,149,79813,1,0,0:0:0:0:
167,384,79980,5,8,0:3:0:0:
167,384,80063,1,8,0:3:0:0:
167,384,80146,1,4,0:3:0:0:
71,305,80313,5,8,0:3:0:0:
71,305,80396,1,8,0:3:0:0:
71,305,80480,1,4,0:3:0:0:
155,225,80646,5,8,0:3:0:0:
155,225,80730,1,8,0:3:0:0:
155,225,80813,1,4,0:3:0:0:
108,129,80980,5,8,0:3:0:0:
108,129,81063,1,8,0:3:0:0:
108,129,81146,1,4,0:3:0:0:
402,160,81313,6,0,P|342:154|230:148,1,160,4|0,0:2|0:0,0:0:0:0:
229,154,81730,1,0,0:0:0:0:
229,154,81813,1,0,0:0:0:0:
136,328,81979,1,0,0:0:0:0:
136,328,82063,1,0,0:0:0:0:
136,328,82146,2,0,P|124:290|96:246,1,80,8|0,0:0|0:0,0:0:0:0:
86,243,82396,1,0,0:0:0:0:
86,243,82480,1,0,0:0:0:0:
19,321,82646,1,0,0:0:0:0:
223,159,82813,6,0,P|232:107|244:53,1,80,4|0,0:2|0:0,0:0:0:0:
265,239,83146,6,0,P|348:217|455:200,1,160
512,241,83396,1,0,0:0:0:0:
512,241,83480,1,0,0:0:0:0:
358,364,83646,1,0,0:0:0:0:
358,364,83730,1,0,0:0:0:0:
358,364,83813,2,0,P|351:329|338:286,1,60.0000022888184,2|0,0:0|0:0,0:0:0:0:
444,118,83980,6,0,P|428:206|417:291,1,160,4|10,0:2|0:0,0:0:0:0:
298,49,84480,2,0,P|356:38|436:28,1,120.000004577637,8|0,0:0|0:0,0:0:0:0:
288,143,84813,2,0,P|346:147|426:158,1,120.000004577637,0|0,0:0|0:0,0:0:0:0:
331,245,85146,1,0,0:0:0:0:
211,86,85313,5,8,0:3:0:0:
211,86,85396,1,8,0:3:0:0:
211,86,85480,1,4,0:3:0:0:
142,164,85646,5,8,0:3:0:0:
142,164,85730,1,8,0:3:0:0:
142,164,85813,1,4,0:3:0:0:
36,107,85980,5,8,0:3:0:0:
36,107,86063,1,8,0:3:0:0:
36,107,86146,1,4,0:3:0:0:
25,223,86313,5,8,0:3:0:0:
25,223,86396,1,8,0:3:0:0:
25,223,86480,1,4,0:3:0:0:
108,335,86646,6,0,P|174:326|274:323,1,160,4|0,0:0|0:0,0:0:0:0:
360,373,87146,1,0,0:0:0:0:
277,132,87313,1,0,0:0:0:0:
277,132,87396,1,0,0:0:0:0:
277,132,87480,2,0,P|284:168|286:202,1,60.0000022888184,8|0,0:0|0:0,0:0:0:0:
373,253,87646,2,0,P|375:223|381:193,1,60.0000022888184,8|0,0:0|0:0,0:0:0:0:
509,98,87813,1,4,0:3:0:0:
182,129,88146,6,0,P|237:123|289:120,1,80,4|0,0:2|0:0,0:0:0:0:
165,224,88480,6,0,P|149:146|127:64,1,160
85,0,88730,1,0,0:0:0:0:
85,0,88813,1,0,0:0:0:0:
3,137,88980,1,0,0:0:0:0:
3,137,89063,1,0,0:0:0:0:
3,137,89146,2,0,P|39:132|86:129,1,60.0000022888184,2|0,0:0|0:0,0:0:0:0:
280,16,89313,6,0,P|204:57|137:195,1,240.000009155274,4|8,0:2|0:0,0:0:0:0:
281,272,89813,2,0,P|271:202|252:142,1,120.000004577637,8|0,0:0|0:0,0:0:0:0:
370,324,90146,2,0,P|396:258|409:196,1,120.000004577637,0|0,0:0|0:0,0:0:0:0:
358,57,90480,1,0,0:0:0:0:
496,132,90646,5,8,0:3:0:0:
496,132,90730,1,8,0:3:0:0:
496,132,90813,1,4,0:3:0:0:
350,151,90980,5,8,0:3:0:0:
350,151,91063,1,8,0:3:0:0:
350,151,91146,1,4,0:3:0:0:
369,278,91313,5,8,0:3:0:0:
369,278,91396,1,8,0:3:0:0:
369,278,91480,1,4,0:3:0:0:
512,259,91646,5,8,0:3:0:0:
512,259,91730,1,8,0:3:0:0:
512,259,91813,1,4,0:3:0:0:
440,41,91980,6,0,P|379:103|291:236,1,240.000009155274,4|0,0:2|0:0,0:0:0:0:
294,229,92396,1,0,0:0:0:0:
294,229,92480,1,0,0:0:0:0:
185,265,92646,1,0,0:0:0:0:
185,265,92730,1,0,0:0:0:0:
185,265,92813,2,0,P|178:227|161:163,1,80,0|0,0:0|0:0,0:0:0:0:
155,170,93063,1,0,0:0:0:0:
155,170,93146,1,0,0:0:0:0:
54,233,93313,1,0,0:0:0:0:
211,384,93480,6,0,L|114:376,1,80,4|0,0:2|0:0,0:0:0:0:
76,87,93813,6,0,P|135:143|179:252,1,160
166,227,94063,1,0,0:0:0:0:
166,227,94146,1,0,0:0:0:0:
387,193,94313,1,8,0:0:0:0:
387,193,94396,1,0,0:0:0:0:
387,193,94480,2,0,P|379:175|365:137,1,60.0000022888184,8|0,0:0|0:0,0:0:0:0:
312,0,94646,6,0,P|296:77|249:243,1,240.000009155274,4|0,0:2|0:0,0:0:0:0:
119,84,95146,2,0,P|136:49|169:12,1,80,2|0,0:0|0:0,0:0:0:0:
24,102,95480,2,0,P|21:63|31:14,1,80,2|0,0:0|0:0,0:0:0:0:
125,163,95813,1,10,0:0:0:0:
52,220,95980,1,8,0:0:0:0:
221,361,96146,6,0,L|213:231,1,120.000004577637,4|8,0:0|0:0,0:0:0:0:
201,230,96396,1,0,0:0:0:0:
201,230,96480,1,0,0:0:0:0:
318,366,96646,6,0,L|311:254,1,103.999995239258,4|8,0:0|0:0,0:0:0:0:
304,251,96896,1,0,0:0:0:0:
304,251,96980,1,0,0:0:0:0:
416,373,97146,6,0,L|410:277,1,88.000002685547,4|8,0:0|0:0,0:0:0:0:
404,274,97396,1,0,0:0:0:0:
404,274,97480,1,0,0:0:0:0:
512,384,97646,6,0,L|506:294,2,71.9999978027344,4|8|0,0:0|0:0|0:0,0:0:0:0:
465,203,98146,6,0,B|365:63|531:-3|553:127|439:119,1,272.000005187988,0|4,0:0|0:3,0:0:0:0:
450,120,98813,5,14,0:0:0:0:
450,120,98980,1,0,0:0:0:0:
358,135,99146,1,2,0:0:0:0:
358,135,99313,1,0,0:0:0:0:
274,98,99480,1,2,0:0:0:0:
274,98,99646,1,0,0:0:0:0:
224,21,99813,1,2,0:0:0:0:
224,21,99980,1,0,0:0:0:0:
90,148,100146,5,2,0:0:0:0:
90,148,100313,1,0,0:0:0:0:
185,135,100480,1,2,0:0:0:0:
185,135,100646,1,0,0:0:0:0:
262,187,100813,2,0,P|246:231|238:291,1,103.999995239258,2|0,0:0|0:0,0:0:0:0:
269,315,101063,1,0,0:0:0:0:
269,315,101146,2,0,L|361:311,1,80,0|8,0:0|0:0,0:0:0:0:
183,378,101480,6,0,P|166:319|116:207,1,160,4|0,0:0|0:0,0:0:0:0:
81,321,101980,1,0,0:0:0:0:
81,321,102146,2,0,P|38:328|-12:333,2,80,0|0|0,0:0|0:0|0:0,0:0:0:0:
226,65,102646,6,0,P|154:69|116:173,1,160,4|0,0:0|0:0,0:0:0:0:
177,206,103146,1,2,0:0:0:0:
262,161,103313,1,0,0:0:0:0:
327,231,103480,2,0,L|331:318,1,80,2|0,0:0|0:0,0:0:0:0:
403,162,103813,2,0,L|407:75,1,80,10|0,0:0|0:0,0:0:0:0:
512,293,104146,5,6,0:0:0:0:
512,293,104313,1,0,0:0:0:0:
425,263,104480,1,2,0:0:0:0:
425,263,104646,1,0,0:0:0:0:
403,162,104813,1,2,0:0:0:0:
318,275,104980,1,2,0:0:0:0:
318,275,105063,1,0,0:0:0:0:
318,275,105146,1,0,0:0:0:0:
238,161,105313,6,0,P|262:241|283:332,1,160,6|0,0:0|0:0,0:0:0:0:
183,305,105813,1,0,0:0:0:0:
116,373,105980,1,2,0:0:0:0:
116,373,106063,1,2,0:0:0:0:
116,373,106146,2,0,P|123:324|125:269,1,80,2|0,0:0|0:3,0:0:0:0:
78,224,106396,1,0,0:3:0:0:
78,224,106480,2,0,L|23:228,2,40,2|2|2,0:0|0:0|0:0,0:0:0:0:
198,51,106813,5,12,0:0:0:0:
198,51,106896,1,8,0:0:0:0:
198,51,106980,2,0,P|134:35|54:28,1,120.000004577637,8|8,0:0|0:0,0:0:0:0:
319,184,107313,1,12,0:0:0:0:
319,184,107396,1,8,0:0:0:0:
319,184,107480,2,0,P|363:172|418:168,1,95.9999970703126,8|8,0:0|0:0,0:0:0:0:
378,0,107813,5,12,0:0:0:0:
378,0,107896,1,8,0:0:0:0:
378,0,107980,2,0,L|390:96,1,80,8|8,0:0|0:0,0:0:0:0:
225,253,108313,1,12,0:0:0:0:
225,253,108396,1,8,0:0:0:0:
225,253,108480,1,8,0:0:0:0:
312,314,108646,1,8,0:0:0:0:
109,94,108813,6,0,P|130:128|146:172,1,80,12|8,0:0|0:0,0:0:0:0:
354,88,109146,2,0,B|318:46|296:2|296:2|287:78|258:143,1,240,12|0,0:0|0:0,0:0:0:0:
314,202,109480,6,0,L|439:188,2,95.9999970703126,4|2|2,0:0|0:0|0:0,0:0:0:0:
225,253,109980,2,0,L|100:239,2,95.9999970703126,4|2|2,0:0|0:0|0:0,0:0:0:0:
420,371,110480,5,0,0:0:0:0:
256,192,110646,12,0,112146,0:0:0:0:
