osu file format v14

[General]
AudioFilename: audio.mp3
AudioLeadIn: 0
PreviewTime: 77448
Countdown: 0
SampleSet: Normal
StackLeniency: 0.6
Mode: 0
LetterboxInBreaks: 0
WidescreenStoryboard: 1

[Editor]
Bookmarks: 1448,13448,24114,45448,56114,77448,98781,112114
DistanceSpacing: 1.5
BeatDivisor: 4
GridSize: 16
TimelineZoom: 1.399999

[Metadata]
Title:Force of RA
TitleUnicode:Force of RA
Artist:Memme
ArtistUnicode:Memme
Creator:Castagne
Version:Hard
Source:Pump It Up Prime
Tags:electronic arabic instrumental video game 포스 오브 라 맴매 parkmemme
BeatmapID:2684056
BeatmapSetID:1270694

[Difficulty]
HPDrainRate:5
CircleSize:3.4
OverallDifficulty:6
ApproachRate:7.6
SliderMultiplier:1.4
SliderTickRate:1

[Events]
//Background and Video events
0,0,"ombel.jpg",0,0
//Break Periods
//Storyboard Layer 0 (Background)
//Storyboard Layer 1 (Fail)
//Storyboard Layer 2 (Pass)
//Storyboard Layer 3 (Foreground)
//Storyboard Layer 4 (Overlay)
//Storyboard Sound Samples

[TimingPoints]
147,333.333333333333,4,1,1,60,1,0
1563,-100,4,3,2,40,0,0
3813,-125,4,3,2,40,0,0
3980,-125,4,1,1,60,0,0
4146,-100,4,1,1,60,0,0
4813,-100,4,3,2,40,0,0
5313,-100,4,1,1,60,0,0
7313,-100,4,3,2,40,0,0
9313,-100,4,1,1,60,0,0
13480,-100,4,1,1,62,0,0
24146,-83.3333333333333,4,1,3,70,0,0
33480,-100,4,3,2,100,0,0
34813,-83.3333333333333,4,1,3,70,0,0
42813,-100,4,1,1,90,0,0
43313,-90.9090909090909,4,1,1,90,0,0
43813,-82.6446280991736,4,1,1,90,0,0
44313,-75.1314800901578,4,1,1,90,0,0
45480,-125,4,1,1,65,0,0
54813,-125,4,1,1,90,0,0
56146,-111.111111111111,4,1,1,40,0,0
65646,-100,4,1,1,60,0,0
66646,-100,4,1,1,85,0,0
76813,-100,4,1,1,85,0,0
77480,-83.3333333333333,4,1,1,90,0,1
81313,-133.333333333333,4,1,1,90,0,1
82813,-83.3333333333333,4,1,1,90,0,1
86646,-133.333333333333,4,1,1,90,0,1
88146,-83.3333333333333,4,1,1,90,0,1
98813,-100,4,3,2,65,0,0
101480,-100,4,1,1,75,0,0
104146,-100,4,3,2,80,0,0
105313,-100,4,3,2,90,0,0
106813,-100,4,1,1,80,0,0
112146,-100,4,2,0,40,0,0

[Colours]
Combo1 : 113,143,54
Combo2 : 238,150,17
Combo3 : 128,30,84
Combo4 : 196,64,77

[HitObjects]
263,303,1313,5,0,1:0:0:0:
336,238,1480,6,0,P|322:180|283:81,1,140,4|4,0:0|0:0,0:0:0:0:
216,148,1980,1,0,0:0:0:0:
216,148,2146,2,0,P|155:158|121:160,1,70,2|0,0:0|0:0,0:0:0:0:
92,245,2480,2,0,P|34:223|3:207,1,70,2|0,0:0|0:0,0:0:0:0:
107,350,2813,6,0,P|177:310|252:282,1,140,0|0,0:0|0:0,0:0:0:0:
298,339,3313,1,0,0:0:0:0:
367,289,3480,2,0,P|377:239|391:202,1,70,2|0,0:0|0:0,0:0:0:0:
397,230,3730,2,0,L|435:227,1,35
379,144,3980,1,0,0:0:0:0:
295,187,4146,6,0,P|268:138|236:33,1,140,10|2,0:0|0:0,0:0:0:0:
318,27,4646,1,0,0:0:0:0:
387,75,4813,2,0,L|378:155,2,70,2|0|0,0:0|0:0|0:0,0:0:0:0:
466,0,5313,5,4,0:0:0:0:
466,0,6646,1,0,0:0:0:0:
413,74,6813,6,0,P|349:102|270:113,1,140,4|0,0:0|0:0,0:0:0:0:
233,217,7313,1,0,0:0:0:0:
233,217,7480,2,0,P|276:210|312:200,1,70,2|0,0:0|0:0,0:0:0:0:
334,288,7813,2,0,P|367:260|393:233,1,70,2|0,0:0|0:0,0:0:0:0:
376,138,8146,6,0,P|389:206|412:281,1,140
477,363,8646,2,0,L|517:358,2,35
302,254,9146,1,0,0:0:0:0:
216,286,9313,1,2,0:0:0:0:
197,372,9480,5,4,0:0:0:0:
62,136,9980,5,4,0:0:0:0:
318,5,10480,5,4,0:0:0:0:
267,288,10980,5,4,0:0:0:0:
146,119,11480,5,6,0:0:0:0:
231,182,11813,1,6,0:0:0:0:
326,146,12146,1,14,0:0:0:0:
326,146,13480,6,0,P|282:141|234:131,1,70,6|0,0:0|0:0,0:0:0:0:
198,66,13813,1,2,0:0:0:0:
112,96,13980,1,0,0:0:0:0:
112,96,14063,1,0,0:0:0:0:
112,96,14146,2,0,P|131:176|136:244,1,140,2|0,0:0|0:0,0:0:0:0:
101,317,14646,1,0,0:0:0:0:
227,365,14813,1,2,0:0:0:0:
237,281,14980,1,0,0:0:0:0:
237,281,15063,1,0,0:0:0:0:
237,281,15146,2,0,P|274:292|317:299,1,70,2|0,0:0|0:0,0:0:0:0:
392,207,15480,5,2,0:0:0:0:
424,291,15646,1,2,0:0:0:0:
392,207,15813,2,0,L|309:201,1,70,2|2,0:0|0:0,0:0:0:0:
200,197,16146,5,4,0:0:0:0:
247,88,16313,2,0,L|244:39,2,35,8|8|4,0:3|0:3|0:3,0:0:0:0:
338,85,16646,2,0,L|335:36,2,35,8|8|4,0:3|0:3|0:3,0:0:0:0:
429,82,16980,2,0,L|426:33,2,35,8|8|4,0:3|0:3|0:3,0:0:0:0:
508,170,17313,1,8,0:3:0:0:
508,170,17396,1,8,0:3:0:0:
508,170,17480,5,4,0:3:0:0:
382,355,17813,1,8,0:0:0:0:
342,267,17980,1,8,0:0:0:0:
259,314,18146,2,0,P|183:317|119:277,1,140,8|2,0:0|0:0,0:0:0:0:
81,179,18646,1,0,0:0:0:0:
161,71,18813,6,0,P|178:113|185:159,1,70,6|2,0:0|0:0,0:0:0:0:
209,224,19146,1,2,0:0:0:0:
278,111,19313,1,0,0:0:0:0:
278,111,19396,1,0,0:0:0:0:
278,111,19480,2,0,P|348:104|415:88,1,140,2|0,0:0|0:0,0:0:0:0:
503,63,19980,1,0,0:0:0:0:
502,189,20146,2,0,P|467:184|433:177,1,70,2|0,0:0|0:0,0:0:0:0:
362,235,20480,2,0,P|334:214|308:190,1,70,2|0,0:0|0:0,0:0:0:0:
273,68,20813,5,2,0:0:0:0:
211,151,20980,1,2,0:0:0:0:
273,68,21146,2,0,P|311:65|352:59,1,70,2|8,0:0|0:0,0:0:0:0:
461,22,21480,5,0,0:0:0:0:
427,131,21646,2,0,P|409:138|387:142,2,35,8|8|4,0:3|0:3|0:3,0:0:0:0:
406,220,21980,2,0,P|386:220|364:216,2,35,8|8|4,0:3|0:3|0:3,0:0:0:0:
360,298,22313,2,0,P|341:291|322:280,2,35,8|8|4,0:3|0:3|0:3,0:0:0:0:
485,320,22646,1,8,0:3:0:0:
485,320,22730,1,8,0:3:0:0:
485,320,22813,5,4,0:3:0:0:
485,320,23813,1,4,0:0:0:0:
275,382,24146,6,0,P|298:324|325:200,1,167.999994873047,4|8,0:0|0:0,0:0:0:0:
288,103,24646,1,2,0:0:0:0:
187,184,24813,2,0,L|196:276,1,83.9999974365235,2|0,0:0|0:0,0:0:0:0:
195,267,25063,1,0,0:0:0:0:
195,267,25146,1,8,0:0:0:0:
84,221,25313,1,0,0:0:0:0:
84,221,25396,1,0,0:0:0:0:
84,221,25480,6,0,P|111:127|120:36,1,167.999994873047,0|10,0:0|0:0,0:0:0:0:
119,57,25980,1,2,0:0:0:0:
218,100,26146,2,0,L|412:88,1,167.999994873047,8|8,0:3|0:0,0:0:0:0:
385,89,26813,6,0,B|349:138|349:138|374:268,1,167.999994873047,4|10,0:0|0:0,0:0:0:0:
335,347,27313,1,2,0:0:0:0:
246,273,27480,2,0,P|192:280|159:289,1,83.9999974365235,0|0,0:0|0:0,0:0:0:0:
163,287,27730,1,0,0:0:0:0:
163,287,27813,1,10,0:0:0:0:
59,378,27980,6,0,B|24:328|24:328|54:208,1,167.999994873047,8|0,0:3|0:0,0:0:0:0:
131,151,28480,2,0,P|173:168|220:178,1,83.9999974365235,10|2,0:0|0:0,0:0:0:0:
295,92,28813,5,2,0:0:0:0:
401,67,28980,1,0,0:0:0:0:
482,138,29146,1,8,0:0:0:0:
482,138,29480,6,0,P|429:202|384:288,1,167.999994873047,4|10,0:0|0:0,0:0:0:0:
327,366,29980,1,0,0:0:0:0:
258,281,30146,2,0,P|244:237|222:191,1,83.9999974365235,0|0,0:0|0:0,0:0:0:0:
228,202,30396,1,0,0:0:0:0:
228,202,30480,1,10,0:0:0:0:
367,264,30646,6,0,L|381:85,1,167.999994873047,8|0,0:3|0:0,0:0:0:0:
326,0,31146,1,8,0:0:0:0:
224,40,31313,2,0,P|169:56|54:49,1,167.999994873047
3,144,31813,2,0,P|52:161|90:186,1,83.9999974365235,8|0,0:0|0:0,0:0:0:0:
184,148,32146,6,0,L|192:242,1,83.9999974365235,0|2,0:0|0:0,0:0:0:0:
191,231,32396,1,2,0:0:0:0:
191,231,32480,1,10,0:0:0:0:
141,317,32646,2,0,B|257:303|249:393|377:379,1,251.999992309571,8|8,0:3|0:2,0:0:0:0:
509,280,33480,5,4,0:0:0:0:
241,227,34813,6,0,P|223:170|168:62,1,167.999994873047,4|10,0:0|0:0,0:0:0:0:
71,38,35313,1,2,0:0:0:0:
27,143,35480,2,0,P|49:195|57:227,1,83.9999974365235,8|0,0:3|0:0,0:0:0:0:
55,221,35730,1,0,0:0:0:0:
55,221,35813,1,8,0:0:0:0:
25,341,35980,1,0,0:0:0:0:
25,341,36063,1,0,0:0:0:0:
25,341,36146,6,0,P|94:320|204:332,1,167.999994873047,0|10,0:0|0:0,0:0:0:0:
288,372,36646,1,2,0:0:0:0:
364,294,36813,2,0,L|377:102,1,167.999994873047,8|8,0:3|0:0,0:0:0:0:
375,126,37480,6,0,P|306:108|195:126,1,167.999994873047,4|10,0:0|0:0,0:0:0:0:
121,183,37980,1,2,0:0:0:0:
22,136,38146,2,0,P|38:86|45:53,1,83.9999974365235,0|0,0:0|0:0,0:0:0:0:
44,55,38396,1,0,0:0:0:0:
44,55,38480,1,10,0:0:0:0:
159,0,38646,6,0,P|203:74|257:139,1,167.999994873047,8|0,0:3|0:0,0:0:0:0:
364,107,39146,2,0,L|465:99,1,83.9999974365235,8|0,0:0|0:0,0:0:0:0:
485,212,39480,1,0,0:0:0:0:
371,194,39646,1,0,0:0:0:0:
294,280,39813,1,8,0:0:0:0:
294,280,40146,6,0,P|216:248|117:228,1,167.999994873047,4|8,0:0|0:0,0:0:0:0:
134,230,40646,1,0,0:0:0:0:
192,145,40813,2,0,P|173:99|163:58,1,83.9999974365235,0|0,0:0|0:0,0:0:0:0:
164,65,41063,1,2,0:0:0:0:
164,65,41146,1,10,0:0:0:0:
300,179,41313,6,0,P|314:119|357:9,1,167.999994873047,4|0,0:0|0:0,0:0:0:0:
352,20,41813,1,8,0:0:0:0:
419,94,41980,2,0,P|460:91|502:83,1,83.9999974365235,0|0,0:0|0:0,0:0:0:0:
482,176,42313,1,0,0:0:0:0:
482,176,42480,2,0,P|489:217|492:259,1,83.9999974365235,10|0,0:0|0:0,0:0:0:0:
359,266,42813,6,0,L|371:190,2,70,12|0|8,0:0|0:0|0:0,0:0:0:0:
276,247,43313,6,0,L|277:170,2,77.0000023498536,12|0|8,0:0|0:0|0:0,0:0:0:0:
182,247,43813,6,0,L|170:156,2,84.6999976090241,12|0|8,0:0|0:0|0:0,0:0:0:0:
81,266,44313,6,0,L|56:172,2,93.1700033906625,12|8|8,0:0|0:0|0:0,0:0:0:0:
56,384,44813,1,8,0:0:0:0:
81,266,45146,1,4,0:0:0:0:
198,326,45480,6,0,P|213:269|236:201,1,112,4|0,0:0|0:0,0:0:0:0:
229,218,45980,1,0,0:0:0:0:
298,278,46146,2,0,P|337:268|364:263,1,56,2|0,0:0|0:0,0:0:0:0:
352,264,46396,1,0,0:0:0:0:
352,264,46480,1,0,0:0:0:0:
426,336,46646,6,0,P|440:281|459:229,1,112,8|0,0:3|0:0,0:0:0:0:
508,149,47146,2,0,P|514:122|512:91,1,56
467,22,47480,1,0,0:0:0:0:
410,102,47646,1,0,0:0:0:0:
410,102,47730,1,0,0:0:0:0:
410,102,47813,2,0,P|371:92|338:90,2,56
370,207,48313,2,0,L|372:168,2,28,8|8|4,0:3|0:3|0:3,0:0:0:0:
286,212,48646,2,0,L|288:173,2,28,8|8|4,0:3|0:3|0:3,0:0:0:0:
201,217,48980,2,0,L|203:178,2,28,8|8|4,0:3|0:3|0:3,0:0:0:0:
120,268,49313,1,0,0:0:0:0:
60,189,49480,6,0,P|77:153|83:128,1,56,0|0,0:0|0:0,0:0:0:0:
81,137,49730,1,0,0:0:0:0:
81,137,49813,1,2,0:0:0:0:
207,39,50146,2,0,L|212:126,2,84,6|10|8,0:0|0:0|0:0,0:0:0:0:
207,39,50813,6,0,P|281:25|331:12,1,112,0|0,0:0|0:0,0:0:0:0:
316,16,51313,1,0,0:0:0:0:
397,68,51480,2,0,P|389:106|385:130,1,56,2|0,0:0|0:0,0:0:0:0:
386,122,51730,1,0,0:0:0:0:
386,122,51813,1,0,0:0:0:0:
317,191,51980,6,0,P|361:184|447:177,1,112,8|0,0:3|0:0,0:0:0:0:
458,260,52480,2,0,L|396:259,1,56,0|0,0:0|0:0,0:0:0:0:
381,353,52813,1,0,0:0:0:0:
313,305,52980,1,0,0:0:0:0:
313,305,53063,1,0,0:0:0:0:
313,305,53146,2,0,P|307:270|295:239,2,56
228,303,53646,6,0,L|227:334,2,28,8|8|4,0:3|0:3|0:3,0:0:0:0:
143,309,53980,2,0,L|142:340,2,28,8|8|4,0:3|0:3|0:3,0:0:0:0:
59,315,54313,2,0,L|58:346,2,28,8|8|4,0:3|0:3|0:3,0:0:0:0:
56,198,54646,1,0,0:0:0:0:
56,198,54730,1,0,0:0:0:0:
56,198,54813,5,4,0:0:0:0:
56,198,56146,6,0,P|125:188|198:174,1,125.999996154785,4|0,0:0|0:0,0:0:0:0:
180,177,56646,1,0,0:0:0:0:
248,242,56813,2,0,P|289:186|332:119,1,125.999996154785,4|0,0:3|0:0,0:0:0:0:
320,138,57313,1,0,0:0:0:0:
257,66,57480,2,0,L|252:-4,2,62.9999980773926,8|8|8,0:3|0:3|0:3,0:0:0:0:
353,243,58146,2,0,P|317:230|287:223,1,62.9999980773926,4|0,0:3|0:0,0:0:0:0:
293,224,58396,1,0,0:0:0:0:
293,224,58480,1,0,0:0:0:0:
155,351,58813,6,0,P|217:342|291:335,1,125.999996154785,4|0,0:0|0:0,0:0:0:0:
280,335,59313,1,0,0:0:0:0:
378,366,59480,2,0,P|363:311|350:217,1,125.999996154785,4|0,0:3|0:0,0:0:0:0:
352,242,59980,1,0,0:0:0:0:
431,190,60146,2,0,L|502:196,2,62.9999980773926,8|8|8,0:3|0:3|0:3,0:0:0:0:
253,90,60813,2,0,P|266:127|274:158,1,62.9999980773926,4|0,0:3|0:0,0:0:0:0:
272,149,61063,1,0,0:0:0:0:
272,149,61146,1,0,0:0:0:0:
114,259,61480,6,0,P|125:197|145:115,1,125.999996154785,4|0,0:0|0:0,0:0:0:0:
139,135,61980,1,0,0:0:0:0:
9,177,62146,2,0,P|23:238|34:300,1,125.999996154785,4|0,0:3|0:0,0:0:0:0:
34,300,62646,1,0,0:0:0:0:
120,353,62813,2,0,L|191:346,2,62.9999980773926,8|8|8,0:3|0:3|0:3,0:0:0:0:
190,200,63480,2,0,P|236:212|264:217,1,62.9999980773926,4|0,0:3|0:0,0:0:0:0:
320,269,63813,1,0,0:0:0:0:
378,202,63980,6,0,B|360:110|435:118|415:22,1,188.999994232178,4|2,0:0|0:0,0:0:0:0:
249,75,64813,2,0,L|171:81,2,62.9999980773926,4|0|0,0:3|0:0|0:0,0:0:0:0:
331,50,65313,5,4,0:0:0:0:
331,50,65646,2,0,L|422:44,2,70,4|4|4,0:0|0:0|0:0,0:0:0:0:
244,109,66146,2,0,P|196:93|161:76,1,70,0|0,0:0|0:0,0:0:0:0:
199,2,66480,1,0,0:0:0:0:
331,50,66646,6,0,P|304:100|235:260,1,210,4|4,0:0|0:3,0:0:0:0:
381,358,67480,2,0,P|387:319|400:276,2,70
311,318,67980,1,0,0:0:0:0:
311,318,68063,1,0,0:0:0:0:
311,318,68146,6,0,L|156:310,1,140,4|4,0:0|0:3,0:0:0:0:
171,310,68646,1,0,0:0:0:0:
175,200,68813,2,0,P|165:161|156:131,1,70,4|0,0:3|0:0,0:0:0:0:
157,133,69063,1,0,0:0:0:0:
157,133,69146,1,4,0:3:0:0:
116,14,69313,6,0,B|214:5|210:73|314:65,1,210,4|4,0:0|0:3,0:0:0:0:
443,9,70146,1,4,0:3:0:0:
512,131,70480,2,0,P|493:176|484:205,1,70,4|0,0:3|0:0,0:0:0:0:
486,196,70813,5,4,0:0:0:0:
386,293,71146,1,4,0:3:0:0:
252,251,71480,2,0,P|209:240|176:234,1,70,4|0,0:3|0:0,0:0:0:0:
183,235,71813,1,4,0:3:0:0:
112,303,71980,6,0,P|135:245|180:90,1,210,4|0,0:0|0:0,0:0:0:0:
112,9,72646,1,2,0:0:0:0:
17,71,72813,2,0,P|22:120|30:162,1,70,6|2,0:3|0:0,0:0:0:0:
25,140,73146,1,2,0:0:0:0:
127,102,73313,6,0,L|355:86,1,210,4|0,0:0|0:0,0:0:0:0:
336,87,73980,1,2,0:0:0:0:
418,167,74146,2,0,P|456:176|490:180,2,70,6|2|2,0:3|0:0|0:0,0:0:0:0:
349,237,74646,6,0,P|265:247|159:337,1,210,0|12,0:0|0:0,0:0:0:0:
349,237,75480,1,8,0:0:0:0:
344,132,75646,1,8,0:0:0:0:
267,60,75813,1,8,0:0:0:0:
162,65,75980,5,4,0:0:0:0:
256,192,76146,12,4,77146,3:0:0:0:
162,65,77480,6,0,B|244:71|241:20|326:25,1,167.999994873047,4|0,0:2|0:0,0:0:0:0:
392,109,77980,1,0,0:0:0:0:
496,79,78146,2,0,P|479:33|469:-8,2,83.9999974365235,0|0|2,0:0|0:0|0:2,0:0:0:0:
478,186,78646,6,0,P|459:267|424:358,1,167.999994873047,4|8,0:2|0:0,0:0:0:0:
335,290,79146,2,0,P|281:275|230:268,1,83.9999974365235,8|0,0:0|0:0,0:0:0:0:
185,184,79480,2,0,P|135:211|95:242,1,83.9999974365235,0|0,0:0|0:0,0:0:0:0:
95,370,79813,5,0,0:0:0:0:
194,323,79980,2,0,P|226:319|249:319,2,41.9999987182618,8|8|4,0:3|0:3|0:3,0:0:0:0:
246,241,80313,2,0,P|277:248|299:256,2,41.9999987182618,8|8|4,0:3|0:3|0:3,0:0:0:0:
318,175,80646,2,0,P|344:192|361:207,2,41.9999987182618,8|8|4,0:3|0:3|0:3,0:0:0:0:
412,139,80980,2,0,P|431:164|442:184,2,41.9999987182618,8|8|4,0:3|0:3|0:3,0:0:0:0:
314,56,81313,6,0,B|247:48|189:97|187:176|187:176|188:112|134:68|72:82,1,367.500014019013,4|0,0:2|0:0,0:0:0:0:
76,82,82646,1,0,0:0:0:0:
20,186,82813,6,0,L|214:174,1,167.999994873047,4|0,0:2|0:0,0:0:0:0:
283,232,83313,1,0,0:0:0:0:
364,158,83480,2,0,P|350:108|340:54,2,83.9999974365235,0|0|2,0:0|0:0|0:0,0:0:0:0:
423,298,83980,6,0,P|359:279|241:271,1,167.999994873047,4|10,0:2|0:0,0:0:0:0:
149,324,84480,2,0,P|92:310|44:288,1,83.9999974365235,8|0,0:0|0:0,0:0:0:0:
118,203,84813,2,0,P|75:161|45:118,1,83.9999974365235,0|0,0:0|0:0,0:0:0:0:
102,33,85146,1,0,0:0:0:0:
200,92,85313,6,0,L|195:149,2,41.9999987182618,8|8|4,0:3|0:3|0:3,0:0:0:0:
292,83,85646,2,0,L|287:140,2,41.9999987182618,8|8|4,0:3|0:3|0:3,0:0:0:0:
384,74,85980,2,0,L|379:131,2,41.9999987182618,8|8|4,0:3|0:3|0:3,0:0:0:0:
476,65,86313,2,0,L|471:122,2,41.9999987182618,8|8|4,0:3|0:3|0:3,0:0:0:0:
482,193,86646,6,0,B|424:214|373:171|373:171|339:227|339:227|230:217|190:319,1,367.500014019013,4|4,0:0|0:3,0:0:0:0:
192,315,88146,6,0,P|281:316|358:334,1,167.999994873047,4|0,0:2|0:0,0:0:0:0:
458,375,88646,1,0,0:0:0:0:
496,272,88813,2,0,P|501:216|513:167,2,83.9999974365235,0|0|2,0:0|0:0|0:0,0:0:0:0:
402,215,89313,6,0,P|382:157|328:37,1,167.999994873047,4|8,0:2|0:0,0:0:0:0:
240,107,89813,2,0,L|231:211,1,83.9999974365235,8|0,0:0|0:0,0:0:0:0:
146,56,90146,2,0,L|119:156,1,83.9999974365235,0|0,0:0|0:0,0:0:0:0:
53,216,90480,1,0,0:0:0:0:
167,276,90646,6,0,P|155:253|139:228,2,41.9999987182618,8|8|4,0:3|0:3|0:3,0:0:0:0:
255,248,90980,2,0,P|252:223|244:193,2,41.9999987182618,8|8|4,0:3|0:3|0:3,0:0:0:0:
347,250,91313,2,0,P|352:225|356:195,2,41.9999987182618,8|8|4,0:3|0:3|0:3,0:0:0:0:
433,281,91646,2,0,P|446:259|460:233,2,41.9999987182618,8|8|4,0:3|0:3|0:3,0:0:0:0:
321,356,91980,6,0,P|257:338|120:318,1,167.999994873047,4|0,0:2|0:0,0:0:0:0:
39,341,92480,1,0,0:0:0:0:
16,248,92646,1,0,0:0:0:0:
16,248,92730,1,0,0:0:0:0:
16,248,92813,2,0,P|71:239|120:223,1,83.9999974365235,0|0,0:0|0:0,0:0:0:0:
199,153,93146,2,0,P|144:144|95:129,1,83.9999974365235,8|8,0:0|0:0,0:0:0:0:
139,13,93480,6,0,P|166:82|195:204,1,167.999994873047,4|0,0:2|0:0,0:0:0:0:
276,261,93980,1,0,0:0:0:0:
276,261,94063,1,0,0:0:0:0:
276,261,94146,2,0,P|335:244|377:239,2,83.9999974365235,0|8|8,0:0|0:0|0:0,0:0:0:0:
157,324,94646,6,0,P|90:303|-11:216,1,167.999994873047,4|0,0:2|0:0,0:0:0:0:
23,134,95146,2,0,P|45:84|60:39,1,83.9999974365235,2|0,0:0|0:0,0:0:0:0:
143,0,95480,2,0,P|158:44|179:88,1,83.9999974365235,2|0,0:0|0:0,0:0:0:0:
237,164,95813,1,10,0:0:0:0:
211,257,95980,1,8,0:0:0:0:
278,325,96146,6,0,P|345:308|391:301,1,83.9999974365235,4|8,0:0|0:0,0:0:0:0:
359,305,96396,1,0,0:0:0:0:
359,305,96480,1,0,0:0:0:0:
445,242,96646,2,0,P|407:192|353:64,1,167.999994873047,4|0,0:0|0:0,0:0:0:0:
282,11,97146,6,0,L|267:111,1,83.9999974365235,4|8,0:0|0:0,0:0:0:0:
269,94,97396,1,0,0:0:0:0:
269,94,97480,1,0,0:0:0:0:
259,201,97646,2,0,P|185:166|86:140,1,167.999994873047,4|0,0:0|0:0,0:0:0:0:
2,200,98146,1,0,0:0:0:0:
170,27,98480,1,4,0:3:0:0:
352,130,98813,6,0,P|321:183|286:289,1,140,14|2,0:0|0:0,0:0:0:0:
281,372,99313,1,0,0:0:0:0:
193,319,99480,2,0,P|148:307|106:301,1,70,2|0,0:0|0:0,0:0:0:0:
30,334,99813,1,2,0:0:0:0:
9,240,99980,1,0,0:0:0:0:
82,177,100146,6,0,P|150:188|247:211,1,140,2|2,0:0|0:0,0:0:0:0:
219,203,100646,1,0,0:0:0:0:
318,150,100813,2,0,P|296:96|287:65,1,70,2|0,0:0|0:0,0:0:0:0:
293,85,101063,1,0,0:0:0:0:
293,85,101146,1,0,0:0:0:0:
119,169,101480,6,0,P|144:102|183:19,1,140,4|0,0:0|0:0,0:0:0:0:
276,3,101980,1,0,0:0:0:0:
357,53,102146,2,0,L|452:45,2,70,0|0|0,0:0|0:0|0:0,0:0:0:0:
276,108,102646,2,0,P|311:172|352:240,1,140,4|0,0:0|0:0,0:0:0:0:
439,285,103146,1,2,0:0:0:0:
439,285,103230,1,0,0:0:0:0:
439,285,103313,1,0,0:0:0:0:
357,335,103480,2,0,L|273:342,2,70,2|0|10,0:0|0:0|0:0,0:0:0:0:
357,335,104146,6,0,P|381:267|421:186,1,140,6|2,0:0|0:0,0:0:0:0:
477,144,104646,1,0,0:0:0:0:
419,76,104813,2,0,L|322:83,1,70,2|2,0:0|0:0,0:0:0:0:
349,81,105063,1,0,0:0:0:0:
349,81,105146,1,0,0:0:0:0:
269,15,105313,6,0,P|294:72|317:167,1,140,6|0,0:0|0:0,0:0:0:0:
231,185,105813,2,0,P|187:177|143:174,1,70,0|2,0:0|0:0,0:0:0:0:
161,174,106063,1,2,0:0:0:0:
161,174,106146,1,2,0:0:0:0:
101,242,106313,1,0,0:3:0:0:
101,242,106396,1,0,0:3:0:0:
101,242,106480,2,0,L|66:241,2,35,2|2|2,0:0|0:0|0:0,0:0:0:0:
115,359,106813,6,0,P|216:344|285:340,1,140,12|8,0:0|0:0,0:0:0:0:
253,341,107313,1,12,0:0:0:0:
211,29,107813,6,0,P|174:86|134:176,1,140,12|8,0:0|0:0,0:0:0:0:
143,150,108313,1,12,0:0:0:0:
409,264,108813,6,0,P|394:226|366:102,1,140,12|12,0:0|0:0,0:0:0:0:
499,331,109480,5,4,0:0:0:0:
209,302,109980,5,4,0:0:0:0:
33,72,110480,5,4,0:0:0:0:
256,192,110646,12,0,112146,0:0:0:0:
