osu file format v14

[General]
AudioFilename: audio.mp3
AudioLeadIn: 0
PreviewTime: 13449
Countdown: 0
SampleSet: Normal
StackLeniency: 0.7
Mode: 1
LetterboxInBreaks: 0
WidescreenStoryboard: 0

[Editor]
Bookmarks: 56160,66825,77493,98827
DistanceSpacing: 0.8
BeatDivisor: 2
GridSize: 32
TimelineZoom: 1.299999

[Metadata]
Title:Force of RA
TitleUnicode:Force of RA
Artist:Memme
ArtistUnicode:Memme
Creator:Arrival
Version:Futsuu
Source:Pump It Up Prime
Tags:
BeatmapID:1146343
BeatmapSetID:539245

[Difficulty]
HPDrainRate:6
CircleSize:2
OverallDifficulty:4
ApproachRate:5
SliderMultiplier:1.4
SliderTickRate:1

[Events]
//Background and Video events
0,0,"force of ra.jpg",0,0
//Break Periods
//Storyboard Layer 0 (Background)
//Storyboard Layer 1 (Fail)
//Storyboard Layer 2 (Pass)
//Storyboard Layer 3 (Foreground)
//Storyboard Sound Samples

[TimingPoints]
116,333.333333333333,4,1,0,80,1,0
1115,-111.111111111111,4,1,0,80,0,0
13449,-100,4,1,0,90,0,0
22782,-100,4,1,0,90,0,0
24115,-100,4,1,0,90,0,0
33449,-100,4,1,0,70,0,0
34782,-100,4,1,0,90,0,0
42782,-100,4,1,0,90,0,0
45449,-100,4,1,0,90,0,0
50115,-100,4,1,0,95,0,0
50782,-100,4,1,0,90,0,0
54782,-100,4,1,0,85,0,0
56115,-100,4,1,0,70,0,0
65449,-100,4,1,0,90,0,0
66782,-100,4,1,0,90,0,0
76115,-100,4,1,0,90,0,0
77449,-95.2380952380952,4,1,0,100,0,1
98782,-100,4,1,0,90,0,0

[HitObjects]
256,96,1449,5,4,0:0:0:0:
256,96,1782,1,0,0:0:0:0:
256,96,2115,1,0,0:0:0:0:
256,96,2449,1,8,0:0:0:0:
256,96,2782,1,8,0:0:0:0:
256,96,3449,1,0,0:0:0:0:
256,96,3782,1,8,0:0:0:0:
256,96,4115,1,4,0:0:0:0:
256,96,4449,1,4,0:0:0:0:
256,96,4782,1,0,0:0:0:0:
256,96,5115,1,8,0:0:0:0:
256,192,5449,12,0,6449,0:0:0:0:
256,96,6782,5,4,0:0:0:0:
256,96,7115,1,0,0:0:0:0:
256,96,7449,1,0,0:0:0:0:
256,96,7782,1,8,0:0:0:0:
256,96,8115,1,8,0:0:0:0:
256,96,8782,1,0,0:0:0:0:
256,96,9115,1,8,0:0:0:0:
256,96,9449,1,4,0:0:0:0:
256,96,9949,1,4,0:0:0:0:
256,96,10449,1,12,0:0:0:0:
256,96,10949,1,12,0:0:0:0:
256,96,11449,1,4,0:0:0:0:
256,96,11782,1,4,0:0:0:0:
256,96,12115,1,12,0:0:0:0:
256,96,13115,1,12,0:0:0:0:
256,96,13449,1,4,0:0:0:0:
256,96,13782,1,8,0:0:0:0:
256,96,14115,1,0,0:0:0:0:
256,96,14782,1,0,0:0:0:0:
256,96,15115,1,8,0:0:0:0:
256,96,15282,1,8,0:0:0:0:
256,96,15449,1,0,0:0:0:0:
256,96,15782,1,8,0:0:0:0:
256,96,16115,2,0,L|256:256,3,139.99998544693
256,96,17449,1,0,0:0:0:0:
256,96,17782,1,8,0:0:0:0:
256,96,18115,1,0,0:0:0:0:
256,96,18449,1,8,0:0:0:0:
256,96,18615,1,8,0:0:0:0:
256,96,18782,1,0,0:0:0:0:
256,96,19449,1,8,0:0:0:0:
256,96,19782,1,8,0:0:0:0:
256,96,19949,1,0,0:0:0:0:
256,96,20115,1,0,0:0:0:0:
256,96,20449,1,8,0:0:0:0:
256,96,20782,1,8,0:0:0:0:
256,96,21115,1,8,0:0:0:0:
256,96,21282,1,8,0:0:0:0:
256,96,21449,1,0,0:0:0:0:
256,96,22115,1,0,0:0:0:0:
256,96,22449,1,8,0:0:0:0:
256,96,22782,1,0,0:0:0:0:
256,96,23782,1,12,0:0:0:0:
256,96,24115,1,4,0:0:0:0:
256,96,24782,1,0,0:0:0:0:
256,96,25115,1,8,0:0:0:0:
256,96,25282,1,8,0:0:0:0:
256,96,25449,1,0,0:0:0:0:
256,96,25782,1,8,0:0:0:0:
256,96,26115,1,0,0:0:0:0:
256,96,26782,1,0,0:0:0:0:
256,96,27115,1,8,0:0:0:0:
256,96,27449,1,0,0:0:0:0:
256,96,27782,1,8,0:0:0:0:
256,96,28115,1,0,0:0:0:0:
256,96,28449,1,8,0:0:0:0:
256,96,28615,1,8,0:0:0:0:
256,96,28782,1,0,0:0:0:0:
256,96,29115,1,8,0:0:0:0:
256,96,29449,1,0,0:0:0:0:
256,96,30115,1,0,0:0:0:0:
256,96,30449,1,8,0:0:0:0:
256,96,30615,1,8,0:0:0:0:
256,96,30782,1,0,0:0:0:0:
256,96,31115,1,8,0:0:0:0:
256,96,31449,1,0,0:0:0:0:
256,96,32115,1,0,0:0:0:0:
256,96,32449,1,8,0:0:0:0:
256,96,32782,1,0,0:0:0:0:
256,96,33115,1,8,0:0:0:0:
256,96,33282,1,8,0:0:0:0:
256,96,33449,1,4,0:0:0:0:
256,96,34115,1,8,0:0:0:0:
256,96,34449,1,0,0:0:0:0:
256,96,34615,1,8,0:0:0:0:
256,96,34782,1,4,0:0:0:0:
256,96,35115,1,8,0:0:0:0:
256,96,35449,1,8,0:0:0:0:
256,96,35615,1,0,0:0:0:0:
256,96,35782,1,8,0:0:0:0:
256,96,36115,1,0,0:0:0:0:
256,96,36782,1,0,0:0:0:0:
256,96,37115,1,8,0:0:0:0:
256,96,37282,1,8,0:0:0:0:
256,96,37449,1,0,0:0:0:0:
256,96,37782,1,8,0:0:0:0:
256,96,38115,1,0,0:0:0:0:
256,96,38449,1,8,0:0:0:0:
256,96,38615,1,0,0:0:0:0:
256,96,38782,1,0,0:0:0:0:
256,96,39115,1,8,0:0:0:0:
256,96,39449,1,0,0:0:0:0:
256,96,39615,1,0,0:0:0:0:
256,96,39782,1,8,0:0:0:0:
256,96,40115,1,4,0:0:0:0:
256,96,40782,1,0,0:0:0:0:
256,96,41282,1,4,0:0:0:0:
256,96,41782,1,8,0:0:0:0:
256,96,42115,1,0,0:0:0:0:
256,96,42449,1,8,0:0:0:0:
256,96,42782,1,4,0:0:0:0:
256,96,43282,1,4,0:0:0:0:
256,96,43782,1,4,0:0:0:0:
256,96,44282,1,4,0:0:0:0:
256,96,44782,1,4,0:0:0:0:
256,96,45115,1,12,0:0:0:0:
256,96,45449,1,4,0:0:0:0:
256,96,45782,1,8,0:0:0:0:
256,96,45949,1,8,0:0:0:0:
256,96,46115,1,8,0:0:0:0:
256,96,46449,1,8,0:0:0:0:
256,96,46782,1,0,0:0:0:0:
256,96,47449,1,0,0:0:0:0:
256,96,47782,1,8,0:0:0:0:
256,96,47949,1,8,0:0:0:0:
256,96,48115,1,0,0:0:0:0:
256,96,48449,1,8,0:0:0:0:
256,96,48782,1,0,0:0:0:0:
256,96,49115,1,8,0:0:0:0:
256,96,49449,1,8,0:0:0:0:
256,96,49615,1,8,0:0:0:0:
256,96,49782,1,0,0:0:0:0:
256,96,50115,1,12,0:0:0:0:
256,96,50782,1,4,0:0:0:0:
256,96,51115,1,8,0:0:0:0:
256,96,51282,1,8,0:0:0:0:
256,96,51449,1,8,0:0:0:0:
256,96,51782,1,8,0:0:0:0:
256,96,52115,1,0,0:0:0:0:
256,96,52449,1,8,0:0:0:0:
256,96,52615,1,8,0:0:0:0:
256,96,52782,1,8,0:0:0:0:
256,96,53115,1,8,0:0:0:0:
256,96,53449,2,0,L|256:192,4,69.999992723465
256,96,54449,1,8,0:0:0:0:
256,96,54782,1,0,0:0:0:0:
256,96,55115,1,8,0:0:0:0:
256,96,55782,1,8,0:0:0:0:
256,96,56115,1,0,0:0:0:0:
256,96,56449,1,0,0:0:0:0:
256,96,56782,1,8,0:0:0:0:
256,96,57449,1,8,0:0:0:0:
256,96,58115,1,8,0:0:0:0:
256,96,58449,1,0,0:0:0:0:
256,96,58782,1,0,0:0:0:0:
256,96,59115,1,0,0:0:0:0:
256,96,59449,1,8,0:0:0:0:
256,96,60115,1,8,0:0:0:0:
256,96,60782,1,8,0:0:0:0:
256,96,61115,1,8,0:0:0:0:
256,96,61449,1,0,0:0:0:0:
256,96,61782,1,0,0:0:0:0:
256,96,62115,1,8,0:0:0:0:
256,96,62782,1,8,0:0:0:0:
256,96,63449,1,8,0:0:0:0:
256,96,63782,1,0,0:0:0:0:
256,96,64115,1,0,0:0:0:0:
256,96,64449,1,0,0:0:0:0:
256,96,64615,1,0,0:0:0:0:
256,96,64782,1,8,0:0:0:0:
256,96,65282,1,12,0:0:0:0:
256,96,65782,1,8,0:0:0:0:
256,96,66115,1,4,0:0:0:0:
256,96,66615,1,4,0:0:0:0:
256,96,67115,1,12,0:0:0:0:
256,96,67449,1,8,0:0:0:0:
256,96,67782,1,8,0:0:0:0:
256,96,67949,1,0,0:0:0:0:
256,96,68115,1,8,0:0:0:0:
256,96,68782,1,8,0:0:0:0:
256,96,69115,1,8,0:0:0:0:
256,96,69282,1,0,0:0:0:0:
256,96,69449,1,8,0:0:0:0:
256,96,69782,1,8,0:0:0:0:
256,96,70115,1,8,0:0:0:0:
256,96,70449,1,8,0:0:0:0:
288,96,70615,1,0,0:0:0:0:
256,96,70782,1,8,0:0:0:0:
256,96,71449,1,8,0:0:0:0:
256,96,71949,1,4,0:0:0:0:
256,96,72449,1,12,0:0:0:0:
256,96,72782,1,8,0:0:0:0:
256,96,73115,1,8,0:0:0:0:
256,96,73282,1,0,0:0:0:0:
256,96,73449,1,8,0:0:0:0:
256,96,74115,1,8,0:0:0:0:
256,96,74449,1,8,0:0:0:0:
256,96,74615,1,0,0:0:0:0:
256,96,74782,1,8,0:0:0:0:
256,96,75115,1,8,0:0:0:0:
256,96,75449,1,8,0:0:0:0:
256,96,76115,1,12,0:0:0:0:
256,96,76782,1,8,0:0:0:0:
256,96,76949,1,8,0:0:0:0:
256,96,77115,1,12,0:0:0:0:
256,96,77449,1,4,0:0:0:0:
256,96,77782,1,8,0:0:0:0:
256,96,77949,1,8,0:0:0:0:
256,96,78115,1,0,0:0:0:0:
256,96,78615,1,4,0:0:0:0:
256,96,79115,1,8,0:0:0:0:
256,96,79449,1,8,0:0:0:0:
256,96,79782,1,0,0:0:0:0:
256,96,79949,1,0,0:0:0:0:
256,96,80115,1,8,0:0:0:0:
256,96,80782,1,0,0:0:0:0:
256,96,81282,1,4,0:0:0:0:
256,192,81449,12,0,82449,0:0:0:0:
256,96,82782,5,4,0:0:0:0:
256,96,83115,1,8,0:0:0:0:
256,96,83282,1,8,0:0:0:0:
256,96,83449,1,0,0:0:0:0:
256,96,83949,1,4,0:0:0:0:
256,96,84449,1,8,0:0:0:0:
256,96,84782,1,0,0:0:0:0:
256,96,85115,1,8,0:0:0:0:
256,96,85282,1,0,0:0:0:0:
256,96,85449,1,8,0:0:0:0:
256,96,86115,1,0,0:0:0:0:
256,96,86615,1,4,0:0:0:0:
256,96,87449,1,8,0:0:0:0:
256,96,87782,1,12,0:0:0:0:
256,96,88115,1,4,0:0:0:0:
256,96,88449,1,8,0:0:0:0:
256,96,88615,1,8,0:0:0:0:
256,96,88782,1,0,0:0:0:0:
256,96,89282,1,0,0:0:0:0:
256,96,89782,1,8,0:0:0:0:
256,96,90115,1,0,0:0:0:0:
256,96,90449,1,8,0:0:0:0:
256,96,90615,1,8,0:0:0:0:
256,96,90782,1,8,0:0:0:0:
256,96,91449,1,0,0:0:0:0:
256,96,91949,1,0,0:0:0:0:
256,192,92115,12,0,93115,0:0:0:0:
256,96,93449,5,4,0:0:0:0:
256,96,93782,1,8,0:0:0:0:
256,96,93949,1,8,0:0:0:0:
256,96,94115,1,0,0:0:0:0:
256,96,94615,1,4,0:0:0:0:
256,96,95115,1,8,0:0:0:0:
256,96,95282,1,8,0:0:0:0:
256,96,95449,1,8,0:0:0:0:
256,96,95782,1,8,0:0:0:0:
256,96,96115,1,4,0:0:0:0:
256,96,96615,1,4,0:0:0:0:
256,96,97115,1,4,0:0:0:0:
256,96,97615,1,4,0:0:0:0:
256,96,98115,1,4,0:0:0:0:
256,96,98448,1,12,0:0:0:0:
256,96,98782,1,4,0:0:0:0:
256,96,99115,1,8,0:0:0:0:
256,96,99448,1,8,0:0:0:0:
256,96,99615,1,0,0:0:0:0:
256,96,99782,1,8,0:0:0:0:
256,96,100115,1,0,0:0:0:0:
256,96,100449,1,8,0:0:0:0:
256,96,100782,1,0,0:0:0:0:
256,96,101115,1,8,0:0:0:0:
256,96,101282,1,8,0:0:0:0:
256,96,101449,1,0,0:0:0:0:
256,96,102115,1,0,0:0:0:0:
256,96,102615,1,0,0:0:0:0:
256,192,102782,12,0,103782,0:0:0:0:
256,96,104115,5,4,0:0:0:0:
256,96,104449,1,8,0:0:0:0:
256,96,104782,1,8,0:0:0:0:
256,96,104949,1,0,0:0:0:0:
256,96,105116,1,8,0:0:0:0:
256,96,105449,1,0,0:0:0:0:
256,96,105783,1,8,0:0:0:0:
256,96,106116,1,0,0:0:0:0:
256,96,106449,1,8,0:0:0:0:
256,96,106616,1,8,0:0:0:0:
256,96,106783,1,4,0:0:0:0:
256,96,107283,1,4,0:0:0:0:
256,96,107783,1,12,0:0:0:0:
256,96,108283,1,12,0:0:0:0:
256,96,108783,1,8,0:0:0:0:
256,96,109116,1,12,0:0:0:0:
256,96,109449,1,4,0:0:0:0:
256,96,109949,1,4,0:0:0:0:
256,96,110449,1,4,0:0:0:0:
256,192,110615,12,0,112115,0:0:0:0:
