osu file format v14

[General]
AudioFilename: audio.mp3
AudioLeadIn: 0
PreviewTime: 48961
Countdown: 1
SampleSet: Normal
StackLeniency: 0.7
Mode: 0
LetterboxInBreaks: 0
WidescreenStoryboard: 0

[Editor]
DistanceSpacing: 0.1
BeatDivisor: 4
GridSize: 4
TimelineZoom: 1.7

[Metadata]
Title:Extreme Fantasy
TitleUnicode:Extreme Fantasy
Artist:Memme
ArtistUnicode:Memme
Creator:Rucker
Version:Relius
Source:
Tags:
BeatmapID:1131429
BeatmapSetID:534119

[Difficulty]
HPDrainRate:4
CircleSize:4.2
OverallDifficulty:9
ApproachRate:9.4
SliderMultiplier:2.4
SliderTickRate:1

[Events]
//Background and Video events
0,0,"__cloud___sparkle____bg___by_iristhefaerie.jpg",0,0
//Break Periods
2,43634,45263
2,113897,114737
//Storyboard Layer 0 (Background)
//Storyboard Layer 1 (Fail)
//Storyboard Layer 2 (Pass)
//Storyboard Layer 3 (Foreground)
//Storyboard Sound Samples

[TimingPoints]
3172,394.736842105263,4,1,0,100,1,0
43040,-200,4,1,0,100,0,0
45803,-133.333333333333,4,1,0,100,0,0
46593,-100,4,1,0,100,0,0
113303,-200,4,1,0,100,0,0
113698,-100,4,1,0,100,0,0
115277,-100,4,1,0,20,0,0
115671,-100,4,1,0,40,0,0
116066,-100,4,1,0,60,0,0
116461,-100,4,1,0,80,0,0
116856,-100,4,1,0,100,0,0
144487,-200,4,1,0,70,0,0

[HitObjects]
40,136,3172,6,0,P|128:320|376:272,1,480,2|0,0:0|0:0,0:0:0:0:
176,96,4356,5,8,0:0:0:0:
208,56,4454,1,0,0:0:0:0:
256,40,4553,1,0,0:0:0:0:
304,48,4652,1,0,0:0:0:0:
344,72,4750,2,0,L|408:40,3,60,4|0|0|0,0:0|0:0|0:0|0:0,0:0:0:0:
408,120,5145,2,0,L|354:146,3,60,8|0|0|0,0:0|0:0|0:0|0:0,0:0:0:0:
456,176,5540,2,0,L|509:149,3,60
432,256,5935,2,0,L|378:282,3,60,8|0|0|0,0:0|0:0|0:0|0:0,0:0:0:0:
304,256,6329,6,0,L|328:328,3,60
248,312,6724,2,0,L|272:384,3,60,8|0|0|0,0:0|0:0|0:0|0:0,0:0:0:0:
184,256,7119,2,0,L|208:328,3,60
128,312,7514,2,0,L|152:384,3,60,8|0|0|0,0:0|0:0|0:0|0:0,0:0:0:0:
40,216,7908,5,0,0:0:0:0:
48,192,8007,1,0,0:0:0:0:
56,168,8106,1,0,0:0:0:0:
64,144,8204,1,0,0:0:0:0:
72,120,8303,1,8,0:0:0:0:
80,96,8402,1,0,0:0:0:0:
88,72,8500,1,0,0:0:0:0:
96,48,8599,1,0,0:0:0:0:
192,24,8698,5,0,0:0:0:0:
184,48,8797,1,0,0:0:0:0:
176,72,8895,1,0,0:0:0:0:
168,96,8994,1,0,0:0:0:0:
160,120,9093,1,8,0:0:0:0:
152,144,9191,1,0,0:0:0:0:
144,168,9290,1,0,0:0:0:0:
136,192,9389,1,0,0:0:0:0:
112,272,9487,6,0,L|96:336,3,60
184,296,9882,2,0,L|198:237,3,60,8|0|0|0,0:0|0:0|0:0|0:0,0:0:0:0:
264,272,10276,2,0,L|248:336,3,60
336,296,10671,2,0,L|350:237,3,60,8|0|0|0,0:0|0:0|0:0|0:0,0:0:0:0:
432,272,11066,5,0,0:0:0:0:
440,248,11165,1,0,0:0:0:0:
448,224,11264,1,0,0:0:0:0:
456,200,11362,1,0,0:0:0:0:
464,176,11461,1,8,0:0:0:0:
472,152,11560,1,0,0:0:0:0:
480,128,11658,1,0,0:0:0:0:
488,104,11757,1,0,0:0:0:0:
416,48,11856,5,0,0:0:0:0:
391,53,11955,1,0,0:0:0:0:
366,59,12054,1,0,0:0:0:0:
341,64,12152,1,0,0:0:0:0:
317,70,12251,1,8,0:0:0:0:
292,75,12350,1,0,0:0:0:0:
267,81,12448,1,0,0:0:0:0:
243,86,12547,1,0,0:0:0:0:
168,48,12645,6,0,L|88:24,3,60
136,120,13040,2,0,L|56:96,3,60,8|0|0|0,0:0|0:0|0:0|0:0,0:0:0:0:
104,192,13435,2,0,L|24:168,3,60
72,264,13829,2,0,L|-8:240,3,60,8|0|0|0,0:0|0:0|0:0|0:0,0:0:0:0:
112,352,14224,5,0,0:0:0:0:
128,336,14323,1,0,0:0:0:0:
144,320,14421,1,0,0:0:0:0:
160,304,14520,1,0,0:0:0:0:
176,288,14619,2,0,L|256:312,1,60,8|0,0:0|0:0,0:0:0:0:
256,240,14816,2,0,L|336:264,1,60
464,312,15014,5,0,0:0:0:0:
456,288,15112,1,0,0:0:0:0:
448,264,15211,1,0,0:0:0:0:
440,240,15310,1,0,0:0:0:0:
432,216,15408,2,0,L|400:128,1,60,8|0,0:0|0:0,0:0:0:0:
312,88,15606,2,0,L|332:144,1,60
320,320,15803,5,0,0:0:0:0:
296,312,15902,1,0,0:0:0:0:
272,304,16000,1,0,0:0:0:0:
248,296,16099,1,0,0:0:0:0:
224,288,16198,1,0,0:0:0:0:
200,280,16296,1,0,0:0:0:0:
176,272,16395,1,0,0:0:0:0:
152,264,16494,1,0,0:0:0:0:
128,256,16593,5,4,0:0:0:0:
288,104,16790,1,0,0:0:0:0:
72,32,16987,1,0,0:0:0:0:
128,256,17185,1,0,0:0:0:0:
288,104,17382,5,0,0:0:0:0:
309,82,17481,1,0,0:0:0:0:
335,69,17579,1,0,0:0:0:0:
365,64,17678,1,0,0:0:0:0:
395,69,17777,1,8,0:0:0:0:
421,82,17875,1,0,0:0:0:0:
443,104,17974,1,0,0:0:0:0:
456,130,18073,1,0,0:0:0:0:
461,160,18171,1,0,0:0:0:0:
456,189,18270,1,0,0:0:0:0:
443,216,18369,1,0,0:0:0:0:
421,237,18468,1,0,0:0:0:0:
395,251,18566,2,0,L|336:208,3,60,8|0|0|0,0:0|0:0|0:0|0:0,0:0:0:0:
352,328,18961,5,0,0:0:0:0:
328,320,19060,1,0,0:0:0:0:
304,312,19158,1,0,0:0:0:0:
280,304,19257,1,0,0:0:0:0:
256,296,19356,1,8,0:0:0:0:
232,288,19454,1,0,0:0:0:0:
208,280,19553,1,0,0:0:0:0:
184,272,19652,1,0,0:0:0:0:
160,264,19750,1,0,0:0:0:0:
136,256,19849,1,0,0:0:0:0:
112,248,19948,1,0,0:0:0:0:
88,240,20046,1,0,0:0:0:0:
64,232,20145,2,0,L|24:168,3,60,8|0|0|0,0:0|0:0|0:0|0:0,0:0:0:0:
80,104,20540,5,0,0:0:0:0:
104,96,20639,1,0,0:0:0:0:
128,88,20737,1,0,0:0:0:0:
152,80,20836,1,0,0:0:0:0:
176,72,20935,1,8,0:0:0:0:
200,64,21033,1,0,0:0:0:0:
224,56,21132,1,0,0:0:0:0:
248,48,21231,1,0,0:0:0:0:
304,112,21329,5,0,0:0:0:0:
283,134,21427,1,0,0:0:0:0:
269,161,21526,1,0,0:0:0:0:
263,190,21625,1,0,0:0:0:0:
263,220,21723,1,8,0:0:0:0:
270,249,21822,1,0,0:0:0:0:
284,275,21921,1,0,0:0:0:0:
304,298,22019,1,0,0:0:0:0:
329,315,22118,1,0,0:0:0:0:
357,325,22217,1,0,0:0:0:0:
387,328,22315,1,0,0:0:0:0:
417,324,22414,1,0,0:0:0:0:
445,314,22513,1,8,0:0:0:0:
469,296,22611,1,0,0:0:0:0:
489,274,22710,1,0,0:0:0:0:
502,247,22809,1,0,0:0:0:0:
510,218,22907,1,0,0:0:0:0:
510,188,23006,1,0,0:0:0:0:
502,159,23105,1,0,0:0:0:0:
488,133,23204,1,0,0:0:0:0:
468,110,23302,1,8,0:0:0:0:
444,93,23401,1,0,0:0:0:0:
415,83,23500,1,0,0:0:0:0:
385,80,23598,1,0,0:0:0:0:
336,168,23698,5,0,0:0:0:0:
312,160,23796,1,0,0:0:0:0:
288,152,23895,1,0,0:0:0:0:
264,144,23994,1,0,0:0:0:0:
240,136,24093,1,8,0:0:0:0:
216,128,24191,1,0,0:0:0:0:
192,120,24290,1,0,0:0:0:0:
168,112,24389,1,0,0:0:0:0:
144,104,24487,6,0,L|112:32,3,60
48,120,24882,2,0,L|72:174,3,60,8|0|0|0,0:0|0:0|0:0|0:0,0:0:0:0:
32,256,25277,5,0,0:0:0:0:
56,264,25375,1,0,0:0:0:0:
80,272,25474,1,0,0:0:0:0:
104,280,25573,1,0,0:0:0:0:
128,288,25671,1,8,0:0:0:0:
152,296,25770,1,0,0:0:0:0:
176,304,25869,1,0,0:0:0:0:
200,312,25968,1,0,0:0:0:0:
288,344,26066,5,0,0:0:0:0:
317,341,26165,1,0,0:0:0:0:
345,330,26264,1,0,0:0:0:0:
368,311,26362,1,0,0:0:0:0:
384,285,26461,1,8,0:0:0:0:
391,256,26560,1,0,0:0:0:0:
389,226,26658,1,0,0:0:0:0:
378,199,26757,1,0,0:0:0:0:
328,120,26856,6,0,L|360:56,3,60
240,176,27250,2,0,L|213:229,3,60,8|0|0|0,0:0|0:0|0:0|0:0,0:0:0:0:
176,80,27645,2,0,L|208:16,3,60
88,136,28039,2,0,L|61:189,3,60,8|0|0|0,0:0|0:0|0:0|0:0,0:0:0:0:
328,120,28435,6,0,L|360:56,1,60,4|0,0:0|0:0,0:0:0:0:
240,176,28632,2,0,L|213:229,1,60
176,80,28829,2,0,L|208:16,1,60
88,136,29027,2,0,L|61:189,1,60
64,344,29224,5,0,0:0:0:0:
112,336,29323,1,0,0:0:0:0:
160,328,29421,1,0,0:0:0:0:
208,320,29520,1,0,0:0:0:0:
256,312,29619,1,0,0:0:0:0:
256,64,30014,6,0,P|184:40|128:72,1,120,4|0,0:0|0:0,0:0:0:0:
256,320,30408,2,0,P|328:344|384:312,1,120,8|0,0:0|0:0,0:0:0:0:
173,93,30803,2,0,P|103:121|80:182,1,120
338,290,31197,2,0,P|408:262|431:201,1,120,8|0,0:0|0:0,0:0:0:0:
104,224,31593,5,0,0:0:0:0:
296,96,31790,1,0,0:0:0:0:
296,336,31987,1,8,0:0:0:0:
104,120,32185,1,0,0:0:0:0:
392,168,32382,1,0,0:0:0:0:
136,288,32579,1,0,0:0:0:0:
272,64,32777,1,8,0:0:0:0:
376,328,32974,1,0,0:0:0:0:
72,192,33171,6,0,P|96:120|152:80,1,120
440,192,33566,2,0,P|425:249|384:292,1,120,8|0,0:0|0:0,0:0:0:0:
115,73,33961,2,0,P|179:33|248:39,1,120
396,310,34356,2,0,P|348:344|289:351,1,120,8|0,0:0|0:0,0:0:0:0:
48,192,34750,5,0,0:0:0:0:
82,204,34849,1,0,0:0:0:0:
118,205,34948,1,0,0:0:0:0:
153,197,35046,1,0,0:0:0:0:
184,180,35145,1,8,0:0:0:0:
211,155,35244,1,0,0:0:0:0:
228,124,35343,1,0,0:0:0:0:
238,89,35441,1,0,0:0:0:0:
320,48,35540,5,0,0:0:0:0:
331,82,35639,1,0,0:0:0:0:
331,118,35738,1,0,0:0:0:0:
323,153,35836,1,0,0:0:0:0:
305,183,35935,1,8,0:0:0:0:
280,210,36034,1,0,0:0:0:0:
248,226,36133,1,0,0:0:0:0:
213,236,36231,1,0,0:0:0:0:
104,272,36329,6,0,L|56:144,1,120,4|0,0:0|0:0,0:0:0:0:
408,112,36724,2,0,L|456:240,1,120,8|0,0:0|0:0,0:0:0:0:
97,126,37119,2,0,L|164:7,1,120
414,257,37514,2,0,L|347:376,1,120,8|0,0:0|0:0,0:0:0:0:
56,224,37908,1,0,0:0:0:0:
232,168,38106,1,0,0:0:0:0:
56,136,38303,1,8,0:0:0:0:
328,184,38500,1,0,0:0:0:0:
104,232,38698,1,0,0:0:0:0:
368,144,38895,1,0,0:0:0:0:
120,136,39093,1,8,0:0:0:0:
416,192,39290,1,0,0:0:0:0:
96,192,39487,6,0,B|160:168|160:168|184:104,1,120,4|0,0:0|0:0,0:0:0:0:
416,192,39882,2,0,B|352:215|352:215|328:280,1,120,8|0,0:0|0:0,0:0:0:0:
175,53,40277,2,0,B|228:96|228:96|296:85,1,120
336,330,40671,2,0,B|283:287|283:287|215:298,1,120,8|0,0:0|0:0,0:0:0:0:
72,184,41066,5,4,0:0:0:0:
77,148,41165,1,0,0:0:0:0:
89,115,41263,1,0,0:0:0:0:
107,84,41362,1,0,0:0:0:0:
130,56,41461,1,8,0:0:0:0:
159,34,41559,1,0,0:0:0:0:
190,18,41658,1,0,0:0:0:0:
225,7,41757,1,0,0:0:0:0:
261,4,41855,1,0,0:0:0:0:
297,7,41954,1,0,0:0:0:0:
331,17,42053,1,0,0:0:0:0:
363,33,42151,1,0,0:0:0:0:
392,56,42250,1,8,0:0:0:0:
415,83,42349,1,0,0:0:0:0:
433,114,42447,1,0,0:0:0:0:
445,147,42546,1,0,0:0:0:0:
451,182,42645,1,0,0:0:0:0:
256,352,43040,6,0,L|256:232,1,120,2|4,0:0|0:0,0:0:0:0:
32,160,45803,6,0,L|8:80,2,60.0000022888184
88,224,46198,2,0,L|70:281,2,60.0000022888184
144,160,46593,2,0,L|112:48,2,80
200,224,46988,2,0,L|176:304,2,80
256,120,47382,6,0,L|277:196,1,80
296,272,47645,2,0,L|317:195,1,80
336,72,47908,2,0,L|357:148,1,80
384,320,48171,2,0,L|405:243,1,80
416,24,48435,2,0,L|437:100,1,80
400,192,48665,6,0,L|312:224,2,60
464,272,48961,5,4,0:0:0:0:
445,309,49060,1,0,0:0:0:0:
417,340,49158,1,0,0:0:0:0:
380,361,49257,1,0,0:0:0:0:
339,370,49356,1,8,0:0:0:0:
298,367,49454,1,0,0:0:0:0:
258,352,49553,1,0,0:0:0:0:
226,326,49652,1,0,0:0:0:0:
202,291,49750,1,0,0:0:0:0:
190,251,49849,1,0,0:0:0:0:
190,209,49948,1,0,0:0:0:0:
202,169,50046,1,0,0:0:0:0:
226,134,50145,1,8,0:0:0:0:
258,108,50244,1,0,0:0:0:0:
298,93,50343,1,0,0:0:0:0:
339,89,50441,1,0,0:0:0:0:
344,128,50540,5,0,0:0:0:0:
346,166,50639,1,0,0:0:0:0:
339,208,50737,1,0,0:0:0:0:
319,246,50836,1,0,0:0:0:0:
289,275,50935,1,8,0:0:0:0:
253,295,51033,1,0,0:0:0:0:
210,303,51132,1,0,0:0:0:0:
170,298,51231,1,0,0:0:0:0:
131,281,51329,1,0,0:0:0:0:
99,252,51428,1,0,0:0:0:0:
77,218,51527,1,0,0:0:0:0:
65,178,51625,1,0,0:0:0:0:
68,135,51724,1,8,0:0:0:0:
81,97,51823,1,0,0:0:0:0:
107,62,51922,1,0,0:0:0:0:
139,37,52020,1,0,0:0:0:0:
160,72,52119,5,0,0:0:0:0:
194,56,52218,1,0,0:0:0:0:
236,47,52316,1,0,0:0:0:0:
279,53,52415,1,0,0:0:0:0:
316,70,52514,1,8,0:0:0:0:
348,97,52612,1,0,0:0:0:0:
371,134,52711,1,0,0:0:0:0:
381,173,52810,1,0,0:0:0:0:
379,216,52908,1,0,0:0:0:0:
363,256,53007,1,0,0:0:0:0:
339,289,53106,1,0,0:0:0:0:
306,314,53204,1,0,0:0:0:0:
265,327,53303,1,8,0:0:0:0:
225,328,53402,1,0,0:0:0:0:
183,316,53501,1,0,0:0:0:0:
148,295,53599,1,0,0:0:0:0:
112,312,53698,5,0,0:0:0:0:
95,275,53797,1,0,0:0:0:0:
86,234,53895,1,0,0:0:0:0:
90,191,53994,1,0,0:0:0:0:
107,153,54093,1,8,0:0:0:0:
133,121,54191,1,0,0:0:0:0:
170,97,54290,1,0,0:0:0:0:
209,88,54389,1,0,0:0:0:0:
250,89,54487,1,0,0:0:0:0:
291,103,54586,1,0,0:0:0:0:
325,126,54685,1,0,0:0:0:0:
351,159,54783,1,0,0:0:0:0:
364,200,54882,1,8,0:0:0:0:
367,240,54981,1,0,0:0:0:0:
355,282,55080,1,0,0:0:0:0:
336,319,55178,1,0,0:0:0:0:
296,344,55277,5,4,0:0:0:0:
331,356,55375,1,0,0:0:0:0:
373,362,55474,1,0,0:0:0:0:
415,353,55573,1,0,0:0:0:0:
452,333,55672,1,8,0:0:0:0:
482,304,55770,1,0,0:0:0:0:
501,266,55869,1,0,0:0:0:0:
509,226,55968,1,0,0:0:0:0:
504,184,56066,1,0,0:0:0:0:
486,145,56165,1,0,0:0:0:0:
460,114,56264,1,0,0:0:0:0:
424,90,56362,1,0,0:0:0:0:
382,81,56461,1,8,0:0:0:0:
343,83,56560,1,0,0:0:0:0:
301,97,56659,1,0,0:0:0:0:
269,120,56757,1,0,0:0:0:0:
248,88,56856,5,0,0:0:0:0:
217,67,56955,1,0,0:0:0:0:
178,50,57053,1,0,0:0:0:0:
135,48,57152,1,0,0:0:0:0:
94,58,57251,1,8,0:0:0:0:
57,78,57349,1,0,0:0:0:0:
29,110,57448,1,0,0:0:0:0:
11,146,57547,1,0,0:0:0:0:
5,188,57645,1,0,0:0:0:0:
12,231,57744,1,0,0:0:0:0:
30,267,57843,1,0,0:0:0:0:
58,300,57941,1,0,0:0:0:0:
96,319,58040,1,8,0:0:0:0:
135,327,58139,1,0,0:0:0:0:
179,325,58238,1,0,0:0:0:0:
216,311,58336,1,0,0:0:0:0:
256,328,58435,5,4,0:0:0:0:
292,328,58534,1,0,0:0:0:0:
335,322,58632,1,0,0:0:0:0:
372,301,58731,1,0,0:0:0:0:
401,271,58830,1,8,0:0:0:0:
422,234,58928,1,0,0:0:0:0:
428,192,59027,1,0,0:0:0:0:
425,152,59126,1,0,0:0:0:0:
408,113,59224,1,4,0:0:0:0:
379,80,59323,1,0,0:0:0:0:
344,60,59422,1,0,0:0:0:0:
304,46,59520,1,0,0:0:0:0:
261,50,59619,1,8,0:0:0:0:
224,64,59718,1,0,0:0:0:0:
188,89,59817,1,0,0:0:0:0:
163,121,59915,1,0,0:0:0:0:
120,112,60014,5,4,0:0:0:0:
109,147,60113,1,0,0:0:0:0:
106,189,60211,1,0,0:0:0:0:
117,231,60310,1,0,0:0:0:0:
139,267,60409,1,8,0:0:0:0:
169,295,60507,1,0,0:0:0:0:
208,312,60606,1,0,0:0:0:0:
248,318,60705,1,0,0:0:0:0:
290,311,60803,1,4,0:0:0:0:
328,291,60902,1,0,0:0:0:0:
358,263,61001,1,0,0:0:0:0:
380,226,61099,1,0,0:0:0:0:
387,184,61198,1,8,0:0:0:0:
383,145,61297,1,0,0:0:0:0:
366,104,61396,1,0,0:0:0:0:
342,73,61494,1,0,0:0:0:0:
312,96,61593,5,4,0:0:0:0:
279,116,61692,1,0,0:0:0:0:
252,147,61790,1,0,0:0:0:0:
236,189,61889,1,0,0:0:0:0:
231,231,61988,1,0,0:0:0:0:
239,271,62086,1,0,0:0:0:0:
259,309,62185,1,0,0:0:0:0:
288,337,62284,1,0,0:0:0:0:
325,356,62382,1,4,0:0:0:0:
368,365,62481,1,0,0:0:0:0:
409,359,62580,1,0,0:0:0:0:
448,342,62678,1,0,0:0:0:0:
480,313,62777,1,0,0:0:0:0:
500,280,62876,1,0,0:0:0:0:
510,236,62975,1,0,0:0:0:0:
511,197,63073,1,0,0:0:0:0:
480,168,63171,5,4,0:0:0:0:
456,160,63270,1,0,0:0:0:0:
432,152,63369,1,0,0:0:0:0:
408,144,63468,1,0,0:0:0:0:
384,136,63566,1,0,0:0:0:0:
360,128,63665,1,0,0:0:0:0:
336,120,63764,1,0,0:0:0:0:
312,112,63862,1,0,0:0:0:0:
288,104,63961,1,4,0:0:0:0:
264,96,64060,1,0,0:0:0:0:
240,88,64158,1,0,0:0:0:0:
216,80,64257,1,0,0:0:0:0:
192,72,64356,1,0,0:0:0:0:
168,64,64454,1,0,0:0:0:0:
144,56,64553,1,0,0:0:0:0:
120,48,64652,1,0,0:0:0:0:
96,40,64750,1,0,0:0:0:0:
64,192,64948,5,0,0:0:0:0:
80,236,65046,1,0,0:0:0:0:
112,272,65145,1,0,0:0:0:0:
152,296,65244,1,0,0:0:0:0:
196,312,65343,1,0,0:0:0:0:
244,320,65441,1,0,0:0:0:0:
292,320,65540,1,0,0:0:0:0:
340,308,65639,1,0,0:0:0:0:
372,292,65737,1,0,0:0:0:0:
396,268,65836,1,0,0:0:0:0:
412,236,65935,1,0,0:0:0:0:
408,200,66033,1,0,0:0:0:0:
384,172,66132,1,0,0:0:0:0:
352,160,66231,1,0,0:0:0:0:
328,168,66329,1,0,0:0:0:0:
304,164,66428,1,0,0:0:0:0:
284,152,66527,1,0,0:0:0:0:
276,132,66625,1,0,0:0:0:0:
276,108,66724,1,0,0:0:0:0:
284,84,66823,1,0,0:0:0:0:
304,68,66921,1,0,0:0:0:0:
328,64,67020,1,0,0:0:0:0:
340,68,67119,1,0,0:0:0:0:
348,76,67218,1,0,0:0:0:0:
352,88,67316,1,0,0:0:0:0:
360,96,67415,1,0,0:0:0:0:
372,100,67514,1,0,0:0:0:0:
384,100,67612,1,0,0:0:0:0:
388,100,67711,1,0,0:0:0:0:
392,96,67810,1,0,0:0:0:0:
396,92,67908,1,0,0:0:0:0:
88,336,68303,5,4,0:0:0:0:
256,24,68698,5,0,0:0:0:0:
416,336,69093,5,0,0:0:0:0:
64,232,69487,5,4,0:0:0:0:
432,64,69882,5,0,0:0:0:0:
104,320,70277,5,4,0:0:0:0:
464,192,70671,5,0,0:0:0:0:
88,72,71066,5,4,0:0:0:0:
360,328,71461,5,0,0:0:0:0:
320,40,71856,5,0,0:0:0:0:
104,280,72250,5,0,0:0:0:0:
456,152,72645,5,4,0:0:0:0:
64,56,73040,5,4,0:0:0:0:
256,336,73435,5,0,0:0:0:0:
416,48,73829,5,0,0:0:0:0:
24,72,75014,6,0,B|112:48|112:48|104:144|240:208|296:112,1,360,6|0,0:0|0:0,0:0:0:0:
400,48,75803,2,0,L|488:288,1,240,8|0,0:0|0:0,0:0:0:0:
96,304,76593,6,0,P|104:264|152:232,2,80
112,72,76987,2,0,P|150:86|174:138,2,80
408,72,77382,1,8,0:0:0:0:
384,112,77481,1,0,0:0:0:0:
360,152,77579,1,0,0:0:0:0:
336,192,77678,1,0,0:0:0:0:
312,232,77777,1,0,0:0:0:0:
72,112,77974,1,0,0:0:0:0:
40,368,78171,6,0,P|136:272|264:328,1,240
304,168,78764,1,0,0:0:0:0:
496,304,78961,2,0,L|408:80,1,240,8|0,0:0|0:0,0:0:0:0:
136,88,79750,6,0,L|48:104,2,80
248,208,80145,2,0,L|336:224,2,80
48,320,80540,1,8,0:0:0:0:
80,96,80737,5,0,0:0:0:0:
120,144,80836,1,0,0:0:0:0:
184,144,80935,1,0,0:0:0:0:
216,96,81033,1,0,0:0:0:0:
248,48,81132,1,0,0:0:0:0:
312,48,81231,1,0,0:0:0:0:
352,96,81329,1,0,0:0:0:0:
352,336,81724,5,0,0:0:0:0:
88,304,81921,1,0,0:0:0:0:
392,272,82119,2,0,P|448:152|328:88,1,240,8|0,0:0|0:0,0:0:0:0:
112,64,82711,1,0,0:0:0:0:
112,64,82908,6,0,L|144:176,2,80
200,320,83303,2,0,L|232:208,2,80
296,56,83698,1,8,0:0:0:0:
272,112,83796,1,0,0:0:0:0:
304,168,83895,1,0,0:0:0:0:
360,184,83994,1,0,0:0:0:0:
408,152,84093,1,0,0:0:0:0:
160,80,84290,1,0,0:0:0:0:
208,336,84487,6,0,P|80:288|96:168,1,240
168,48,85079,1,0,0:0:0:0:
168,48,85277,2,0,L|216:168,1,120,8|0,0:0|0:0,0:0:0:0:
432,232,85671,2,0,L|387:120,1,120
248,32,86066,5,0,0:0:0:0:
264,88,86165,1,0,0:0:0:0:
232,136,86264,1,0,0:0:0:0:
176,152,86362,1,0,0:0:0:0:
120,128,86461,1,0,0:0:0:0:
64,152,86560,1,0,0:0:0:0:
48,208,86658,1,0,0:0:0:0:
80,264,86757,1,0,0:0:0:0:
136,272,86856,1,0,0:0:0:0:
184,240,86954,1,0,0:0:0:0:
248,240,87053,1,0,0:0:0:0:
288,288,87152,1,0,0:0:0:0:
272,344,87250,1,0,0:0:0:0:
216,368,87349,1,0,0:0:0:0:
168,336,87448,1,0,0:0:0:0:
480,192,87645,5,0,0:0:0:0:
448,144,87744,1,0,0:0:0:0:
392,112,87843,1,0,0:0:0:0:
336,128,87941,1,0,0:0:0:0:
296,176,88040,1,0,0:0:0:0:
304,232,88139,1,0,0:0:0:0:
344,272,88237,1,0,0:0:0:0:
352,328,88336,1,0,0:0:0:0:
312,376,88435,1,8,0:0:0:0:
256,360,88533,1,0,0:0:0:0:
232,304,88632,1,0,0:0:0:0:
264,248,88731,1,0,0:0:0:0:
240,192,88829,1,0,0:0:0:0:
184,176,88928,1,0,0:0:0:0:
136,216,89027,1,0,0:0:0:0:
136,272,89125,1,0,0:0:0:0:
104,320,89224,6,0,L|8:264,2,80
120,176,89619,2,0,L|64:72,2,80
256,304,90014,5,8,0:0:0:0:
208,272,90112,1,0,0:0:0:0:
200,216,90211,1,0,0:0:0:0:
240,168,90310,1,0,0:0:0:0:
296,168,90408,1,0,0:0:0:0:
344,208,90507,1,0,0:0:0:0:
400,200,90606,1,0,0:0:0:0:
432,152,90704,1,0,0:0:0:0:
416,96,90803,2,0,P|296:8|184:64,1,240
160,168,91395,5,0,0:0:0:0:
160,168,91593,2,0,L|32:112,1,120,8|0,0:0|0:0,0:0:0:0:
80,288,91987,2,0,L|189:336,1,120
400,192,92382,5,0,0:0:0:0:
448,224,92481,1,0,0:0:0:0:
464,280,92579,1,0,0:0:0:0:
440,336,92678,1,0,0:0:0:0:
384,360,92777,1,0,0:0:0:0:
328,336,92875,1,0,0:0:0:0:
304,280,92974,1,0,0:0:0:0:
328,224,93073,1,0,0:0:0:0:
384,200,93171,1,8,0:0:0:0:
408,144,93270,1,0,0:0:0:0:
384,88,93369,1,0,0:0:0:0:
328,64,93468,1,0,0:0:0:0:
272,80,93566,1,0,0:0:0:0:
240,136,93665,1,0,0:0:0:0:
248,192,93764,1,0,0:0:0:0:
216,240,93862,1,0,0:0:0:0:
144,328,93961,5,0,0:0:0:0:
88,312,94060,1,0,0:0:0:0:
56,264,94158,1,0,0:0:0:0:
48,208,94257,1,0,0:0:0:0:
80,152,94356,1,0,0:0:0:0:
128,120,94454,1,0,0:0:0:0:
184,128,94553,1,0,0:0:0:0:
224,168,94652,1,0,0:0:0:0:
208,224,94750,1,8,0:0:0:0:
240,280,94849,1,0,0:0:0:0:
296,296,94948,1,0,0:0:0:0:
352,272,95046,1,0,0:0:0:0:
376,216,95145,1,0,0:0:0:0:
360,160,95244,1,0,0:0:0:0:
312,128,95343,1,0,0:0:0:0:
256,128,95441,1,0,0:0:0:0:
208,168,95540,6,0,L|256:272,2,80
88,160,95935,2,0,L|54:87,2,80
32,272,96329,5,8,0:0:0:0:
64,320,96428,1,0,0:0:0:0:
120,336,96527,1,0,0:0:0:0:
176,320,96625,1,0,0:0:0:0:
208,272,96724,1,0,0:0:0:0:
240,224,96823,1,0,0:0:0:0:
296,200,96921,1,0,0:0:0:0:
352,224,97020,1,0,0:0:0:0:
384,272,97119,2,0,L|480:232,2,80
280,272,97514,6,0,P|256:344|288:272,1,240,0|8,0:0|0:0,0:0:0:0:
336,128,98106,1,0,0:0:0:0:
440,224,98303,2,0,P|384:232|320:176,1,120
96,120,98698,5,0,0:0:0:0:
120,72,98796,1,0,0:0:0:0:
168,48,98895,1,0,0:0:0:0:
224,48,98994,1,0,0:0:0:0:
272,72,99093,1,0,0:0:0:0:
304,120,99191,1,0,0:0:0:0:
312,176,99290,1,0,0:0:0:0:
352,216,99389,1,0,0:0:0:0:
408,208,99487,1,0,0:0:0:0:
432,160,99586,1,0,0:0:0:0:
416,112,99685,1,0,0:0:0:0:
368,88,99783,1,0,0:0:0:0:
320,104,99882,1,0,0:0:0:0:
288,144,99981,1,0,0:0:0:0:
296,200,100079,1,0,0:0:0:0:
336,232,100178,1,0,0:0:0:0:
392,232,100277,6,0,L|416:296,3,60
296,352,100671,2,0,L|317:295,3,60
200,264,101066,2,0,L|178:207,3,60
80,152,101461,2,0,L|58:208,3,60
176,80,101856,5,0,0:0:0:0:
216,40,101954,1,0,0:0:0:0:
272,32,102053,1,0,0:0:0:0:
320,56,102152,1,0,0:0:0:0:
344,104,102250,1,0,0:0:0:0:
336,160,102349,1,0,0:0:0:0:
296,200,102448,1,0,0:0:0:0:
240,200,102546,1,0,0:0:0:0:
200,240,102645,1,0,0:0:0:0:
200,296,102744,1,0,0:0:0:0:
232,336,102843,1,0,0:0:0:0:
288,336,102941,1,0,0:0:0:0:
328,296,103040,1,0,0:0:0:0:
320,240,103139,1,0,0:0:0:0:
280,208,103237,1,0,0:0:0:0:
224,216,103336,1,0,0:0:0:0:
176,192,103435,6,0,L|120:128,3,60
232,112,103829,2,0,L|201:32,3,60
328,80,104224,2,0,L|326:-5,3,60
432,72,104619,2,0,L|459:-8,3,60
400,216,105014,6,0,L|472:200,1,60
344,344,105211,2,0,L|285:330,1,60
168,216,105408,2,0,L|240:200,1,60
112,344,105605,2,0,L|53:330,1,60
64,136,105803,2,0,L|40:200,1,60
208,120,106000,2,0,L|232:56,1,60
120,176,106198,2,0,L|176:214,1,60
304,80,106395,2,0,L|247:41,1,60
264,296,106593,5,4,0:0:0:0:
328,328,106691,1,0,0:0:0:0:
400,312,106790,1,0,0:0:0:0:
448,256,106889,1,0,0:0:0:0:
448,184,106987,1,8,0:0:0:0:
400,128,107086,1,0,0:0:0:0:
328,112,107185,1,0,0:0:0:0:
264,152,107283,1,0,0:0:0:0:
240,216,107382,1,0,0:0:0:0:
184,256,107481,1,0,0:0:0:0:
112,248,107579,1,0,0:0:0:0:
64,192,107678,1,0,0:0:0:0:
64,120,107777,1,8,0:0:0:0:
112,64,107875,1,0,0:0:0:0:
184,56,107974,1,0,0:0:0:0:
248,96,108073,1,0,0:0:0:0:
272,168,108172,5,0,0:0:0:0:
283,146,108271,1,0,0:0:0:0:
301,130,108369,1,0,0:0:0:0:
323,120,108468,1,0,0:0:0:0:
346,119,108567,1,8,0:0:0:0:
370,124,108665,1,0,0:0:0:0:
390,138,108764,1,0,0:0:0:0:
405,156,108863,1,0,0:0:0:0:
412,179,108961,1,0,0:0:0:0:
412,203,109060,1,0,0:0:0:0:
405,226,109159,1,0,0:0:0:0:
390,245,109257,1,0,0:0:0:0:
370,258,109356,1,8,0:0:0:0:
346,264,109455,1,0,0:0:0:0:
323,262,109553,1,0,0:0:0:0:
301,252,109652,1,0,0:0:0:0:
240,280,109750,5,0,0:0:0:0:
176,312,109849,1,0,0:0:0:0:
112,280,109948,1,0,0:0:0:0:
88,216,110046,1,0,0:0:0:0:
112,152,110145,1,8,0:0:0:0:
176,120,110244,1,0,0:0:0:0:
248,136,110343,1,0,0:0:0:0:
304,184,110441,1,0,0:0:0:0:
376,192,110540,1,0,0:0:0:0:
432,152,110639,1,0,0:0:0:0:
448,80,110737,1,0,0:0:0:0:
408,16,110836,1,0,0:0:0:0:
336,0,110935,1,8,0:0:0:0:
280,40,111033,1,0,0:0:0:0:
256,112,111132,1,0,0:0:0:0:
280,176,111231,1,0,0:0:0:0:
288,248,111329,1,4,0:0:0:0:
264,320,111428,1,0,0:0:0:0:
200,360,111527,1,0,0:0:0:0:
128,344,111625,1,0,0:0:0:0:
88,288,111724,1,8,0:0:0:0:
96,216,111823,1,0,0:0:0:0:
144,160,111921,1,0,0:0:0:0:
216,152,112020,1,0,0:0:0:0:
256,96,112119,1,0,0:0:0:0:
328,88,112218,1,0,0:0:0:0:
384,136,112316,1,0,0:0:0:0:
392,208,112415,1,0,0:0:0:0:
344,264,112514,1,8,0:0:0:0:
272,272,112612,1,0,0:0:0:0:
216,224,112711,1,0,0:0:0:0:
160,176,112810,1,0,0:0:0:0:
88,192,112908,1,0,0:0:0:0:
256,352,113106,5,0,0:0:0:0:
256,352,113204,1,0,0:0:0:0:
256,352,113303,2,0,L|256:224,1,120,0|8,0:0|0:0,0:0:0:0:
368,80,115277,6,0,L|432:56,3,60
368,336,115671,2,0,L|311:314,3,60
144,80,116066,2,0,L|208:56,3,60
144,336,116460,2,0,L|87:314,3,60
400,280,116856,6,0,L|368:360,1,60
192,224,117053,2,0,L|169:168,1,60
304,136,117250,2,0,L|272:216,1,60
96,80,117447,2,0,L|73:24,1,60
56,312,117645,6,0,L|152:272,1,60
168,160,117843,2,0,L|112:136,1,60
264,288,118040,2,0,L|360:248,1,60
328,72,118238,2,0,L|272:48,1,60
48,200,118435,2,0,L|112:184,1,60
320,240,118632,2,0,L|261:254,1,60
200,64,118829,5,0,0:0:0:0:
200,64,118928,1,0,0:0:0:0:
200,64,119027,1,0,0:0:0:0:
200,64,119125,1,0,0:0:0:0:
200,64,119224,5,4,0:0:0:0:
252,56,119323,1,0,0:0:0:0:
312,60,119421,1,0,0:0:0:0:
368,88,119520,1,0,0:0:0:0:
404,136,119619,1,8,0:0:0:0:
416,196,119718,1,0,0:0:0:0:
396,252,119816,1,0,0:0:0:0:
352,292,119915,1,0,0:0:0:0:
292,296,120014,1,0,0:0:0:0:
236,272,120112,1,0,0:0:0:0:
204,220,120211,1,0,0:0:0:0:
208,160,120310,1,0,0:0:0:0:
240,108,120408,1,8,0:0:0:0:
236,48,120507,1,0,0:0:0:0:
196,4,120606,1,0,0:0:0:0:
136,0,120704,1,0,0:0:0:0:
100,48,120803,1,0,0:0:0:0:
112,108,120902,1,0,0:0:0:0:
164,140,121000,1,0,0:0:0:0:
224,144,121099,1,0,0:0:0:0:
276,116,121198,1,8,0:0:0:0:
332,92,121296,1,0,0:0:0:0:
392,104,121395,1,0,0:0:0:0:
436,144,121494,1,0,0:0:0:0:
452,204,121593,5,0,0:0:0:0:
452,204,121691,1,0,0:0:0:0:
452,204,121790,1,0,0:0:0:0:
452,204,121889,1,0,0:0:0:0:
452,204,121987,1,8,0:0:0:0:
452,204,122086,1,0,0:0:0:0:
452,204,122185,1,0,0:0:0:0:
452,204,122283,1,0,0:0:0:0:
452,204,122382,5,0,0:0:0:0:
396,228,122481,1,0,0:0:0:0:
340,212,122579,1,0,0:0:0:0:
280,216,122678,1,0,0:0:0:0:
236,256,122777,1,8,0:0:0:0:
220,312,122875,1,0,0:0:0:0:
172,348,122974,1,0,0:0:0:0:
112,348,123073,1,0,0:0:0:0:
68,308,123171,1,0,0:0:0:0:
52,248,123270,1,0,0:0:0:0:
76,192,123369,1,0,0:0:0:0:
132,168,123468,1,0,0:0:0:0:
192,172,123566,1,8,0:0:0:0:
240,212,123665,1,0,0:0:0:0:
300,220,123764,1,0,0:0:0:0:
352,188,123862,1,0,0:0:0:0:
376,132,123961,1,0,0:0:0:0:
360,76,124060,1,0,0:0:0:0:
308,48,124158,1,0,0:0:0:0:
248,56,124257,1,0,0:0:0:0:
204,96,124356,1,8,0:0:0:0:
200,156,124454,1,0,0:0:0:0:
228,212,124553,1,0,0:0:0:0:
216,272,124652,1,0,0:0:0:0:
172,312,124750,5,0,0:0:0:0:
172,312,124849,1,0,0:0:0:0:
172,312,124948,1,0,0:0:0:0:
172,312,125046,1,0,0:0:0:0:
172,312,125145,1,8,0:0:0:0:
172,312,125244,1,0,0:0:0:0:
172,312,125343,1,0,0:0:0:0:
172,312,125441,1,0,0:0:0:0:
172,312,125540,5,0,0:0:0:0:
200,256,125639,1,0,0:0:0:0:
192,196,125737,1,0,0:0:0:0:
148,156,125836,1,0,0:0:0:0:
88,148,125935,1,8,0:0:0:0:
56,100,126033,1,0,0:0:0:0:
68,40,126132,1,0,0:0:0:0:
124,16,126231,1,0,0:0:0:0:
180,32,126329,1,0,0:0:0:0:
216,80,126428,1,0,0:0:0:0:
228,140,126527,1,0,0:0:0:0:
212,196,126625,1,0,0:0:0:0:
224,256,126724,1,8,0:0:0:0:
268,296,126823,1,0,0:0:0:0:
328,308,126921,1,0,0:0:0:0:
384,292,127020,1,0,0:0:0:0:
428,248,127119,1,0,0:0:0:0:
444,188,127218,1,0,0:0:0:0:
436,128,127316,1,0,0:0:0:0:
404,80,127415,1,0,0:0:0:0:
352,52,127514,1,8,0:0:0:0:
292,52,127612,1,0,0:0:0:0:
244,88,127711,1,0,0:0:0:0:
184,100,127810,1,0,0:0:0:0:
128,80,127908,5,0,0:0:0:0:
128,80,128007,1,0,0:0:0:0:
128,80,128106,1,0,0:0:0:0:
128,80,128204,1,0,0:0:0:0:
128,80,128303,1,8,0:0:0:0:
128,80,128402,1,0,0:0:0:0:
128,80,128500,1,0,0:0:0:0:
128,80,128599,1,0,0:0:0:0:
128,80,128698,5,0,0:0:0:0:
80,116,128796,1,0,0:0:0:0:
52,168,128895,1,0,0:0:0:0:
60,228,128994,1,0,0:0:0:0:
108,264,129093,1,8,0:0:0:0:
168,264,129191,1,0,0:0:0:0:
208,220,129290,1,0,0:0:0:0:
216,160,129389,1,0,0:0:0:0:
252,112,129487,1,0,0:0:0:0:
308,88,129586,1,0,0:0:0:0:
368,100,129685,1,0,0:0:0:0:
412,140,129783,1,0,0:0:0:0:
436,196,129882,1,8,0:0:0:0:
432,256,129981,1,0,0:0:0:0:
400,308,130079,1,0,0:0:0:0:
352,344,130178,1,0,0:0:0:0:
340,284,130277,1,0,0:0:0:0:
296,244,130375,1,0,0:0:0:0:
240,232,130474,1,0,0:0:0:0:
184,256,130573,1,0,0:0:0:0:
152,308,130671,1,8,0:0:0:0:
96,328,130770,1,0,0:0:0:0:
40,304,130869,1,0,0:0:0:0:
28,244,130968,1,0,0:0:0:0:
56,192,131066,5,4,0:0:0:0:
204,60,131264,1,0,0:0:0:0:
260,256,131461,1,0,0:0:0:0:
260,256,131560,1,0,0:0:0:0:
260,256,131658,1,0,0:0:0:0:
260,256,131757,1,0,0:0:0:0:
260,256,131856,5,8,0:0:0:0:
204,300,131954,1,0,0:0:0:0:
132,296,132053,1,0,0:0:0:0:
80,248,132152,1,0,0:0:0:0:
76,176,132250,1,8,0:0:0:0:
116,116,132349,1,0,0:0:0:0:
184,92,132448,1,0,0:0:0:0:
252,116,132546,1,0,0:0:0:0:
288,176,132645,1,0,0:0:0:0:
288,248,132744,1,0,0:0:0:0:
332,308,132843,1,0,0:0:0:0:
404,320,132941,1,0,0:0:0:0:
464,276,133040,1,8,0:0:0:0:
488,208,133139,1,0,0:0:0:0:
460,144,133237,1,0,0:0:0:0:
396,108,133336,1,0,0:0:0:0:
328,128,133435,1,0,0:0:0:0:
268,164,133533,1,0,0:0:0:0:
232,224,133632,1,0,0:0:0:0:
176,272,133731,1,0,0:0:0:0:
104,280,133829,1,8,0:0:0:0:
36,256,133928,1,0,0:0:0:0:
8,192,134027,1,0,0:0:0:0:
28,124,134125,1,0,0:0:0:0:
84,76,134224,5,0,0:0:0:0:
96,72,134323,1,0,0:0:0:0:
108,68,134421,1,0,0:0:0:0:
120,64,134520,1,0,0:0:0:0:
132,60,134619,1,8,0:0:0:0:
144,56,134718,1,0,0:0:0:0:
156,52,134816,1,0,0:0:0:0:
168,48,134915,1,0,0:0:0:0:
180,44,135014,5,0,0:0:0:0:
152,112,135112,1,0,0:0:0:0:
160,184,135211,1,0,0:0:0:0:
208,240,135310,1,0,0:0:0:0:
272,268,135408,1,8,0:0:0:0:
344,264,135507,1,0,0:0:0:0:
408,232,135606,1,0,0:0:0:0:
448,172,135704,1,0,0:0:0:0:
452,100,135803,1,0,0:0:0:0:
420,36,135902,1,0,0:0:0:0:
352,56,136000,1,0,0:0:0:0:
296,100,136099,1,0,0:0:0:0:
268,168,136198,1,8,0:0:0:0:
276,240,136296,1,0,0:0:0:0:
312,304,136395,1,0,0:0:0:0:
368,348,136494,1,0,0:0:0:0:
404,284,136593,1,0,0:0:0:0:
396,212,136691,1,0,0:0:0:0:
360,152,136790,1,0,0:0:0:0:
300,112,136889,1,0,0:0:0:0:
232,96,136987,1,8,0:0:0:0:
160,104,137086,1,0,0:0:0:0:
96,140,137185,1,0,0:0:0:0:
56,200,137283,1,0,0:0:0:0:
36,268,137382,5,0,0:0:0:0:
44,276,137481,1,0,0:0:0:0:
52,284,137579,1,0,0:0:0:0:
60,292,137678,1,0,0:0:0:0:
68,300,137777,1,8,0:0:0:0:
76,308,137875,1,0,0:0:0:0:
84,316,137974,1,0,0:0:0:0:
92,324,138073,1,0,0:0:0:0:
100,332,138171,5,0,0:0:0:0:
152,272,138270,1,0,0:0:0:0:
228,252,138369,1,0,0:0:0:0:
304,272,138468,1,0,0:0:0:0:
356,328,138566,1,8,0:0:0:0:
436,324,138665,1,0,0:0:0:0:
500,276,138764,1,0,0:0:0:0:
504,200,138862,1,0,0:0:0:0:
464,132,138961,1,0,0:0:0:0:
392,104,139060,1,0,0:0:0:0:
320,128,139158,1,0,0:0:0:0:
280,196,139257,1,0,0:0:0:0:
276,276,139356,1,8,0:0:0:0:
236,344,139454,1,0,0:0:0:0:
160,356,139553,1,0,0:0:0:0:
88,328,139652,1,0,0:0:0:0:
64,256,139750,1,0,0:0:0:0:
96,184,139849,1,0,0:0:0:0:
164,144,139948,1,0,0:0:0:0:
240,148,140046,1,0,0:0:0:0:
296,200,140145,1,8,0:0:0:0:
328,272,140244,1,0,0:0:0:0:
400,304,140343,1,0,0:0:0:0:
468,272,140441,1,0,0:0:0:0:
500,200,140540,5,0,0:0:0:0:
496,188,140639,1,0,0:0:0:0:
492,176,140737,1,0,0:0:0:0:
488,164,140836,1,0,0:0:0:0:
484,152,140935,1,8,0:0:0:0:
480,140,141033,1,0,0:0:0:0:
476,128,141132,1,0,0:0:0:0:
472,116,141231,1,0,0:0:0:0:
468,104,141329,5,0,0:0:0:0:
396,60,141428,1,0,0:0:0:0:
320,92,141527,1,0,0:0:0:0:
288,168,141625,1,0,0:0:0:0:
320,244,141724,1,8,0:0:0:0:
400,268,141823,1,0,0:0:0:0:
472,224,141921,1,0,0:0:0:0:
416,160,142020,1,0,0:0:0:0:
332,144,142119,1,0,0:0:0:0:
256,184,142218,1,0,0:0:0:0:
224,260,142316,1,0,0:0:0:0:
156,308,142415,1,0,0:0:0:0:
72,288,142514,1,8,0:0:0:0:
32,216,142612,1,0,0:0:0:0:
52,136,142711,1,0,0:0:0:0:
124,92,142810,1,0,0:0:0:0:
204,112,142908,1,4,0:0:0:0:
252,180,143007,1,0,0:0:0:0:
320,232,143106,1,0,0:0:0:0:
400,204,143204,1,0,0:0:0:0:
428,124,143303,1,8,0:0:0:0:
384,52,143402,1,0,0:0:0:0:
300,40,143500,1,0,0:0:0:0:
228,84,143599,1,0,0:0:0:0:
148,64,143698,5,0,0:0:0:0:
196,296,143895,1,0,0:0:0:0:
236,64,144093,1,0,0:0:0:0:
100,304,144290,1,0,0:0:0:0:
332,28,144487,2,0,P|352:92|400:88,1,120,0|2,0:0|0:0,0:0:0:0:
