osu file format v14

[General]
AudioFilename: Erebus by Memme.mp3
AudioLeadIn: 0
PreviewTime: 13730
Countdown: 0
SampleSet: Soft
StackLeniency: 0.7
Mode: 3
LetterboxInBreaks: 0
SpecialStyle: 0
WidescreenStoryboard: 1

[Editor]
DistanceSpacing: 1
BeatDivisor: 4
GridSize: 4
TimelineZoom: 2.4

[Metadata]
Title:Erebus
TitleUnicode:Erebus
Artist:Memme
ArtistUnicode:Memme
Creator:imariL
Version:Tour de Force
Source:O2Jam U
Tags:Chocoliti WhiteAries 7omoa Neta video game electronic instrumental music & and game original soundtrack OST volume 2
BeatmapID:3714161
BeatmapSetID:1739969

[Difficulty]
HPDrainRate:8
CircleSize:7
OverallDifficulty:8
ApproachRate:5
SliderMultiplier:1.4
SliderTickRate:1

[Events]
//Background and Video events
0,0,"bg.jpg",0,0
//Break Periods
//Storyboard Layer 0 (Background)
//Storyboard Layer 1 (Fail)
//Storyboard Layer 2 (Pass)
//Storyboard Layer 3 (Foreground)
//Storyboard Layer 4 (Overlay)
//Storyboard Sound Samples

[TimingPoints]
1730,375,4,2,1,30,1,0
85730,-100,4,2,1,30,0,1
109730,-100,4,2,1,30,0,0

[HitObjects]
329,192,1730,5,0,0:0:0:0:
36,192,1730,1,4,0:0:0:0:
182,192,1730,1,0,0:0:0:0:
402,192,1917,1,0,0:0:0:0:
182,192,2105,1,8,0:0:0:0:
402,192,2292,1,0,0:0:0:0:
109,192,2386,1,0,0:0:0:0:
182,192,2573,1,0,0:0:0:0:
475,192,2667,1,0,0:0:0:0:
182,192,2761,1,0,0:0:0:0:
36,192,2855,1,8,0:0:0:0:
256,192,2948,1,0,0:0:0:0:
402,192,3042,1,0,0:0:0:0:
256,192,3230,1,0,0:0:0:0:
329,192,3417,1,0,0:0:0:0:
182,192,3605,1,8,0:0:0:0:
402,192,3792,1,0,0:0:0:0:
109,192,3886,1,0,0:0:0:0:
475,192,4073,1,0,0:0:0:0:
329,192,4167,1,0,0:0:0:0:
182,192,4261,1,0,0:0:0:0:
36,192,4355,1,8,0:0:0:0:
402,192,4355,1,0,0:0:0:0:
256,192,4542,1,0,0:0:0:0:
329,192,4730,1,0,0:0:0:0:
182,192,4917,1,0,0:0:0:0:
402,192,5105,1,8,0:0:0:0:
109,192,5292,1,0,0:0:0:0:
329,192,5386,1,0,0:0:0:0:
256,192,5573,1,0,0:0:0:0:
475,192,5667,1,0,0:0:0:0:
256,192,5761,1,0,0:0:0:0:
36,192,5855,1,8,0:0:0:0:
182,192,5948,1,0,0:0:0:0:
329,192,6042,1,0,0:0:0:0:
402,192,6136,1,0,0:0:0:0:
475,192,6230,1,0,0:0:0:0:
329,192,6417,1,0,0:0:0:0:
402,192,6605,1,0,0:0:0:0:
182,192,6792,1,0,0:0:0:0:
329,192,6886,1,0,0:0:0:0:
182,192,7073,1,0,0:0:0:0:
329,192,7167,1,0,0:0:0:0:
109,192,7261,1,0,0:0:0:0:
36,192,7355,1,0,0:0:0:70:snare.wav
402,192,7355,1,0,0:0:0:0:
256,192,7448,1,0,0:0:0:0:
475,192,7542,1,0,0:0:0:0:
402,192,7636,1,0,0:0:0:0:
329,192,7730,1,0,0:0:0:0:
182,192,7730,1,0,0:0:0:0:
36,192,7730,1,0,0:0:0:70:kicks.wav
475,192,7917,1,0,0:0:0:0:
256,192,7917,1,0,0:0:0:0:
109,192,8105,1,0,0:0:0:0:
329,192,8105,1,0,0:0:0:0:
36,192,8105,1,0,0:0:0:70:kickb.wav
402,192,8292,1,0,0:0:0:0:
256,192,8292,1,0,0:0:0:0:
329,192,8386,1,0,0:0:0:0:
182,192,8386,1,0,0:0:0:0:
36,192,8480,1,0,0:0:0:70:kicks.wav
182,192,8573,1,0,0:0:0:0:
402,192,8573,1,0,0:0:0:0:
329,192,8667,1,0,0:0:0:0:
475,192,8667,1,0,0:0:0:0:
256,192,8761,1,0,0:0:0:0:
109,192,8761,1,0,0:0:0:0:
36,192,8855,1,0,0:0:0:70:kickb.wav
182,192,8855,1,0,0:0:0:0:
329,192,8855,1,0,0:0:0:0:
256,192,9042,1,0,0:0:0:0:
475,192,9042,1,0,0:0:0:0:
36,192,9230,1,0,0:0:0:70:kicks.wav
182,192,9230,1,0,0:0:0:0:
402,192,9230,1,0,0:0:0:0:
256,192,9417,1,0,0:0:0:0:
329,192,9417,1,0,0:0:0:0:
36,192,9605,1,0,0:0:0:70:kickb.wav
475,192,9605,1,0,0:0:0:0:
109,192,9605,1,0,0:0:0:0:
256,192,9792,1,0,0:0:0:0:
402,192,9792,1,0,0:0:0:0:
182,192,9886,1,0,0:0:0:0:
329,192,9886,1,0,0:0:0:0:
36,192,9980,1,0,0:0:0:70:kicks.wav
475,192,10073,1,0,0:0:0:0:
329,192,10073,1,0,0:0:0:0:
402,192,10167,1,0,0:0:0:0:
256,192,10167,1,0,0:0:0:0:
329,192,10261,1,0,0:0:0:0:
182,192,10261,1,0,0:0:0:0:
36,192,10355,1,0,0:0:0:70:kickb.wav
109,192,10355,1,0,0:0:0:0:
402,192,10355,1,0,0:0:0:0:
329,192,10542,1,0,0:0:0:0:
182,192,10542,1,0,0:0:0:0:
36,192,10730,1,0,0:0:0:70:kicks.wav
182,192,10730,1,0,0:0:0:0:
329,192,10730,1,0,0:0:0:0:
256,192,10917,1,0,0:0:0:0:
475,192,10917,1,0,0:0:0:0:
329,192,11105,1,0,0:0:0:0:
36,192,11105,1,0,0:0:0:70:kickb.wav
109,192,11105,1,0,0:0:0:0:
402,192,11292,1,0,0:0:0:0:
256,192,11292,1,0,0:0:0:0:
182,192,11386,1,0,0:0:0:0:
329,192,11386,1,0,0:0:0:0:
36,192,11480,1,0,0:0:0:70:kicks.wav
402,192,11573,1,0,0:0:0:0:
182,192,11573,1,0,0:0:0:0:
475,192,11667,1,0,0:0:0:0:
329,192,11667,1,0,0:0:0:0:
256,192,11761,1,0,0:0:0:0:
109,192,11761,1,0,0:0:0:0:
182,192,11855,1,0,0:0:0:0:
329,192,11855,1,0,0:0:0:70:snare.wav
36,192,11855,1,0,0:0:0:70:kicka.wav
109,192,12042,1,0,0:0:0:0:
402,192,12042,1,0,0:0:0:70:kicka.wav
256,192,12042,1,0,0:0:0:0:
182,192,12136,1,0,0:0:0:0:
475,192,12136,1,0,0:0:0:0:
256,192,12230,1,0,0:0:0:70:snare.wav
402,192,12230,1,0,0:0:0:0:
36,192,12230,1,0,0:0:0:70:kicka.wav
329,192,12417,1,0,0:0:0:0:
109,192,12417,1,0,0:0:0:0:
475,192,12605,1,0,0:0:0:0:
256,192,12605,1,0,0:0:0:0:
109,192,12605,1,0,0:0:0:0:
402,192,12792,1,0,0:0:0:0:
109,192,12792,1,0,0:0:0:0:
256,192,12792,1,0,0:0:0:0:
182,192,12886,1,0,0:0:0:0:
36,192,12980,1,0,0:0:0:0:
329,192,12980,1,0,0:0:0:0:
475,192,12980,1,0,0:0:0:0:
109,192,13073,1,0,0:0:0:0:
182,192,13167,1,0,0:0:0:0:
475,192,13167,1,0,0:0:0:0:
36,192,13167,1,0,0:0:0:0:
256,192,13261,1,0,0:0:0:0:
402,192,13261,1,0,0:0:0:0:
329,192,13355,1,0,0:0:0:0:
182,192,13355,1,0,0:0:0:0:
109,192,13448,1,0,0:0:0:0:
475,192,13448,1,0,0:0:0:0:
182,192,13542,1,0,0:0:0:0:
256,192,13542,1,0,0:0:0:0:
109,192,13636,1,0,0:0:0:0:
329,192,13636,1,0,0:0:0:0:
36,192,13730,1,0,0:0:0:70:kicks.wav
402,192,13730,1,0,0:0:0:0:
109,192,13917,1,0,0:0:0:0:
256,192,13917,1,0,0:0:0:0:
182,192,14105,1,0,0:0:0:0:
36,192,14105,1,0,0:0:0:70:kickb.wav
475,192,14105,1,0,0:0:0:0:
109,192,14292,1,0,0:0:0:0:
256,192,14292,1,0,0:0:0:0:
36,192,14480,1,0,0:0:0:70:kicks.wav
475,192,14480,1,0,0:0:0:0:
109,192,14667,1,0,0:0:0:0:
36,192,14855,1,0,0:0:0:70:kickb.wav
182,192,14855,1,0,0:0:0:0:
475,192,14855,1,0,0:0:0:0:
109,192,15042,1,0,0:0:0:0:
402,192,15042,1,0,0:0:0:0:
36,192,15230,1,0,0:0:0:70:kicks.wav
109,192,15417,1,0,0:0:0:0:
402,192,15417,1,0,0:0:0:0:
36,192,15605,1,0,0:0:0:70:kickb.wav
182,192,15605,1,0,0:0:0:0:
109,192,15792,1,0,0:0:0:0:
329,192,15792,1,0,0:0:0:0:
256,192,15886,1,0,0:0:0:0:
36,192,15980,1,0,0:0:0:70:kicks.wav
402,192,15980,1,0,0:0:0:0:
109,192,16167,1,0,0:0:0:0:
329,192,16167,1,0,0:0:0:0:
475,192,16261,1,0,0:0:0:0:
36,192,16355,1,0,0:0:0:70:kickb.wav
182,192,16355,1,0,0:0:0:0:
402,192,16355,1,0,0:0:0:0:
109,192,16542,1,0,0:0:0:0:
329,192,16542,1,0,0:0:0:0:
36,192,16730,1,0,0:0:0:70:kicks.wav
109,192,16917,1,0,0:0:0:0:
329,192,16917,1,0,0:0:0:0:
36,192,17105,1,0,0:0:0:70:kickb.wav
182,192,17105,1,0,0:0:0:0:
109,192,17292,1,0,0:0:0:0:
256,192,17292,1,0,0:0:0:0:
36,192,17480,1,0,0:0:0:70:kicks.wav
329,192,17480,1,0,0:0:0:0:
109,192,17667,1,0,0:0:0:0:
36,192,17855,1,0,0:0:0:70:kickb.wav
182,192,17855,1,0,0:0:0:0:
475,192,17855,1,0,0:0:0:0:
109,192,18042,1,0,0:0:0:0:
256,192,18042,1,0,0:0:0:0:
36,192,18230,1,0,0:0:0:70:kicks.wav
402,192,18230,1,0,0:0:0:0:
475,192,18323,1,0,0:0:0:0:
109,192,18417,1,0,0:0:0:0:
182,192,18417,1,0,0:0:0:0:
329,192,18480,1,0,0:0:0:0:
475,192,18542,1,0,0:0:0:0:
36,192,18605,1,0,0:0:0:70:kickb.wav
182,192,18605,1,0,0:0:0:0:
402,192,18605,1,0,0:0:0:0:
256,192,18605,1,0,0:0:0:0:
109,192,18792,1,0,0:0:0:0:
329,192,18792,1,0,0:0:0:0:
475,192,18792,1,0,0:0:0:0:
36,192,18980,1,0,0:0:0:70:kicks.wav
109,192,19167,1,0,0:0:0:0:
256,192,19167,1,0,0:0:0:0:
36,192,19355,1,0,0:0:0:70:kickb.wav
182,192,19355,1,0,0:0:0:0:
475,192,19355,1,0,0:0:0:0:
109,192,19542,1,0,0:0:0:0:
329,192,19542,1,0,0:0:0:0:
36,192,19730,1,0,0:0:0:70:kicks.wav
109,192,19917,1,0,0:0:0:0:
256,192,19917,1,0,0:0:0:0:
36,192,20105,1,0,0:0:0:70:kickb.wav
182,192,20105,1,0,0:0:0:0:
402,192,20105,1,0,0:0:0:0:
109,192,20292,1,0,0:0:0:0:
256,192,20292,1,0,0:0:0:0:
36,192,20480,1,0,0:0:0:70:kicks.wav
402,192,20480,1,0,0:0:0:0:
109,192,20667,1,0,0:0:0:0:
36,192,20855,1,0,0:0:0:70:kickb.wav
182,192,20855,1,0,0:0:0:0:
475,192,20855,1,0,0:0:0:0:
109,192,21042,1,0,0:0:0:0:
402,192,21042,1,0,0:0:0:0:
36,192,21230,1,0,0:0:0:70:kicks.wav
109,192,21417,1,0,0:0:0:0:
329,192,21417,1,0,0:0:0:0:
36,192,21605,1,0,0:0:0:70:kickb.wav
182,192,21605,1,0,0:0:0:0:
256,192,21792,1,0,0:0:0:0:
109,192,21792,1,0,0:0:0:0:
36,192,21980,1,0,0:0:0:70:kicks.wav
109,192,22167,1,0,0:0:0:0:
402,192,22167,1,0,0:0:0:0:
36,192,22355,1,0,0:0:0:70:kickb.wav
182,192,22355,1,0,0:0:0:0:
256,192,22355,1,0,0:0:0:0:
475,192,22542,1,0,0:0:0:0:
109,192,22542,1,0,0:0:0:0:
256,192,22636,1,0,0:0:0:0:
36,192,22730,1,0,0:0:0:70:kicks.wav
402,192,22730,1,0,0:0:0:0:
109,192,22917,1,0,0:0:0:0:
256,192,22917,1,0,0:0:0:0:
402,192,23011,1,0,0:0:0:0:
36,192,23105,1,0,0:0:0:70:kickb.wav
182,192,23105,1,0,0:0:0:0:
329,192,23105,1,0,0:0:0:0:
109,192,23292,1,0,0:0:0:0:
256,192,23292,1,0,0:0:0:0:
402,192,23386,1,0,0:0:0:0:
36,192,23480,1,0,0:0:0:70:kicks.wav
109,192,23667,1,0,0:0:0:0:
256,192,23667,1,0,0:0:0:0:
36,192,23855,1,0,0:0:0:70:kickb.wav
182,192,23855,1,0,0:0:0:0:
329,192,23855,1,0,0:0:0:0:
475,192,24042,1,0,0:0:0:0:
256,192,24042,1,0,0:0:0:0:
402,192,24136,1,0,0:0:0:0:
36,192,24230,1,0,0:0:0:70:kicks.wav
329,192,24230,1,0,0:0:0:0:
109,192,24230,1,0,0:0:0:0:
475,192,24323,1,0,0:0:0:0:
402,192,24417,1,0,0:0:0:0:
36,192,24417,1,0,0:0:0:0:
256,192,24417,1,0,0:0:0:0:
109,192,24605,1,0,0:0:0:0:
329,192,24605,1,0,0:0:0:0:
182,192,24605,1,0,0:0:0:0:
402,192,24698,1,0,0:0:0:0:
475,192,24792,1,0,0:0:0:0:
256,192,24792,1,0,0:0:0:0:
109,192,24792,1,0,0:0:0:0:
36,192,24980,1,0,0:0:0:70:snare.wav
329,192,24980,1,0,0:0:0:0:
182,192,24980,1,0,0:0:0:0:
402,192,24980,1,0,0:0:0:0:
475,192,25073,1,0,0:0:0:0:
36,192,25261,1,0,0:0:0:70:snare.wav
182,192,25261,1,0,0:0:0:0:
256,192,25261,1,0,0:0:0:0:
402,192,25261,1,0,0:0:0:0:
475,192,25355,1,0,0:0:0:0:
402,192,25542,1,0,0:0:0:0:
329,192,25542,1,0,0:0:0:0:
36,192,25542,1,0,0:0:0:70:snare.wav
182,192,25542,1,0,0:0:0:0:
475,192,25636,1,0,0:0:0:0:
36,192,25730,1,0,0:0:0:70:kicks.wav
329,192,25730,1,0,0:0:0:0:
256,192,25730,1,0,0:0:0:0:
182,192,25823,1,0,0:0:0:0:
402,192,25823,1,0,0:0:0:0:
109,192,25917,1,0,0:0:0:0:
329,192,25917,1,0,0:0:0:0:
182,192,26105,1,0,0:0:0:0:
475,192,26105,1,0,0:0:0:70:kickb.wav
109,192,26198,1,0,0:0:0:0:
329,192,26198,1,0,0:0:0:0:
36,192,26292,1,0,0:0:0:0:
256,192,26292,1,0,0:0:0:0:
402,192,26386,1,0,0:0:0:0:
182,192,26386,1,0,0:0:0:0:
36,192,26480,1,0,0:0:0:70:kicks.wav
402,192,26573,1,0,0:0:0:0:
182,192,26573,1,0,0:0:0:0:
256,192,26667,1,0,0:0:0:0:
36,192,26667,1,0,0:0:0:0:
109,192,26761,1,0,0:0:0:0:
329,192,26761,1,0,0:0:0:0:
182,192,26855,1,0,0:0:0:0:
402,192,26855,1,0,0:0:0:70:kickb.wav
36,192,26948,1,0,0:0:0:0:
329,192,26948,1,0,0:0:0:0:
182,192,27042,1,0,0:0:0:0:
475,192,27042,1,0,0:0:0:0:
36,192,27230,1,0,0:0:0:70:kicks.wav
256,192,27230,1,0,0:0:0:0:
182,192,27417,1,0,0:0:0:0:
329,192,27417,1,0,0:0:0:0:
256,192,27511,1,0,0:0:0:0:
109,192,27511,1,0,0:0:0:0:
475,192,27605,1,0,0:0:0:70:kickb.wav
36,192,27605,1,0,0:0:0:0:
402,192,27698,1,0,0:0:0:0:
256,192,27698,1,0,0:0:0:0:
329,192,27792,1,0,0:0:0:0:
182,192,27792,1,0,0:0:0:0:
256,192,27886,1,0,0:0:0:0:
109,192,27886,1,0,0:0:0:0:
36,192,27980,1,0,0:0:0:70:kicks.wav
475,192,27980,1,0,0:0:0:0:
402,192,28073,1,0,0:0:0:0:
182,192,28073,1,0,0:0:0:0:
329,192,28167,1,0,0:0:0:0:
109,192,28167,1,0,0:0:0:0:
256,192,28261,1,0,0:0:0:0:
36,192,28261,1,0,0:0:0:0:
182,192,28355,1,0,0:0:0:0:
402,192,28355,1,0,0:0:0:70:kickb.wav
329,192,28448,1,0,0:0:0:0:
109,192,28448,1,0,0:0:0:0:
182,192,28542,1,0,0:0:0:0:
402,192,28542,1,0,0:0:0:0:
36,192,28730,1,0,0:0:0:70:kicks.wav
475,192,28730,1,0,0:0:0:0:
182,192,28730,1,0,0:0:0:0:
402,192,28823,1,0,0:0:0:0:
256,192,28823,1,0,0:0:0:0:
109,192,28917,1,0,0:0:0:0:
329,192,28917,1,0,0:0:0:0:
475,192,29105,1,0,0:0:0:70:kickb.wav
329,192,29105,1,0,0:0:0:0:
36,192,29105,1,0,0:0:0:0:
402,192,29292,1,0,0:0:0:0:
182,192,29292,1,0,0:0:0:0:
256,192,29386,1,0,0:0:0:0:
329,192,29386,1,0,0:0:0:0:
475,192,29480,1,0,0:0:0:0:
36,192,29480,1,0,0:0:0:70:kicks.wav
182,192,29573,1,0,0:0:0:0:
402,192,29573,1,0,0:0:0:0:
329,192,29667,1,0,0:0:0:0:
109,192,29667,1,0,0:0:0:0:
256,192,29761,1,0,0:0:0:0:
36,192,29761,1,0,0:0:0:0:
475,192,29855,1,0,0:0:0:70:kickb.wav
182,192,29855,1,0,0:0:0:0:
329,192,29948,1,0,0:0:0:0:
36,192,29948,1,0,0:0:0:0:
402,192,30042,1,0,0:0:0:0:
109,192,30042,1,0,0:0:0:0:
36,192,30230,1,0,0:0:0:70:kicks.wav
329,192,30230,1,0,0:0:0:0:
475,192,30323,1,0,0:0:0:0:
182,192,30323,1,0,0:0:0:0:
109,192,30417,1,0,0:0:0:0:
402,192,30417,1,0,0:0:0:0:
475,192,30605,1,0,0:0:0:70:kickb.wav
256,192,30605,1,0,0:0:0:0:
402,192,30698,1,0,0:0:0:0:
182,192,30698,1,0,0:0:0:0:
329,192,30792,1,0,0:0:0:0:
109,192,30792,1,0,0:0:0:0:
475,192,30886,1,0,0:0:0:0:
256,192,30886,1,0,0:0:0:0:
36,192,30980,1,0,0:0:0:70:kicks.wav
329,192,31073,1,0,0:0:0:0:
109,192,31073,1,0,0:0:0:0:
402,192,31167,1,0,0:0:0:0:
182,192,31167,1,0,0:0:0:0:
36,192,31261,1,0,0:0:0:0:
256,192,31261,1,0,0:0:0:0:
475,192,31355,1,0,0:0:0:70:kickb.wav
109,192,31355,1,0,0:0:0:0:
402,192,31448,1,0,0:0:0:0:
256,192,31448,1,0,0:0:0:0:
329,192,31542,1,0,0:0:0:0:
109,192,31542,1,0,0:0:0:0:
36,192,31730,1,0,0:0:0:70:kicks.wav
256,192,31730,1,0,0:0:0:0:
402,192,31730,1,0,0:0:0:0:
182,192,31823,1,0,0:0:0:0:
475,192,31823,1,0,0:0:0:0:
109,192,31917,1,0,0:0:0:0:
329,192,31917,1,0,0:0:0:0:
475,192,32105,1,0,0:0:0:70:kickb.wav
36,192,32105,1,0,0:0:0:0:
182,192,32198,1,0,0:0:0:0:
402,192,32198,1,0,0:0:0:0:
36,192,32292,1,0,0:0:0:0:
256,192,32292,1,0,0:0:0:0:
109,192,32386,1,0,0:0:0:0:
329,192,32386,1,0,0:0:0:0:
36,192,32480,1,0,0:0:0:70:kicks.wav
182,192,32573,1,0,0:0:0:0:
475,192,32573,1,0,0:0:0:0:
402,192,32667,1,0,0:0:0:0:
109,192,32667,1,0,0:0:0:0:
36,192,32761,1,0,0:0:0:0:
329,192,32761,1,0,0:0:0:0:
475,192,32855,1,0,0:0:0:70:kickb.wav
182,192,32855,1,0,0:0:0:0:
36,192,32948,1,0,0:0:0:0:
329,192,32948,1,0,0:0:0:0:
109,192,33042,1,0,0:0:0:0:
402,192,33042,1,0,0:0:0:0:
329,192,33230,1,0,0:0:0:70:kicks.wav
36,192,33230,1,0,0:0:0:0:
109,192,33417,1,0,0:0:0:0:
329,192,33417,1,0,0:0:0:0:
256,192,33511,1,0,0:0:0:0:
475,192,33511,1,0,0:0:0:0:
182,192,33605,1,0,0:0:0:70:kickb.wav
402,192,33605,1,0,0:0:0:0:
329,192,33698,1,0,0:0:0:0:
109,192,33698,1,0,0:0:0:0:
256,192,33792,1,0,0:0:0:0:
36,192,33792,1,0,0:0:0:0:
402,192,33886,1,0,0:0:0:0:
182,192,33886,1,0,0:0:0:0:
36,192,33980,1,0,0:0:0:70:kicks.wav
182,192,34073,1,0,0:0:0:0:
402,192,34073,1,0,0:0:0:0:
36,192,34167,1,0,0:0:0:0:
256,192,34167,1,0,0:0:0:0:
329,192,34261,1,0,0:0:0:0:
109,192,34261,1,0,0:0:0:0:
475,192,34355,1,0,0:0:0:70:kickb.wav
256,192,34355,1,0,0:0:0:0:
182,192,34448,1,0,0:0:0:0:
36,192,34448,1,0,0:0:0:0:
109,192,34542,1,0,0:0:0:0:
329,192,34542,1,0,0:0:0:0:
402,192,34636,1,0,0:0:0:0:
182,192,34636,1,0,0:0:0:0:
256,192,34730,1,0,0:0:0:0:
36,192,34730,1,0,0:0:0:70:kicks.wav
475,192,34730,1,0,0:0:0:0:
109,192,34917,1,0,0:0:0:0:
329,192,34917,1,0,0:0:0:0:
475,192,35011,1,0,0:0:0:0:
256,192,35011,1,0,0:0:0:0:
402,192,35105,1,0,0:0:0:70:kickb.wav
182,192,35105,1,0,0:0:0:0:
182,192,35292,1,0,0:0:0:0:
402,192,35292,1,0,0:0:0:0:
109,192,35386,1,0,0:0:0:0:
329,192,35386,1,0,0:0:0:0:
256,192,35480,1,0,0:0:0:0:
36,192,35480,1,0,0:0:0:70:kicks.wav
109,192,35573,1,0,0:0:0:0:
329,192,35573,1,0,0:0:0:0:
402,192,35667,1,0,0:0:0:0:
182,192,35667,1,0,0:0:0:0:
256,192,35761,1,0,0:0:0:0:
475,192,35761,1,0,0:0:0:0:
182,192,35855,1,0,0:0:0:70:kickb.wav
402,192,35855,1,0,0:0:0:0:
109,192,35948,1,0,0:0:0:0:
329,192,35948,1,0,0:0:0:0:
256,192,36042,1,0,0:0:0:0:
36,192,36042,1,0,0:0:0:0:
182,192,36136,1,0,0:0:0:0:
402,192,36136,1,0,0:0:0:0:
36,192,36230,1,0,0:0:0:70:kicks.wav
256,192,36230,1,0,0:0:0:0:
475,192,36230,1,0,0:0:0:70:snare.wav
109,192,36417,1,0,0:0:0:0:
329,192,36417,1,0,0:0:0:0:
182,192,36511,1,0,0:0:0:0:
402,192,36511,1,0,0:0:0:0:
256,192,36605,1,0,0:0:0:0:
475,192,36605,1,0,0:0:0:0:
402,192,36698,1,0,0:0:0:0:
109,192,36698,1,0,0:0:0:0:
329,192,36792,1,0,0:0:0:0:
36,192,36792,1,0,0:0:0:0:
256,192,36886,1,0,0:0:0:0:
109,192,36886,1,0,0:0:0:0:
182,192,36980,1,0,0:0:0:0:
402,192,36980,1,0,0:0:0:0:
475,192,36980,1,0,0:0:0:70:snare.wav
36,192,36980,1,0,0:0:0:70:kicks.wav
329,192,37073,1,0,0:0:0:0:
36,192,37261,1,0,0:0:0:70:kicka.wav
109,192,37261,1,0,0:0:0:0:
256,192,37261,1,0,0:0:0:0:
402,192,37261,1,0,0:0:0:70:snare.wav
329,192,37355,1,0,0:0:0:0:
36,192,37542,1,0,0:0:0:70:kicka.wav
182,192,37542,1,0,0:0:0:0:
256,192,37542,1,0,0:0:0:70:snare.wav
475,192,37542,1,0,0:0:0:0:
329,192,37636,1,0,0:0:0:0:
36,192,37730,1,0,0:0:0:70:kicks.wav
475,192,37730,1,0,0:0:0:0:
256,192,37730,1,0,0:0:0:0:
475,192,37823,1,0,0:0:0:0:
109,192,37917,1,0,0:0:0:0:
329,192,37917,1,0,0:0:0:0:
36,192,38105,1,0,0:0:0:70:kickb.wav
182,192,38105,1,0,0:0:0:0:
402,192,38105,1,0,0:0:0:0:
402,192,38198,1,0,0:0:0:0:
109,192,38292,1,0,0:0:0:0:
256,192,38292,1,0,0:0:0:0:
36,192,38480,1,0,0:0:0:70:kicks.wav
329,192,38480,1,0,0:0:0:0:
475,192,38573,1,0,0:0:0:0:
109,192,38667,1,0,0:0:0:0:
402,192,38667,1,0,0:0:0:0:
329,192,38761,1,0,0:0:0:0:
36,192,38855,1,0,0:0:0:70:kickb.wav
182,192,38855,1,0,0:0:0:0:
256,192,38855,1,0,0:0:0:0:
329,192,38948,1,0,0:0:0:0:
109,192,39042,1,0,0:0:0:0:
475,192,39042,1,0,0:0:0:0:
36,192,39230,1,0,0:0:0:70:kicks.wav
402,192,39323,1,0,0:0:0:0:
256,192,39323,1,0,0:0:0:0:
329,192,39417,1,0,0:0:0:0:
475,192,39417,1,0,0:0:0:0:
256,192,39511,1,0,0:0:0:0:
109,192,39511,1,0,0:0:0:0:
329,192,39605,1,0,0:0:0:0:
475,192,39605,1,0,0:0:0:70:kickb.wav
256,192,39698,1,0,0:0:0:0:
402,192,39698,1,0,0:0:0:0:
329,192,39792,1,0,0:0:0:0:
182,192,39792,1,0,0:0:0:0:
256,192,39886,1,0,0:0:0:0:
109,192,39886,1,0,0:0:0:0:
475,192,39980,1,0,0:0:0:0:
36,192,39980,1,0,0:0:0:70:kicks.wav
402,192,40073,1,0,0:0:0:0:
182,192,40073,1,0,0:0:0:0:
109,192,40167,1,0,0:0:0:0:
329,192,40167,1,0,0:0:0:0:
36,192,40261,1,0,0:0:0:0:
256,192,40261,1,0,0:0:0:0:
182,192,40355,1,0,0:0:0:0:
402,192,40355,1,0,0:0:0:70:kickb.wav
109,192,40355,1,0,0:0:0:0:
36,192,40448,1,0,0:0:0:0:
182,192,40542,1,0,0:0:0:0:
329,192,40542,1,0,0:0:0:0:
475,192,40542,1,0,0:0:0:0:
402,192,40730,1,0,0:0:0:0:
36,192,40730,1,0,0:0:0:70:kicks.wav
256,192,40730,1,0,0:0:0:0:
475,192,40823,1,0,0:0:0:0:
109,192,40917,1,0,0:0:0:0:
329,192,40917,1,0,0:0:0:0:
36,192,41105,1,0,0:0:0:70:kickb.wav
182,192,41105,1,0,0:0:0:0:
475,192,41105,1,0,0:0:0:0:
109,192,41292,1,0,0:0:0:0:
475,192,41292,1,0,0:0:0:0:
475,192,41386,1,0,0:0:0:0:
36,192,41480,1,0,0:0:0:70:kicks.wav
256,192,41480,1,0,0:0:0:0:
402,192,41573,1,0,0:0:0:0:
109,192,41667,1,0,0:0:0:0:
329,192,41667,1,0,0:0:0:0:
256,192,41761,1,0,0:0:0:0:
36,192,41855,1,0,0:0:0:70:kickb.wav
182,192,41855,1,0,0:0:0:0:
475,192,41855,1,0,0:0:0:0:
329,192,41948,1,0,0:0:0:0:
109,192,42042,1,0,0:0:0:0:
402,192,42042,1,0,0:0:0:0:
36,192,42230,1,0,0:0:0:70:kicks.wav
329,192,42230,1,0,0:0:0:0:
475,192,42230,1,0,0:0:0:0:
402,192,42417,1,0,0:0:0:0:
182,192,42417,1,0,0:0:0:0:
475,192,42605,1,0,0:0:0:0:
36,192,42605,1,0,0:0:0:70:kickb.wav
182,192,42698,1,0,0:0:0:0:
402,192,42698,1,0,0:0:0:0:
109,192,42792,1,0,0:0:0:0:
329,192,42792,1,0,0:0:0:0:
256,192,42886,1,0,0:0:0:0:
475,192,42886,1,0,0:0:0:0:
109,192,42980,1,0,0:0:0:70:kicks.wav
402,192,43073,1,0,0:0:0:0:
182,192,43073,1,0,0:0:0:0:
109,192,43167,1,0,0:0:0:0:
329,192,43167,1,0,0:0:0:0:
256,192,43261,1,0,0:0:0:0:
36,192,43261,1,0,0:0:0:0:
182,192,43355,1,0,0:0:0:0:
475,192,43355,1,0,0:0:0:70:kickb.wav
329,192,43355,1,0,0:0:0:0:
402,192,43542,1,0,0:0:0:0:
256,192,43542,1,0,0:0:0:0:
109,192,43542,1,0,0:0:0:0:
36,192,43730,1,0,0:0:0:70:kicks.wav
329,192,43730,1,0,0:0:0:0:
475,192,43730,1,0,0:0:0:0:
109,192,43917,1,0,0:0:0:0:
256,192,43917,1,0,0:0:0:0:
36,192,44105,1,0,0:0:0:70:kickb.wav
182,192,44105,1,0,0:0:0:0:
402,192,44105,1,0,0:0:0:0:
109,192,44292,1,0,0:0:0:0:
256,192,44292,1,0,0:0:0:0:
329,192,44386,1,0,0:0:0:0:
36,192,44480,1,0,0:0:0:70:kicks.wav
475,192,44573,1,0,0:0:0:0:
109,192,44667,1,0,0:0:0:0:
402,192,44667,1,0,0:0:0:0:
329,192,44761,1,0,0:0:0:0:
36,192,44855,1,0,0:0:0:70:kickb.wav
182,192,44855,1,0,0:0:0:0:
256,192,44855,1,0,0:0:0:0:
329,192,44948,1,0,0:0:0:0:
109,192,45042,1,0,0:0:0:0:
475,192,45042,1,0,0:0:0:0:
402,192,45230,1,0,0:0:0:70:kicks.wav
36,192,45323,1,0,0:0:0:0:
256,192,45323,1,0,0:0:0:0:
329,192,45417,1,0,0:0:0:0:
109,192,45417,1,0,0:0:0:0:
182,192,45511,1,0,0:0:0:0:
402,192,45511,1,0,0:0:0:0:
256,192,45605,1,0,0:0:0:70:kickb.wav
475,192,45605,1,0,0:0:0:0:
109,192,45698,1,0,0:0:0:0:
402,192,45698,1,0,0:0:0:0:
329,192,45792,1,0,0:0:0:0:
182,192,45792,1,0,0:0:0:0:
36,192,45886,1,0,0:0:0:0:
256,192,45886,1,0,0:0:0:0:
109,192,45980,1,0,0:0:0:70:kicks.wav
402,192,45980,1,0,0:0:0:0:
329,192,46073,1,0,0:0:0:0:
182,192,46073,1,0,0:0:0:0:
256,192,46167,1,0,0:0:0:0:
402,192,46167,1,0,0:0:0:0:
36,192,46261,1,0,0:0:0:0:
475,192,46261,1,0,0:0:0:0:
329,192,46355,1,0,0:0:0:70:kickb.wav
109,192,46355,1,0,0:0:0:0:
36,192,46542,1,0,0:0:0:0:
256,192,46542,1,0,0:0:0:0:
182,192,46542,1,0,0:0:0:0:
329,192,46636,1,0,0:0:0:0:
36,192,46730,1,0,0:0:0:70:kicks.wav
402,192,46730,1,0,0:0:0:0:
109,192,46917,1,0,0:0:0:0:
256,192,46917,1,0,0:0:0:0:
36,192,47105,1,0,0:0:0:70:kickb.wav
182,192,47105,1,0,0:0:0:0:
475,192,47105,1,0,0:0:0:0:
109,192,47292,1,0,0:0:0:0:
256,192,47292,1,0,0:0:0:0:
329,192,47386,1,0,0:0:0:0:
36,192,47480,1,0,0:0:0:70:kicks.wav
475,192,47480,1,0,0:0:0:0:
475,192,47573,1,0,0:0:0:0:
109,192,47667,1,0,0:0:0:0:
402,192,47667,1,0,0:0:0:0:
402,192,47761,1,0,0:0:0:0:
36,192,47855,1,0,0:0:0:70:kickb.wav
182,192,47855,1,0,0:0:0:0:
256,192,47855,1,0,0:0:0:0:
256,192,47948,1,0,0:0:0:0:
109,192,48042,1,0,0:0:0:0:
329,192,48042,1,0,0:0:0:0:
329,192,48136,1,0,0:0:0:0:
36,192,48230,1,0,0:0:0:70:kicks.wav
182,192,48230,1,0,0:0:0:0:
475,192,48230,1,0,0:0:0:0:
402,192,48230,1,0,0:0:0:0:
36,192,48417,1,0,0:0:0:70:kicka.wav
329,192,48417,1,0,0:0:0:0:
109,192,48417,1,0,0:0:0:0:
182,192,48511,1,0,0:0:0:0:
402,192,48511,1,0,0:0:0:0:
36,192,48605,1,0,0:0:0:70:kicka.wav
256,192,48605,1,0,0:0:0:0:
475,192,48605,1,0,0:0:0:0:
402,192,48698,1,0,0:0:0:0:
182,192,48698,1,0,0:0:0:0:
36,192,48792,1,0,0:0:0:70:kicka.wav
109,192,48792,1,0,0:0:0:0:
329,192,48792,1,0,0:0:0:0:
256,192,48886,1,0,0:0:0:0:
475,192,48886,1,0,0:0:0:0:
402,192,48980,1,0,0:0:0:70:snare.wav
182,192,48980,1,0,0:0:0:0:
36,192,48980,128,0,49355:0:0:0:70:kicka.wav
475,192,49355,1,0,0:0:0:0:
36,192,49730,1,0,0:0:0:50:kicks.wav
329,192,49730,1,0,0:0:0:0:
182,192,49730,1,0,0:0:0:0:
475,192,49917,1,0,0:0:0:0:
36,192,50105,1,0,0:0:0:50:kicks.wav
256,192,50292,1,0,0:0:0:0:
402,192,50386,1,0,0:0:0:0:
36,192,50480,1,0,0:0:0:50:kicks.wav
109,192,50480,1,0,0:0:0:0:
256,192,50573,1,0,0:0:0:0:
109,192,50667,1,0,0:0:0:0:
256,192,50761,1,0,0:0:0:0:
109,192,50855,1,0,0:0:0:0:
36,192,50855,1,0,0:0:0:50:kicks.wav
402,192,51042,1,0,0:0:0:0:
36,192,51230,1,0,0:0:0:50:kicks.wav
329,192,51230,1,0,0:0:0:0:
329,192,51417,1,0,0:0:0:0:
36,192,51605,1,0,0:0:0:50:kicks.wav
182,192,51605,1,0,0:0:0:0:
402,192,51792,1,0,0:0:0:0:
182,192,51886,1,0,0:0:0:0:
36,192,51980,1,0,0:0:0:50:kicks.wav
475,192,52073,1,0,0:0:0:0:
329,192,52167,1,0,0:0:0:0:
182,192,52261,1,0,0:0:0:0:
36,192,52355,1,0,0:0:0:50:kicks.wav
402,192,52355,1,0,0:0:0:0:
256,192,52542,1,0,0:0:0:0:
36,192,52730,1,0,0:0:0:50:kicks.wav
329,192,52730,1,0,0:0:0:0:
109,192,52823,1,0,0:0:0:0:
182,192,52917,1,0,0:0:0:0:
256,192,53011,1,0,0:0:0:0:
475,192,53105,1,0,0:0:0:0:
36,192,53105,1,0,0:0:0:50:kicks.wav
402,192,53198,1,0,0:0:0:0:
329,192,53292,1,0,0:0:0:0:
256,192,53386,1,0,0:0:0:0:
36,192,53480,1,0,0:0:0:50:kicks.wav
475,192,53480,1,0,0:0:0:0:
109,192,53573,1,0,0:0:0:0:
182,192,53667,1,0,0:0:0:0:
256,192,53761,1,0,0:0:0:0:
36,192,53855,1,0,0:0:0:50:kicks.wav
329,192,53855,1,0,0:0:0:0:
256,192,54042,1,0,0:0:0:0:
109,192,54042,1,0,0:0:0:0:
182,192,54136,1,0,0:0:0:0:
329,192,54136,1,0,0:0:0:0:
402,192,54230,1,0,0:0:0:0:
36,192,54230,1,0,0:0:0:50:kicks.wav
329,192,54417,1,0,0:0:0:0:
182,192,54417,1,0,0:0:0:0:
256,192,54605,1,0,0:0:0:0:
109,192,54605,1,0,0:0:0:50:kicks.wav
329,192,54792,1,0,0:0:0:0:
475,192,54792,1,0,0:0:0:0:
36,192,54886,1,0,0:0:0:0:
256,192,54980,1,0,0:0:0:50:kicks.wav
402,192,54980,1,0,0:0:0:0:
475,192,55073,1,0,0:0:0:0:
329,192,55167,1,0,0:0:0:50:snare.wav
109,192,55167,1,0,0:0:0:0:
182,192,55261,1,0,0:0:0:0:
402,192,55261,1,0,0:0:0:0:
36,192,55355,1,0,0:0:0:50:kicks.wav
329,192,55355,1,0,0:0:0:0:
256,192,55355,1,0,0:0:0:0:
109,192,55542,1,0,0:0:0:0:
402,192,55542,1,0,0:0:0:0:
256,192,55542,1,0,0:0:0:0:
329,192,55636,1,0,0:0:0:0:
475,192,55636,1,0,0:0:0:0:
36,192,55730,1,0,0:0:0:70:kicks.wav
182,192,55730,1,0,0:0:0:0:
402,192,55730,1,0,0:0:0:0:
256,192,55823,1,0,0:0:0:0:
329,192,55917,1,0,0:0:0:0:
402,192,56011,1,0,0:0:0:0:
36,192,56105,1,0,0:0:0:70:kickb.wav
475,192,56105,1,0,0:0:0:0:
329,192,56292,1,0,0:0:0:0:
36,192,56480,1,0,0:0:0:70:kicks.wav
182,192,56480,1,0,0:0:0:0:
402,192,56573,1,0,0:0:0:0:
329,192,56667,1,0,0:0:0:0:
256,192,56761,1,0,0:0:0:0:
36,192,56855,1,0,0:0:0:70:kickb.wav
475,192,56855,1,0,0:0:0:0:
475,192,57042,1,0,0:0:0:0:
36,192,57230,1,0,0:0:0:70:kicks.wav
182,192,57230,1,0,0:0:0:0:
329,192,57323,1,0,0:0:0:0:
402,192,57417,1,0,0:0:0:0:
475,192,57511,1,0,0:0:0:0:
36,192,57605,1,0,0:0:0:70:kickb.wav
402,192,57698,1,0,0:0:0:0:
256,192,57792,1,0,0:0:0:0:
36,192,57980,1,0,0:0:0:70:kicks.wav
329,192,57980,1,0,0:0:0:0:
475,192,58073,1,0,0:0:0:0:
256,192,58167,1,0,0:0:0:0:
402,192,58261,1,0,0:0:0:0:
36,192,58355,1,0,0:0:0:70:kickb.wav
182,192,58355,1,0,0:0:0:0:
475,192,58355,1,0,0:0:0:0:
256,192,58448,1,0,0:0:0:0:
402,192,58448,1,0,0:0:0:0:
329,192,58542,1,0,0:0:0:0:
182,192,58542,1,0,0:0:0:0:
475,192,58636,1,0,0:0:0:0:
36,192,58730,1,0,0:0:0:70:kicks.wav
402,192,58730,1,0,0:0:0:0:
109,192,58730,1,0,0:0:0:0:
256,192,58823,1,0,0:0:0:0:
109,192,58917,1,0,0:0:0:0:
329,192,58917,1,0,0:0:0:0:
182,192,59011,1,0,0:0:0:0:
402,192,59011,1,0,0:0:0:0:
36,192,59105,1,0,0:0:0:70:kickb.wav
475,192,59105,1,0,0:0:0:0:
402,192,59198,1,0,0:0:0:0:
182,192,59198,1,0,0:0:0:0:
329,192,59292,1,0,0:0:0:0:
109,192,59292,1,0,0:0:0:0:
182,192,59386,1,0,0:0:0:0:
36,192,59480,1,0,0:0:0:70:kicks.wav
256,192,59480,1,0,0:0:0:0:
402,192,59480,1,0,0:0:0:0:
329,192,59573,1,0,0:0:0:0:
475,192,59573,1,0,0:0:0:0:
256,192,59667,1,0,0:0:0:0:
109,192,59667,1,0,0:0:0:0:
182,192,59761,1,0,0:0:0:0:
329,192,59761,1,0,0:0:0:0:
36,192,59855,1,0,0:0:0:70:kickb.wav
256,192,59855,1,0,0:0:0:0:
402,192,59855,1,0,0:0:0:0:
329,192,60042,1,0,0:0:0:0:
182,192,60042,1,0,0:0:0:0:
402,192,60136,1,0,0:0:0:0:
256,192,60136,1,0,0:0:0:0:
36,192,60230,1,0,0:0:0:70:kicks.wav
182,192,60230,1,0,0:0:0:0:
475,192,60230,1,0,0:0:0:70:snare.wav
329,192,60230,1,0,0:0:0:0:
402,192,60417,1,0,0:0:0:0:
109,192,60417,1,0,0:0:0:0:
182,192,60417,1,0,0:0:0:0:
36,192,60605,1,0,0:0:0:70:kickb.wav
475,192,60605,1,0,0:0:0:70:snare.wav
402,192,60605,1,0,0:0:0:0:
256,192,60605,1,0,0:0:0:0:
402,192,60792,1,0,0:0:0:0:
36,192,60792,1,0,0:0:0:70:kicka.wav
182,192,60792,1,0,0:0:0:0:
329,192,60886,1,0,0:0:0:70:snare.wav
109,192,60886,1,0,0:0:0:70:kickb.wav
475,192,60980,1,0,0:0:0:0:
256,192,60980,1,0,0:0:0:0:
402,192,61073,1,0,0:0:0:0:
182,192,61073,1,0,0:0:0:0:
329,192,61167,1,0,0:0:0:0:
109,192,61167,1,0,0:0:0:0:
256,192,61261,1,0,0:0:0:0:
475,192,61355,1,0,0:0:0:0:
36,192,61355,1,0,0:0:0:0:
182,192,61355,1,0,0:0:0:0:
402,192,61417,1,0,0:0:0:0:
256,192,61480,1,0,0:0:0:0:
475,192,61542,1,0,0:0:0:0:
109,192,61542,1,0,0:0:0:0:
329,192,61605,1,0,0:0:0:0:
256,192,61667,1,0,0:0:0:0:
475,192,61730,1,0,0:0:0:0:
36,192,61730,1,0,0:0:0:70:kicks.wav
182,192,61730,1,0,0:0:0:0:
402,192,61823,1,0,0:0:0:0:
329,192,61917,1,0,0:0:0:0:
182,192,62011,1,0,0:0:0:0:
109,192,62105,1,0,0:0:0:0:
182,192,62198,1,0,0:0:0:0:
36,192,62292,1,0,0:0:0:70:kicks.wav
256,192,62292,1,0,0:0:0:0:
402,192,62386,1,0,0:0:0:0:
475,192,62480,1,0,0:0:0:0:
329,192,62573,1,0,0:0:0:0:
182,192,62667,1,0,0:0:0:0:
109,192,62761,1,0,0:0:0:0:
402,192,62855,1,0,0:0:0:0:
109,192,62948,1,0,0:0:0:0:
256,192,63042,1,0,0:0:0:0:
329,192,63136,1,0,0:0:0:0:
109,192,63230,1,0,0:0:0:0:
182,192,63323,1,0,0:0:0:0:
329,192,63417,1,0,0:0:0:0:
402,192,63511,1,0,0:0:0:0:
475,192,63605,1,0,0:0:0:0:
329,192,63698,1,0,0:0:0:0:
256,192,63792,1,0,0:0:0:0:
182,192,63886,1,0,0:0:0:0:
109,192,63980,1,0,0:0:0:0:
329,192,64073,1,0,0:0:0:0:
182,192,64167,1,0,0:0:0:0:
402,192,64261,1,0,0:0:0:0:
36,192,64355,1,0,0:0:0:70:kicka.wav
475,192,64355,1,0,0:0:0:0:
329,192,64448,1,0,0:0:0:0:
256,192,64542,1,0,0:0:0:0:
109,192,64636,1,0,0:0:0:0:
36,192,64730,1,0,0:0:0:70:kicks.wav
402,192,64730,1,0,0:0:0:0:
109,192,64823,1,0,0:0:0:0:
182,192,64917,1,0,0:0:0:0:
329,192,65011,1,0,0:0:0:0:
109,192,65105,1,0,0:0:0:0:
182,192,65198,1,0,0:0:0:0:
36,192,65292,1,0,0:0:0:70:kicks.wav
256,192,65292,1,0,0:0:0:0:
402,192,65386,1,0,0:0:0:0:
475,192,65480,1,0,0:0:0:0:
329,192,65573,1,0,0:0:0:0:
402,192,65667,1,0,0:0:0:0:
256,192,65761,1,0,0:0:0:0:
182,192,65855,1,0,0:0:0:0:
109,192,65948,1,0,0:0:0:0:
256,192,66042,1,0,0:0:0:0:
329,192,66136,1,0,0:0:0:0:
182,192,66230,1,0,0:0:0:0:
109,192,66323,1,0,0:0:0:0:
256,192,66417,1,0,0:0:0:0:
402,192,66511,1,0,0:0:0:0:
256,192,66605,1,0,0:0:0:0:
109,192,66698,1,0,0:0:0:0:
329,192,66792,1,0,0:0:0:0:
402,192,66886,1,0,0:0:0:0:
109,192,66980,1,0,0:0:0:0:
329,192,67073,1,0,0:0:0:0:
182,192,67167,1,0,0:0:0:0:
256,192,67261,1,0,0:0:0:0:
36,192,67355,1,0,0:0:0:70:kicka.wav
475,192,67355,1,0,0:0:0:0:
329,192,67448,1,0,0:0:0:0:
36,192,67542,1,0,0:0:0:70:kicks.wav
256,192,67542,1,0,0:0:0:0:
182,192,67636,1,0,0:0:0:0:
36,192,67730,1,0,0:0:0:70:kicks.wav
402,192,67730,1,0,0:0:0:0:
109,192,67823,1,0,0:0:0:0:
256,192,67917,1,0,0:0:0:0:
329,192,68011,1,0,0:0:0:0:
109,192,68105,1,0,0:0:0:0:
182,192,68198,1,0,0:0:0:0:
36,192,68292,1,0,0:0:0:70:kicks.wav
329,192,68292,1,0,0:0:0:0:
402,192,68386,1,0,0:0:0:0:
109,192,68480,1,0,0:0:0:0:
256,192,68573,1,0,0:0:0:0:
329,192,68667,1,0,0:0:0:0:
475,192,68761,1,0,0:0:0:0:
109,192,68855,1,0,0:0:0:0:
402,192,68948,1,0,0:0:0:0:
329,192,69042,1,0,0:0:0:0:
182,192,69136,1,0,0:0:0:0:
109,192,69230,1,0,0:0:0:0:
329,192,69323,1,0,0:0:0:0:
109,192,69417,1,0,0:0:0:0:
256,192,69511,1,0,0:0:0:0:
329,192,69605,1,0,0:0:0:0:
475,192,69698,1,0,0:0:0:0:
402,192,69792,1,0,0:0:0:0:
329,192,69886,1,0,0:0:0:0:
182,192,69980,1,0,0:0:0:0:
109,192,70073,1,0,0:0:0:0:
182,192,70167,1,0,0:0:0:0:
256,192,70261,1,0,0:0:0:0:
36,192,70355,1,0,0:0:0:70:kicka.wav
402,192,70355,1,0,0:0:0:0:
329,192,70448,1,0,0:0:0:0:
182,192,70542,1,0,0:0:0:0:
109,192,70636,1,0,0:0:0:0:
36,192,70730,1,0,0:0:0:70:kickb.wav
402,192,70730,1,0,0:0:0:0:
182,192,70823,1,0,0:0:0:0:
256,192,70917,1,0,0:0:0:0:
402,192,71011,1,0,0:0:0:0:
109,192,71105,1,0,0:0:0:0:
256,192,71198,1,0,0:0:0:0:
36,192,71292,1,0,0:0:0:70:kicks.wav
329,192,71292,1,0,0:0:0:0:
475,192,71386,1,0,0:0:0:0:
256,192,71480,1,0,0:0:0:0:
402,192,71573,1,0,0:0:0:0:
182,192,71667,1,0,0:0:0:0:
109,192,71761,1,0,0:0:0:0:
402,192,71855,1,0,0:0:0:0:
329,192,71948,1,0,0:0:0:0:
182,192,72042,1,0,0:0:0:0:
109,192,72136,1,0,0:0:0:0:
36,192,72230,1,0,0:0:0:70:kicks.wav
475,192,72230,1,0,0:0:0:70:snare.wav
256,192,72230,1,0,0:0:0:0:
329,192,72230,1,0,0:0:0:0:
182,192,72323,1,0,0:0:0:0:
36,192,72511,1,0,0:0:0:70:kicka.wav
109,192,72511,1,0,0:0:0:0:
256,192,72511,1,0,0:0:0:0:
402,192,72511,1,0,0:0:0:70:snare.wav
182,192,72605,1,0,0:0:0:0:
36,192,72792,1,0,0:0:0:70:kicka.wav
475,192,72792,1,0,0:0:0:70:snare.wav
402,192,72792,1,0,0:0:0:0:
256,192,72792,1,0,0:0:0:0:
182,192,72886,1,0,0:0:0:0:
475,192,72980,1,0,0:0:0:0:
475,192,73261,1,0,0:0:0:0:
36,192,73355,128,0,73636:0:0:0:0:
182,192,73730,1,0,0:0:0:0:
36,192,73730,1,0,0:0:0:70:kicks.wav
475,192,73730,1,0,0:0:0:0:
329,192,73823,1,0,0:0:0:0:
109,192,73917,1,0,0:0:0:0:
402,192,74011,1,0,0:0:0:0:
256,192,74011,1,0,0:0:0:0:
36,192,74105,1,0,0:0:0:70:kickb.wav
475,192,74105,1,0,0:0:0:0:
109,192,74198,1,0,0:0:0:0:
329,192,74292,1,0,0:0:0:0:
182,192,74292,1,0,0:0:0:0:
256,192,74386,1,0,0:0:0:0:
36,192,74480,1,0,0:0:0:70:kicks.wav
402,192,74480,1,0,0:0:0:0:
109,192,74573,1,0,0:0:0:0:
256,192,74667,1,0,0:0:0:0:
329,192,74761,1,0,0:0:0:0:
36,192,74855,1,0,0:0:0:70:kickb.wav
475,192,74855,1,0,0:0:0:0:
182,192,74948,1,0,0:0:0:0:
256,192,75042,1,0,0:0:0:0:
402,192,75042,1,0,0:0:0:0:
109,192,75136,1,0,0:0:0:0:
36,192,75230,1,0,0:0:0:70:kicks.wav
329,192,75230,1,0,0:0:0:0:
182,192,75323,1,0,0:0:0:0:
109,192,75417,1,0,0:0:0:0:
256,192,75511,1,0,0:0:0:0:
36,192,75605,1,0,0:0:0:70:kickb.wav
475,192,75605,1,0,0:0:0:0:
329,192,75698,1,0,0:0:0:0:
182,192,75792,1,0,0:0:0:0:
329,192,75886,1,0,0:0:0:0:
36,192,75980,1,0,0:0:0:70:kicks.wav
256,192,75980,1,0,0:0:0:0:
109,192,75980,1,0,0:0:0:0:
182,192,76073,1,0,0:0:0:0:
402,192,76167,1,0,0:0:0:0:
109,192,76261,1,0,0:0:0:0:
36,192,76355,1,0,0:0:0:70:kickb.wav
475,192,76355,1,0,0:0:0:0:
329,192,76448,1,0,0:0:0:0:
256,192,76542,1,0,0:0:0:0:
109,192,76636,1,0,0:0:0:0:
36,192,76730,1,0,0:0:0:70:kicks.wav
182,192,76730,1,0,0:0:0:0:
329,192,76730,1,0,0:0:0:0:
402,192,76823,1,0,0:0:0:0:
182,192,76917,1,0,0:0:0:0:
109,192,77011,1,0,0:0:0:0:
256,192,77011,1,0,0:0:0:0:
36,192,77105,1,0,0:0:0:70:kickb.wav
402,192,77105,1,0,0:0:0:0:
329,192,77198,1,0,0:0:0:0:
256,192,77292,1,0,0:0:0:0:
109,192,77292,1,0,0:0:0:0:
182,192,77386,1,0,0:0:0:0:
36,192,77480,1,0,0:0:0:70:kicks.wav
402,192,77480,1,0,0:0:0:0:
475,192,77573,1,0,0:0:0:0:
329,192,77667,1,0,0:0:0:0:
182,192,77761,1,0,0:0:0:0:
36,192,77855,1,0,0:0:0:70:kickb.wav
256,192,77855,1,0,0:0:0:0:
109,192,77948,1,0,0:0:0:0:
329,192,78042,1,0,0:0:0:0:
475,192,78136,1,0,0:0:0:0:
36,192,78230,1,0,0:0:0:70:kicks.wav
256,192,78230,1,0,0:0:0:0:
402,192,78323,1,0,0:0:0:0:
109,192,78417,1,0,0:0:0:0:
329,192,78511,1,0,0:0:0:0:
36,192,78605,1,0,0:0:0:70:kickb.wav
475,192,78605,1,0,0:0:0:0:
182,192,78698,1,0,0:0:0:0:
329,192,78792,1,0,0:0:0:0:
402,192,78886,1,0,0:0:0:0:
36,192,78980,1,0,0:0:0:70:kicks.wav
109,192,78980,1,0,0:0:0:0:
256,192,78980,1,0,0:0:0:0:
329,192,79073,1,0,0:0:0:0:
475,192,79073,1,0,0:0:0:0:
109,192,79167,1,0,0:0:0:0:
182,192,79167,1,0,0:0:0:0:
256,192,79261,1,0,0:0:0:0:
402,192,79261,1,0,0:0:0:0:
36,192,79355,1,0,0:0:0:70:kickb.wav
475,192,79355,1,0,0:0:0:0:
402,192,79448,1,0,0:0:0:0:
256,192,79448,1,0,0:0:0:0:
329,192,79542,1,0,0:0:0:0:
182,192,79542,1,0,0:0:0:0:
256,192,79636,1,0,0:0:0:0:
109,192,79636,1,0,0:0:0:0:
36,192,79730,1,0,0:0:0:70:kicks.wav
329,192,79730,1,0,0:0:0:0:
475,192,79730,1,0,0:0:0:0:
182,192,79823,1,0,0:0:0:0:
109,192,79917,1,0,0:0:0:0:
402,192,80011,1,0,0:0:0:0:
256,192,80011,1,0,0:0:0:0:
36,192,80105,1,0,0:0:0:70:kickb.wav
182,192,80105,1,0,0:0:0:0:
475,192,80198,1,0,0:0:0:0:
256,192,80292,1,0,0:0:0:0:
402,192,80292,1,0,0:0:0:0:
109,192,80386,1,0,0:0:0:0:
36,192,80480,1,0,0:0:0:70:kicks.wav
182,192,80480,1,0,0:0:0:0:
329,192,80573,1,0,0:0:0:0:
402,192,80667,1,0,0:0:0:0:
256,192,80761,1,0,0:0:0:0:
36,192,80855,1,0,0:0:0:70:kickb.wav
475,192,80855,1,0,0:0:0:0:
402,192,80948,1,0,0:0:0:0:
256,192,81042,1,0,0:0:0:0:
109,192,81136,1,0,0:0:0:0:
36,192,81230,1,0,0:0:0:70:kicks.wav
329,192,81230,1,0,0:0:0:0:
182,192,81323,1,0,0:0:0:0:
256,192,81417,1,0,0:0:0:0:
402,192,81511,1,0,0:0:0:0:
36,192,81605,1,0,0:0:0:70:kickb.wav
475,192,81605,1,0,0:0:0:0:
329,192,81698,1,0,0:0:0:0:
182,192,81792,1,0,0:0:0:0:
109,192,81886,1,0,0:0:0:0:
36,192,81980,1,0,0:0:0:70:kicks.wav
256,192,81980,1,0,0:0:0:0:
402,192,81980,1,0,0:0:0:0:
182,192,82073,1,0,0:0:0:0:
329,192,82167,1,0,0:0:0:0:
475,192,82261,1,0,0:0:0:0:
36,192,82355,1,0,0:0:0:70:kickb.wav
182,192,82355,1,0,0:0:0:0:
329,192,82355,1,0,0:0:0:0:
256,192,82448,1,0,0:0:0:0:
109,192,82448,1,0,0:0:0:0:
329,192,82542,1,0,0:0:0:0:
475,192,82542,1,0,0:0:0:0:
256,192,82636,1,0,0:0:0:0:
109,192,82636,1,0,0:0:0:0:
36,192,82730,1,0,0:0:0:70:kicks.wav
329,192,82730,1,0,0:0:0:0:
475,192,82730,1,0,0:0:0:0:
182,192,82730,1,0,0:0:0:0:
36,192,82917,1,0,0:0:0:70:kickb.wav
109,192,82917,1,0,0:0:0:0:
256,192,82917,1,0,0:0:0:0:
402,192,82917,1,0,0:0:0:0:
36,192,83105,1,0,0:0:0:70:kicks.wav
182,192,83105,1,0,0:0:0:0:
329,192,83105,1,0,0:0:0:0:
475,192,83105,1,0,0:0:0:0:
36,192,83292,1,0,0:0:0:70:kickb.wav
256,192,83292,1,0,0:0:0:0:
182,192,83292,1,0,0:0:0:0:
109,192,83292,1,0,0:0:0:0:
36,192,83480,1,0,0:0:0:70:kickb.wav
182,192,83480,1,0,0:0:0:0:
402,192,83480,1,0,0:0:0:0:
329,192,83480,1,0,0:0:0:0:
36,192,83667,1,0,0:0:0:70:kickb.wav
256,192,83667,1,0,0:0:0:0:
109,192,83667,1,0,0:0:0:0:
182,192,83667,1,0,0:0:0:0:
36,192,83855,1,0,0:0:0:70:kickb.wav
475,192,83855,1,0,0:0:0:0:
329,192,83855,1,0,0:0:0:0:
256,192,83855,1,0,0:0:0:0:
36,192,84042,1,0,0:0:0:70:kickb.wav
182,192,84042,1,0,0:0:0:0:
256,192,84042,1,0,0:0:0:0:
402,192,84042,1,0,0:0:0:0:
36,192,84230,1,0,0:0:0:0:
182,192,84230,1,0,0:0:0:0:
329,192,84230,1,0,0:0:0:70:kickb.wav
475,192,84323,1,0,0:0:0:70:kickb.wav
329,192,84417,1,0,0:0:0:70:kickb.wav
475,192,84511,1,0,0:0:0:70:kickb.wav
109,192,84511,1,0,0:0:0:0:
256,192,84511,1,0,0:0:0:0:
329,192,84605,1,0,0:0:0:70:kickb.wav
475,192,84698,1,0,0:0:0:70:kickb.wav
329,192,84792,1,0,0:0:0:70:kickb.wav
256,192,84792,1,0,0:0:0:0:
182,192,84792,1,0,0:0:0:0:
475,192,84886,1,0,0:0:0:70:kickb.wav
36,192,84980,1,0,0:0:0:0:
182,192,84980,1,0,0:0:0:0:
329,192,84980,1,0,0:0:0:0:
109,192,85073,1,0,0:0:0:0:
256,192,85073,1,0,0:0:0:0:
402,192,85073,1,0,0:0:0:0:
36,192,85167,1,0,0:0:0:0:
329,192,85167,1,0,0:0:0:0:
182,192,85355,1,0,0:0:0:70:snare.wav
256,192,85355,1,0,0:0:0:0:
402,192,85355,1,0,0:0:0:0:
475,192,85355,1,4,0:0:0:0:
402,192,85730,1,0,0:0:0:0:
182,192,85730,1,0,0:0:0:0:
36,192,85730,1,0,0:0:0:50:kicks.wav
256,192,85917,1,0,0:0:0:0:
329,192,85917,1,0,0:0:0:0:
182,192,86011,1,0,0:0:0:0:
402,192,86011,1,0,0:0:0:0:
109,192,86105,1,0,0:0:0:0:
329,192,86105,1,0,0:0:0:50:kickb.wav
256,192,86198,1,0,0:0:0:0:
475,192,86198,1,0,0:0:0:0:
402,192,86292,1,0,0:0:0:0:
182,192,86292,1,0,0:0:0:0:
329,192,86386,1,0,0:0:0:0:
109,192,86386,1,0,0:0:0:0:
36,192,86480,1,0,0:0:0:50:kicks.wav
256,192,86480,1,0,0:0:0:0:
475,192,86573,1,0,0:0:0:0:
109,192,86573,1,0,0:0:0:0:
182,192,86667,1,0,0:0:0:0:
402,192,86667,1,0,0:0:0:0:
402,192,86761,1,0,0:0:0:0:
36,192,86855,1,0,0:0:0:50:kickb.wav
256,192,86855,1,0,0:0:0:0:
256,192,86948,1,0,0:0:0:0:
475,192,87042,1,0,0:0:0:0:
329,192,87042,1,0,0:0:0:0:
109,192,87042,1,0,0:0:0:0:
256,192,87230,1,0,0:0:0:0:
402,192,87230,1,0,0:0:0:0:
36,192,87230,1,0,0:0:0:50:kicks.wav
182,192,87417,1,0,0:0:0:0:
475,192,87417,1,0,0:0:0:0:
329,192,87417,1,0,0:0:0:0:
109,192,87511,1,0,0:0:0:0:
475,192,87511,1,0,0:0:0:0:
182,192,87605,1,0,0:0:0:0:
329,192,87605,1,0,0:0:0:50:kickb.wav
256,192,87698,1,0,0:0:0:0:
109,192,87698,1,0,0:0:0:0:
182,192,87792,1,0,0:0:0:0:
402,192,87792,1,0,0:0:0:0:
256,192,87886,1,0,0:0:0:0:
475,192,87886,1,0,0:0:0:0:
329,192,87886,1,0,0:0:0:0:
182,192,87980,1,0,0:0:0:0:
36,192,87980,1,0,0:0:0:50:kicks.wav
256,192,88073,1,0,0:0:0:0:
402,192,88073,1,0,0:0:0:0:
182,192,88167,1,0,0:0:0:0:
36,192,88167,1,0,0:0:0:0:
256,192,88261,1,0,0:0:0:0:
402,192,88261,1,0,0:0:0:0:
329,192,88355,1,0,0:0:0:50:kickb.wav
182,192,88355,1,0,0:0:0:0:
109,192,88448,1,0,0:0:0:0:
256,192,88448,1,0,0:0:0:0:
329,192,88542,1,0,0:0:0:0:
475,192,88542,1,0,0:0:0:0:
36,192,88542,1,0,0:0:0:0:
109,192,88730,1,0,0:0:0:50:kicks.wav
256,192,88730,1,0,0:0:0:0:
402,192,88730,1,0,0:0:0:0:
36,192,88823,1,0,0:0:0:0:
182,192,88917,1,0,0:0:0:0:
329,192,88917,1,0,0:0:0:0:
36,192,89011,1,0,0:0:0:0:
256,192,89105,1,0,0:0:0:50:kickb.wav
109,192,89105,1,0,0:0:0:0:
182,192,89198,1,0,0:0:0:0:
329,192,89198,1,0,0:0:0:0:
256,192,89292,1,0,0:0:0:0:
402,192,89292,1,0,0:0:0:0:
475,192,89386,1,0,0:0:0:0:
329,192,89386,1,0,0:0:0:0:
182,192,89386,1,0,0:0:0:0:
36,192,89480,1,0,0:0:0:50:kicks.wav
109,192,89573,1,0,0:0:0:0:
402,192,89573,1,0,0:0:0:0:
182,192,89667,1,0,0:0:0:0:
329,192,89667,1,0,0:0:0:0:
329,192,89761,1,0,0:0:0:0:
36,192,89855,1,0,0:0:0:50:kickb.wav
256,192,89855,1,0,0:0:0:0:
36,192,89948,1,0,0:0:0:0:
109,192,90042,1,0,0:0:0:0:
256,192,90042,1,0,0:0:0:0:
402,192,90042,1,0,0:0:0:0:
182,192,90230,1,0,0:0:0:0:
329,192,90230,1,0,0:0:0:0:
475,192,90230,1,0,0:0:0:50:kicks.wav
36,192,90323,1,0,0:0:0:0:
109,192,90417,1,0,0:0:0:0:
256,192,90417,1,0,0:0:0:0:
36,192,90511,1,0,0:0:0:0:
182,192,90605,1,0,0:0:0:50:kickb.wav
329,192,90605,1,0,0:0:0:0:
109,192,90698,1,0,0:0:0:0:
402,192,90698,1,0,0:0:0:0:
256,192,90698,1,0,0:0:0:0:
182,192,90792,1,0,0:0:0:0:
329,192,90792,1,0,0:0:0:0:
36,192,90886,1,0,0:0:0:0:
475,192,90886,1,0,0:0:0:0:
256,192,90886,1,0,0:0:0:0:
109,192,90980,1,0,0:0:0:0:
402,192,90980,1,0,0:0:0:50:kicks.wav
182,192,91073,1,0,0:0:0:0:
329,192,91073,1,0,0:0:0:0:
256,192,91167,1,0,0:0:0:0:
109,192,91167,1,0,0:0:0:0:
182,192,91261,1,0,0:0:0:0:
36,192,91261,1,0,0:0:0:0:
402,192,91355,1,0,0:0:0:0:
256,192,91355,1,0,0:0:0:50:kickb.wav
182,192,91448,1,0,0:0:0:0:
36,192,91448,1,0,0:0:0:0:
109,192,91542,1,0,0:0:0:0:
256,192,91542,1,0,0:0:0:0:
475,192,91542,1,0,0:0:0:0:
36,192,91730,1,0,0:0:0:50:kicks.wav
182,192,91730,1,0,0:0:0:0:
402,192,91730,1,0,0:0:0:0:
475,192,91917,1,0,0:0:0:0:
109,192,91917,1,0,0:0:0:0:
256,192,91917,1,0,0:0:0:0:
329,192,92105,1,0,0:0:0:0:
36,192,92105,1,0,0:0:0:50:kickb.wav
182,192,92105,1,0,0:0:0:0:
109,192,92198,1,0,0:0:0:0:
256,192,92198,1,0,0:0:0:0:
329,192,92292,1,0,0:0:0:0:
475,192,92292,1,0,0:0:0:0:
109,192,92386,1,0,0:0:0:0:
256,192,92386,1,0,0:0:0:0:
36,192,92480,1,0,0:0:0:50:kicks.wav
329,192,92480,1,0,0:0:0:0:
475,192,92573,1,0,0:0:0:0:
109,192,92573,1,0,0:0:0:0:
182,192,92667,1,0,0:0:0:0:
329,192,92667,1,0,0:0:0:0:
329,192,92761,1,0,0:0:0:0:
182,192,92855,1,0,0:0:0:50:kickb.wav
36,192,92855,1,0,0:0:0:0:
36,192,92948,1,0,0:0:0:0:
109,192,93042,1,0,0:0:0:0:
402,192,93042,1,0,0:0:0:0:
256,192,93042,1,0,0:0:0:0:
182,192,93230,1,0,0:0:0:0:
36,192,93230,1,0,0:0:0:50:kicks.wav
329,192,93230,1,0,0:0:0:0:
475,192,93417,1,0,0:0:0:0:
329,192,93417,1,0,0:0:0:0:
182,192,93417,1,0,0:0:0:0:
109,192,93511,1,0,0:0:0:0:
475,192,93511,1,0,0:0:0:0:
182,192,93605,1,0,0:0:0:50:kickb.wav
329,192,93605,1,0,0:0:0:0:
256,192,93698,1,0,0:0:0:0:
109,192,93698,1,0,0:0:0:0:
182,192,93792,1,0,0:0:0:0:
329,192,93792,1,0,0:0:0:0:
256,192,93886,1,0,0:0:0:0:
402,192,93886,1,0,0:0:0:0:
36,192,93886,1,0,0:0:0:0:
109,192,93980,1,0,0:0:0:0:
329,192,93980,1,0,0:0:0:0:
475,192,93980,1,0,0:0:0:50:kicks.wav
36,192,94073,1,0,0:0:0:0:
182,192,94167,1,0,0:0:0:0:
256,192,94167,1,0,0:0:0:0:
109,192,94261,1,0,0:0:0:0:
329,192,94261,1,0,0:0:0:0:
475,192,94355,1,0,0:0:0:0:
36,192,94355,1,0,0:0:0:50:kickb.wav
256,192,94355,1,0,0:0:0:0:
182,192,94448,1,0,0:0:0:0:
475,192,94542,1,0,0:0:0:0:
329,192,94542,1,0,0:0:0:0:
109,192,94542,1,0,0:0:0:0:
36,192,94730,1,0,0:0:0:50:kicks.wav
182,192,94730,1,0,0:0:0:0:
402,192,94730,1,0,0:0:0:0:
475,192,94823,1,0,0:0:0:0:
402,192,94917,1,0,0:0:0:0:
256,192,94917,1,0,0:0:0:0:
329,192,95011,1,0,0:0:0:0:
182,192,95011,1,0,0:0:0:0:
256,192,95105,1,0,0:0:0:0:
402,192,95105,1,0,0:0:0:50:kickb.wav
182,192,95198,1,0,0:0:0:0:
36,192,95198,1,0,0:0:0:0:
475,192,95292,1,0,0:0:0:0:
329,192,95292,1,0,0:0:0:0:
109,192,95386,1,0,0:0:0:0:
256,192,95386,1,0,0:0:0:0:
402,192,95386,1,0,0:0:0:0:
182,192,95480,1,0,0:0:0:0:
36,192,95480,1,0,0:0:0:50:kicks.wav
402,192,95573,1,0,0:0:0:0:
256,192,95573,1,0,0:0:0:0:
329,192,95667,1,0,0:0:0:0:
182,192,95667,1,0,0:0:0:0:
256,192,95761,1,0,0:0:0:0:
109,192,95761,1,0,0:0:0:0:
329,192,95855,1,0,0:0:0:0:
475,192,95855,1,0,0:0:0:50:kickb.wav
182,192,95948,1,0,0:0:0:0:
36,192,95948,1,0,0:0:0:0:
36,192,96042,1,0,0:0:0:0:
182,192,96042,1,0,0:0:0:0:
475,192,96136,1,0,0:0:0:0:
402,192,96230,1,0,0:0:0:0:
256,192,96230,1,0,0:0:0:0:
36,192,96230,1,0,0:0:0:50:kicks.wav
109,192,96417,1,0,0:0:0:0:
329,192,96417,1,0,0:0:0:0:
475,192,96417,1,0,0:0:0:0:
36,192,96511,1,0,0:0:0:0:
402,192,96511,1,0,0:0:0:0:
182,192,96605,1,0,0:0:0:0:
329,192,96605,1,0,0:0:0:50:kickb.wav
256,192,96698,1,0,0:0:0:0:
109,192,96698,1,0,0:0:0:0:
182,192,96792,1,0,0:0:0:0:
36,192,96792,1,0,0:0:0:0:
475,192,96886,1,0,0:0:0:0:
329,192,96886,1,0,0:0:0:0:
36,192,96980,1,0,0:0:0:50:kicks.wav
402,192,96980,1,0,0:0:0:50:snare.wav
256,192,96980,1,0,0:0:0:0:
182,192,96980,1,0,0:0:0:0:
475,192,97073,1,0,0:0:0:0:
36,192,97261,1,0,0:0:0:50:kicka.wav
402,192,97261,1,0,0:0:0:50:snare.wav
256,192,97261,1,0,0:0:0:0:
109,192,97261,1,0,0:0:0:0:
475,192,97355,1,0,0:0:0:0:
36,192,97542,1,0,0:0:0:50:kicka.wav
402,192,97542,1,0,0:0:0:50:snare.wav
329,192,97542,1,0,0:0:0:0:
182,192,97542,1,0,0:0:0:0:
475,192,97636,1,0,0:0:0:0:
182,192,97730,1,0,0:0:0:0:
402,192,97730,1,0,0:0:0:0:
36,192,97730,1,0,0:0:0:50:kicks.wav
256,192,97917,1,0,0:0:0:0:
329,192,97917,1,0,0:0:0:0:
182,192,98011,1,0,0:0:0:0:
402,192,98011,1,0,0:0:0:0:
329,192,98105,1,0,0:0:0:50:kickb.wav
109,192,98105,1,0,0:0:0:0:
256,192,98198,1,0,0:0:0:0:
475,192,98198,1,0,0:0:0:0:
182,192,98292,1,0,0:0:0:0:
402,192,98292,1,0,0:0:0:0:
329,192,98386,1,0,0:0:0:0:
109,192,98386,1,0,0:0:0:0:
256,192,98480,1,0,0:0:0:0:
36,192,98480,1,0,0:0:0:50:kicks.wav
475,192,98573,1,0,0:0:0:0:
109,192,98573,1,0,0:0:0:0:
182,192,98667,1,0,0:0:0:0:
402,192,98667,1,0,0:0:0:0:
402,192,98761,1,0,0:0:0:0:
256,192,98855,1,0,0:0:0:0:
36,192,98855,1,0,0:0:0:50:kickb.wav
256,192,98948,1,0,0:0:0:0:
475,192,99042,1,0,0:0:0:0:
109,192,99042,1,0,0:0:0:0:
329,192,99042,1,0,0:0:0:0:
256,192,99230,1,0,0:0:0:0:
402,192,99230,1,0,0:0:0:0:
36,192,99230,1,0,0:0:0:50:kicks.wav
329,192,99417,1,0,0:0:0:0:
182,192,99417,1,0,0:0:0:0:
475,192,99417,1,0,0:0:0:0:
109,192,99511,1,0,0:0:0:0:
475,192,99511,1,0,0:0:0:0:
182,192,99605,1,0,0:0:0:0:
329,192,99605,1,0,0:0:0:50:kickb.wav
256,192,99698,1,0,0:0:0:0:
109,192,99698,1,0,0:0:0:0:
182,192,99792,1,0,0:0:0:0:
402,192,99792,1,0,0:0:0:0:
475,192,99886,1,0,0:0:0:0:
256,192,99886,1,0,0:0:0:0:
329,192,99886,1,0,0:0:0:0:
182,192,99980,1,0,0:0:0:0:
36,192,99980,1,0,0:0:0:50:kicks.wav
256,192,100073,1,0,0:0:0:0:
402,192,100073,1,0,0:0:0:0:
36,192,100167,1,0,0:0:0:0:
182,192,100167,1,0,0:0:0:0:
256,192,100261,1,0,0:0:0:0:
402,192,100261,1,0,0:0:0:0:
182,192,100355,1,0,0:0:0:0:
329,192,100355,1,0,0:0:0:50:kickb.wav
109,192,100448,1,0,0:0:0:0:
256,192,100448,1,0,0:0:0:0:
329,192,100542,1,0,0:0:0:0:
475,192,100542,1,0,0:0:0:0:
36,192,100542,1,0,0:0:0:0:
256,192,100730,1,0,0:0:0:0:
109,192,100730,1,0,0:0:0:50:kicks.wav
402,192,100730,1,0,0:0:0:0:
36,192,100823,1,0,0:0:0:0:
329,192,100917,1,0,0:0:0:0:
182,192,100917,1,0,0:0:0:0:
36,192,101011,1,0,0:0:0:0:
109,192,101105,1,0,0:0:0:0:
256,192,101105,1,0,0:0:0:50:kickb.wav
329,192,101198,1,0,0:0:0:0:
182,192,101198,1,0,0:0:0:0:
256,192,101292,1,0,0:0:0:0:
402,192,101292,1,0,0:0:0:0:
329,192,101386,1,0,0:0:0:0:
475,192,101386,1,0,0:0:0:0:
182,192,101386,1,0,0:0:0:0:
36,192,101480,1,0,0:0:0:50:kicks.wav
109,192,101573,1,0,0:0:0:0:
402,192,101573,1,0,0:0:0:0:
182,192,101667,1,0,0:0:0:0:
329,192,101667,1,0,0:0:0:0:
329,192,101761,1,0,0:0:0:0:
36,192,101855,1,0,0:0:0:50:kickb.wav
256,192,101855,1,0,0:0:0:0:
36,192,101948,1,0,0:0:0:0:
109,192,102042,1,0,0:0:0:0:
402,192,102042,1,0,0:0:0:0:
256,192,102042,1,0,0:0:0:0:
182,192,102230,1,0,0:0:0:0:
329,192,102230,1,0,0:0:0:0:
475,192,102230,1,0,0:0:0:50:kicks.wav
36,192,102323,1,0,0:0:0:0:
109,192,102417,1,0,0:0:0:0:
256,192,102417,1,0,0:0:0:0:
36,192,102511,1,0,0:0:0:0:
329,192,102605,1,0,0:0:0:50:kickb.wav
182,192,102605,1,0,0:0:0:0:
402,192,102698,1,0,0:0:0:0:
256,192,102698,1,0,0:0:0:0:
109,192,102698,1,0,0:0:0:0:
329,192,102792,1,0,0:0:0:0:
182,192,102792,1,0,0:0:0:0:
36,192,102886,1,0,0:0:0:0:
475,192,102886,1,0,0:0:0:0:
256,192,102886,1,0,0:0:0:0:
109,192,102980,1,0,0:0:0:50:kicks.wav
402,192,102980,1,0,0:0:0:0:
329,192,103073,1,0,0:0:0:0:
182,192,103073,1,0,0:0:0:0:
256,192,103167,1,0,0:0:0:0:
109,192,103167,1,0,0:0:0:0:
182,192,103261,1,0,0:0:0:0:
36,192,103261,1,0,0:0:0:0:
256,192,103355,1,0,0:0:0:50:snare.wav
402,192,103355,1,0,0:0:0:50:kickb.wav
36,192,103448,1,0,0:0:0:0:
182,192,103448,1,0,0:0:0:0:
475,192,103542,1,0,0:0:0:0:
109,192,103542,1,0,0:0:0:0:
256,192,103542,1,0,0:0:0:0:
182,192,103730,1,0,0:0:0:0:
36,192,103730,1,0,0:0:0:50:kicks.wav
402,192,103730,1,0,0:0:0:50:snare.wav
475,192,103917,1,0,0:0:0:0:
109,192,103917,1,0,0:0:0:0:
256,192,103917,1,0,0:0:0:0:
36,192,104105,1,0,0:0:0:50:kickb.wav
329,192,104105,1,0,0:0:0:0:
182,192,104105,1,0,0:0:0:0:
256,192,104198,1,0,0:0:0:0:
109,192,104198,1,0,0:0:0:0:
475,192,104292,1,0,0:0:0:0:
329,192,104292,1,0,0:0:0:0:
256,192,104386,1,0,0:0:0:0:
109,192,104386,1,0,0:0:0:0:
36,192,104480,1,0,0:0:0:50:kicks.wav
329,192,104480,1,0,0:0:0:0:
109,192,104573,1,0,0:0:0:0:
475,192,104573,1,0,0:0:0:0:
329,192,104667,1,0,0:0:0:0:
182,192,104667,1,0,0:0:0:0:
329,192,104761,1,0,0:0:0:0:
182,192,104855,1,0,0:0:0:0:
36,192,104855,1,0,0:0:0:50:kickb.wav
36,192,104948,1,0,0:0:0:0:
109,192,105042,1,0,0:0:0:0:
256,192,105042,1,0,0:0:0:0:
402,192,105042,1,0,0:0:0:0:
182,192,105230,1,0,0:0:0:0:
329,192,105230,1,0,0:0:0:0:
36,192,105230,1,0,0:0:0:50:kicks.wav
329,192,105417,1,0,0:0:0:0:
182,192,105417,1,0,0:0:0:0:
475,192,105417,1,0,0:0:0:0:
475,192,105511,1,0,0:0:0:0:
109,192,105511,1,0,0:0:0:0:
182,192,105605,1,0,0:0:0:0:
329,192,105605,1,0,0:0:0:50:kickb.wav
256,192,105698,1,0,0:0:0:0:
109,192,105698,1,0,0:0:0:0:
329,192,105792,1,0,0:0:0:0:
182,192,105792,1,0,0:0:0:0:
402,192,105886,1,0,0:0:0:0:
36,192,105886,1,0,0:0:0:0:
256,192,105886,1,0,0:0:0:0:
109,192,105980,1,0,0:0:0:50:kicks.wav
329,192,105980,1,0,0:0:0:0:
475,192,105980,1,0,0:0:0:0:
36,192,106073,1,0,0:0:0:0:
182,192,106167,1,0,0:0:0:0:
256,192,106167,1,0,0:0:0:0:
329,192,106261,1,0,0:0:0:0:
109,192,106261,1,0,0:0:0:0:
36,192,106355,1,0,0:0:0:50:kickb.wav
475,192,106355,1,0,0:0:0:0:
256,192,106355,1,0,0:0:0:0:
402,192,106448,1,0,0:0:0:0:
329,192,106542,1,0,0:0:0:0:
182,192,106542,1,0,0:0:0:0:
109,192,106542,1,0,0:0:0:0:
402,192,106730,1,0,0:0:0:0:
182,192,106730,1,0,0:0:0:0:
36,192,106730,1,0,0:0:0:50:kicks.wav
475,192,106823,1,0,0:0:0:0:
256,192,106917,1,0,0:0:0:0:
402,192,106917,1,0,0:0:0:0:
329,192,107011,1,0,0:0:0:0:
182,192,107011,1,0,0:0:0:0:
402,192,107105,1,0,0:0:0:50:kickb.wav
256,192,107105,1,0,0:0:0:0:
36,192,107198,1,0,0:0:0:0:
182,192,107198,1,0,0:0:0:0:
475,192,107292,1,0,0:0:0:0:
329,192,107292,1,0,0:0:0:0:
109,192,107386,1,0,0:0:0:0:
256,192,107386,1,0,0:0:0:0:
182,192,107480,1,0,0:0:0:0:
36,192,107480,1,0,0:0:0:50:kicks.wav
402,192,107573,1,0,0:0:0:0:
182,192,107667,1,0,0:0:0:0:
329,192,107667,1,0,0:0:0:0:
256,192,107761,1,0,0:0:0:0:
109,192,107761,1,0,0:0:0:0:
36,192,107855,1,0,0:0:0:50:kickb.wav
329,192,107855,1,0,0:0:0:0:
475,192,107855,1,0,0:0:0:0:
256,192,107948,1,0,0:0:0:0:
109,192,107948,1,0,0:0:0:0:
36,192,108042,1,0,0:0:0:50:kicka.wav
182,192,108042,1,0,0:0:0:0:
329,192,108042,1,0,0:0:0:0:
475,192,108136,1,0,0:0:0:0:
256,192,108230,1,0,0:0:0:0:
36,192,108230,1,0,0:0:0:50:kicka.wav
402,192,108230,1,0,0:0:0:50:snare.wav
329,192,108417,1,0,0:0:0:0:
109,192,108417,1,0,0:0:0:0:
475,192,108417,1,0,0:0:0:0:
402,192,108511,1,0,0:0:0:0:
36,192,108511,1,0,0:0:0:0:
329,192,108605,1,0,0:0:0:0:
182,192,108605,1,0,0:0:0:0:
109,192,108698,1,0,0:0:0:0:
256,192,108698,1,0,0:0:0:0:
182,192,108792,1,0,0:0:0:0:
36,192,108792,1,0,0:0:0:0:
256,192,108886,1,0,0:0:0:0:
402,192,108886,1,0,0:0:0:0:
329,192,108980,1,0,0:0:0:0:
475,192,108980,128,0,109355:0:0:0:0:
36,192,109355,1,0,0:0:0:0:
109,192,109730,1,0,0:0:0:50:kicks.wav
256,192,109730,1,0,0:0:0:0:
402,192,109730,1,0,0:0:0:0:
