osu file format v14

[General]
AudioFilename: Dajiahao.mp3
AudioLeadIn: 2000
PreviewTime: 46249
Countdown: 0
SampleSet: Soft
StackLeniency: 0.4
Mode: 0
LetterboxInBreaks: 0
WidescreenStoryboard: 0

[Editor]
Bookmarks: 70602,81896,115778
DistanceSpacing: 1
BeatDivisor: 8
GridSize: 4
TimelineZoom: 6.300002

[Metadata]
Title:Dajiahao (Erhu ver.)
TitleUnicode:大家好 (二胡ver.)
Artist:Memme
ArtistUnicode:Memme
Creator:Kamio Misuzu
Version:Extra
Source:节奏大师
Tags:AIR Guy Asahina momoko m_o_k_o_r_i mokori rhythm master tencent games
BeatmapID:643565
BeatmapSetID:284847

[Difficulty]
HPDrainRate:6
CircleSize:4.2
OverallDifficulty:7.8
ApproachRate:9.2
SliderMultiplier:1.7
SliderTickRate:1

[Events]
//Background and Video events
0,0,"BG.jpg",0,0
//Break Periods
//Storyboard Layer 0 (Background)
//Storyboard Layer 1 (Fail)
//Storyboard Layer 2 (Pass)
//Storyboard Layer 3 (Foreground)
//Storyboard Sound Samples

[TimingPoints]
14,352.941176470588,4,2,1,20,1,0
1425,-100,4,2,1,60,0,0
4249,-100,4,2,1,80,0,0
7072,-100,4,2,1,60,0,0
9896,-100,4,2,1,80,0,0
10425,-76.9230769230769,4,2,1,80,0,0
11131,-125,4,2,1,80,0,0
12013,-100,4,2,1,80,0,0
12719,-100,4,2,1,80,0,1
24013,-100,4,2,1,60,0,0
32484,-100,4,2,1,80,0,0
34249,-71.4285714285714,4,2,1,80,0,0
35308,-100,4,2,1,60,0,0
40955,-66.6666666666667,4,2,1,80,0,0
41749,-66.6666666666667,4,2,1,60,0,0
42190,-66.6666666666667,4,2,1,80,0,0
43249,-66.6666666666667,4,2,1,60,0,0
43602,-66.6666666666667,4,2,1,60,0,0
43778,-83.3333333333333,4,2,1,60,0,0
46249,-142.857142857143,4,2,1,80,0,0
46602,-76.9230769230769,4,2,1,60,0,0
46955,-100,4,2,1,60,0,0
56308,-90.9090909090909,4,2,1,65,0,0
57013,-83.3333333333333,4,2,1,70,0,0
57719,-76.9230769230769,4,2,1,75,0,0
59308,-100,4,2,1,80,0,1
69455,-90.9090909090909,4,2,1,80,0,1
69719,-83.3333333333333,4,2,1,80,0,1
70602,-100,4,2,1,60,0,0
74837,-76.9230769230769,4,2,1,80,0,0
76249,-100,4,2,1,60,0,0
79072,-76.9230769230769,4,2,1,65,0,0
79778,-66.6666666666667,4,2,1,70,0,0
80484,-66.6666666666667,4,2,1,80,0,0
81013,-55.5555555555556,4,2,1,80,0,0
81190,-66.6666666666667,4,2,1,80,0,0
81719,-55.5555555555556,4,2,1,80,0,0
81896,-100,4,2,1,60,0,0
87543,-100,4,2,1,70,0,0
91778,-200,4,2,1,70,0,0
92484,-200,4,2,1,20,0,0
92572,-100,4,2,1,70,0,0
92837,-66.6666666666667,4,2,1,80,0,0
93190,-83.3333333333333,4,2,1,60,0,0
97425,-83.3333333333333,4,2,1,80,0,0
97778,-66.6666666666667,4,2,1,80,0,0
98484,-125,4,2,1,80,0,0
98837,-83.3333333333333,4,2,1,65,0,0
103072,-66.6666666666667,4,2,1,80,0,0
104131,-125,4,2,1,80,0,0
104484,-83.3333333333333,4,2,1,70,0,0
108719,-83.3333333333333,4,2,1,80,0,0
109425,-66.6666666666667,4,2,1,80,0,0
110131,-83.3333333333333,4,2,1,75,0,0
114366,-66.6666666666667,4,2,1,80,0,0
115425,-125,4,2,1,80,0,0
115778,-100,4,2,1,50,0,0
127072,-100,4,2,1,45,0,0
127425,-100,4,2,1,40,0,0
127778,-100,4,2,1,35,0,0
128131,-100,4,2,1,30,0,0
128484,-100,4,2,1,25,0,0
128837,-100,4,2,1,20,0,0
129190,-100,4,2,1,15,0,0
129543,-100,4,2,1,10,0,0

[Colours]
Combo1 : 234,117,0
Combo2 : 247,228,142
Combo3 : 255,51,51

[HitObjects]
220,308,1425,6,0,P|200:272|196:244,1,42.5,8|0,0:0|0:0,0:0:0:0:
67,255,1602,2,0,P|64:233|66:212,1,42.5
184,140,1778,2,0,P|183:118|176:95,1,42.5,2|0,0:0|0:0,0:0:0:0:
56,36,1955,2,0,P|43:53|36:73,1,42.5
144,228,2131,1,2,0:0:0:0:
244,104,2308,2,0,L|117:92,1,127.5,8|0,0:0|0:0,0:0:0:0:
16,176,2661,2,0,L|84:172,1,42.5,8|0,0:0|0:0,0:0:0:0:
172,164,2837,5,2,0:0:0:0:
218,327,3013,1,0,0:0:0:0:
56,324,3190,2,0,B|147:306|147:306|184:316,1,127.5,2|0,0:0|0:0,0:0:0:0:
218,327,3543,6,0,P|237:334|259:336,1,42.5,2|0,0:0|0:0,0:0:0:0:
408,232,3719,2,0,P|388:224|366:222,1,42.5
336,340,3896,2,0,P|352:320|360:300,1,42.5,2|0,0:0|0:0,0:0:0:0:
312,164,4072,2,0,P|296:184|288:204,1,42.5,2|0,0:0|0:0,0:0:0:0:
452,304,4249,6,0,P|488:256|476:184,1,127.5,12|0,0:0|0:0,0:0:0:0:
372,52,4602,1,2,0:0:0:0:
281,246,4778,6,0,L|407:231,1,127.5,8|0,0:0|0:0,0:0:0:0:
408,232,5131,1,8,0:0:0:0:
372,52,5308,1,2,0:0:0:0:
322,151,5484,6,0,L|448:136,1,127.5,8|0,0:0|0:0,0:0:0:0:
448,136,5837,1,0,0:0:0:0:
364,16,6013,1,8,0:0:0:0:
308,192,6190,1,2,0:0:0:0:
448,136,6366,2,0,L|480:296,1,127.5,8|0,0:0|0:0,0:0:0:0:
496,356,6719,1,8,0:0:0:0:
496,356,6896,1,8,0:0:0:0:
476,344,7072,6,0,P|455:340|433:339,1,42.5,4|0,1:0|0:0,0:0:0:0:
348,264,7249,2,0,P|324:268|300:280,1,42.5
148,360,7425,2,0,L|116:316,1,42.5
184,188,7602,2,0,L|204:260,1,42.5,2|0,0:0|0:0,0:0:0:0:
96,296,7778,1,2,0:0:0:0:
140,120,7955,2,0,P|223:116|264:196,1,170,8|4,0:0|0:0,0:0:0:0:
180,312,8484,5,2,0:0:0:0:
96,296,8661,1,0,0:0:0:0:
12,284,8837,1,2,0:0:0:0:
232,184,9190,6,0,L|296:196,1,42.5,2|0,0:0|0:0,0:0:0:0:
364,224,9366,2,0,L|340:260,1,42.5
264,324,9543,2,0,L|252:264,1,42.5,2|0,0:0|0:0,0:0:0:0:
364,336,9719,1,8,0:0:0:0:
164,308,9896,6,0,L|140:182,1,127.5,4|0,0:1|0:0,0:0:0:0:
264,324,10249,1,2,0:0:0:0:
64,296,10425,6,0,L|32:112,1,165.749992412568,8|0,0:0|0:0,0:0:0:0:
164,308,10778,1,8,0:0:0:0:
64,296,10955,1,2,0:0:0:0:
176,241,11131,6,0,P|231:323|96:309,1,306,8|0,0:0|0:0,0:0:0:0:
80,216,12013,6,0,L|76:192,1,21.25,2|0,0:0|0:0,0:0:0:0:
176,76,12190,2,0,L|180:40,2,21.25,2|0|0,0:0|0:0|0:0,0:0:0:0:
160,172,12366,1,0,1:0:0:0:
64,100,12543,1,0,0:0:0:0:
184,24,12719,6,0,L|328:12,1,127.5,10|0,0:0|0:0,0:0:0:0:
348,24,13072,2,0,L|336:136,1,85,10|0,0:0|0:0,0:0:0:0:
424,240,13425,2,0,L|440:104,1,127.5,10|0,0:0|0:0,0:0:0:0:
444,68,13778,1,8,0:0:0:0:
336,144,13955,1,2,0:0:0:0:
496,104,14131,6,0,P|445:68|383:77,1,127.5,10|0,0:0|0:0,0:0:0:0:
360,112,14484,2,0,L|380:220,1,85,10|0,0:0|0:0,0:0:0:0:
216,152,14837,1,10,0:0:0:0:
244,60,15013,2,0,L|252:32,2,21.25,2|0|0,0:0|0:0|0:0,0:0:0:0:
260,8,15190,1,8,0:0:0:0:
360,112,15366,1,2,0:0:0:0:
264,224,15543,6,0,L|96:208,1,127.5,10|0,0:0|0:0,0:0:0:0:
96,212,15896,2,0,L|115:294,1,85,10|0,0:0|0:0,0:0:0:0:
19,184,16249,2,0,P|60:137|122:139,1,127.5,10|0,0:0|0:0,0:0:0:0:
160,164,16602,1,8,0:0:0:0:
72,52,16778,1,2,0:0:0:0:
32,268,16955,5,10,0:0:0:0:
172,240,17131,2,0,L|212:232,2,21.25,2|0|0,0:0|0:0|0:0,0:0:0:0:
224,232,17308,1,10,0:0:0:0:
132,128,17484,1,0,0:0:0:0:
120,336,17661,2,0,B|208:316|208:316|244:324,1,127.5,10|0,0:0|0:0,0:0:0:0:
284,340,18013,2,0,P|324:356|380:352,1,85,10|0,0:0|0:0,0:0:0:0:
468,260,18366,6,0,L|341:279,1,127.5,4|0,1:0|0:0,0:0:0:0:
304,260,18719,2,0,L|316:164,1,85,10|0,0:0|0:0,0:0:0:0:
428,56,19072,2,0,L|412:196,1,127.5,10|0,0:0|0:0,0:0:0:0:
408,224,19425,1,8,0:0:0:0:
320,132,19602,1,2,0:0:0:0:
191,288,19778,6,0,P|253:296|304:260,1,127.5,4|0,1:0|0:0,0:0:0:0:
156,264,20131,2,0,P|103:230|33:246,1,127.5,10|0,0:0|0:0,0:0:0:0:
84,312,20484,1,10,0:0:0:0:
48,136,20661,1,0,0:0:0:0:
196,248,20837,1,10,0:0:0:0:
168,76,21013,1,0,0:0:0:0:
316,192,21190,5,4,1:0:0:0:
288,36,21366,2,0,L|256:48,2,21.25,2|0|0,0:0|0:0|0:0,0:0:0:0:
240,52,21543,1,8,0:0:0:0:
408,80,21719,1,2,0:0:0:0:
316,192,21896,2,0,L|176:172,1,127.5,4|0,1:0|0:0,0:0:0:0:
76,152,22249,5,10,0:0:0:0:
168,76,22425,1,10,0:0:0:0:
196,248,22602,6,0,P|188:292|156:328,1,85,12|0,0:0|0:0,0:0:0:0:
115,255,22866,2,0,P|75:245|33:251,1,85,8|0,0:0|0:0,0:0:0:0:
259,299,23131,2,0,P|274:219|212:168,1,170,12|8,0:0|0:0,0:0:0:0:
212,168,23661,1,10,0:0:0:0:
76,356,24013,5,10,0:0:0:0:
160,348,24190,1,2,0:0:0:0:
244,340,24366,1,8,0:0:0:0:
328,332,24543,1,2,0:0:0:0:
160,348,24719,5,8,0:0:0:0:
328,332,24896,1,2,0:0:0:0:
244,340,25072,5,10,0:0:0:0:
416,324,25249,1,2,0:0:0:0:
472,212,25425,5,10,0:0:0:0:
388,220,25602,1,2,0:0:0:0:
304,228,25778,1,8,0:0:0:0:
220,236,25955,1,2,0:0:0:0:
304,228,26131,5,8,0:0:0:0:
220,236,26308,1,2,0:0:0:0:
304,228,26484,1,10,0:0:0:0:
132,244,26661,5,2,0:0:0:0:
132,244,26749,1,0,0:0:0:0:
132,244,26837,1,10,0:0:0:0:
220,236,27013,1,0,0:0:0:0:
44,252,27190,1,10,0:0:0:0:
132,244,27366,5,2,0:0:0:0:
132,244,27455,1,0,0:0:0:0:
132,244,27543,1,10,0:0:0:0:
220,236,27719,1,0,0:0:0:0:
44,252,27896,1,10,0:0:0:0:
220,236,28072,5,2,0:0:0:0:
220,236,28161,1,2,0:0:0:0:
220,236,28249,1,10,0:0:0:0:
44,252,28425,1,2,0:0:0:0:
44,252,28513,1,2,0:0:0:0:
44,252,28602,1,10,0:0:0:0:
220,236,28778,5,2,0:0:0:0:
164,112,28955,1,8,0:0:0:0:
164,112,29043,1,0,0:0:0:0:
164,112,29131,1,2,0:0:0:0:
164,112,29219,1,2,0:0:0:0:
164,112,29308,1,10,0:0:0:0:
132,244,29484,1,0,0:0:0:0:
276,360,29661,5,4,1:0:0:0:
268,276,29837,1,0,0:0:0:0:
260,192,30013,1,10,0:0:0:0:
252,108,30190,1,2,0:0:0:0:
268,276,30366,5,8,0:0:0:0:
252,108,30543,1,2,0:0:0:0:
260,192,30719,5,8,0:0:0:0:
244,20,30896,1,2,0:0:0:0:
360,36,31072,5,10,0:0:0:0:
368,120,31249,1,0,0:0:0:0:
376,204,31425,1,10,0:0:0:0:
384,288,31602,1,2,0:0:0:0:
368,120,31778,5,8,0:0:0:0:
384,288,31955,1,2,0:0:0:0:
376,204,32131,1,8,0:0:0:0:
392,376,32308,5,2,0:0:0:0:
392,376,32396,1,0,0:0:0:0:
392,376,32484,1,10,0:0:0:0:
392,376,32661,1,8,0:0:0:0:
392,376,32837,1,8,0:0:0:0:
480,236,33190,1,8,0:0:0:0:
480,236,33366,5,12,0:0:0:0:
436,240,33455,1,0,0:0:0:0:
392,244,33543,1,0,0:0:0:0:
348,248,33631,1,0,0:0:0:0:
304,252,33719,1,0,0:0:0:0:
260,256,33808,1,0,0:0:0:0:
212,260,33896,2,0,P|188:216|212:144,1,127.5,8|0,0:0|0:0,0:0:0:0:
256,180,34249,6,0,P|184:200|228:92,1,237.999992736817,8|8,0:0|0:0,0:0:0:0:
256,84,34690,1,0,0:0:0:0:
304,92,34778,1,0,0:0:0:0:
340,124,34866,1,0,0:0:0:0:
388,132,34955,1,8,0:0:0:0:
436,124,35043,1,0,0:0:0:0:
472,92,35131,1,0,0:0:0:0:
472,92,35219,1,0,0:0:0:0:
472,92,35308,6,0,L|456:0,1,85,10|2,0:0|0:0,0:0:0:0:
402,215,35661,2,0,L|388:132,1,85,8|2,0:0|0:0,0:0:0:0:
336,348,36013,1,8,0:0:0:0:
316,256,36190,1,2,0:0:0:0:
420,336,36366,1,10,0:0:0:0:
232,268,36543,1,2,0:0:0:0:
172,372,36719,6,0,L|264:360,1,85,10|2,0:0|0:0,0:0:0:0:
36,296,37072,2,0,L|128:284,1,85,8|2,0:0|0:0,0:0:0:0:
232,268,37425,1,10,0:0:0:0:
112,200,37602,1,2,0:0:0:0:
280,108,37778,1,10,0:0:0:0:
168,72,37955,5,2,0:0:0:0:
172,88,38043,1,0,0:0:0:0:
176,104,38131,1,10,0:0:0:0:
200,188,38308,1,0,0:0:0:0:
100,168,38484,1,10,0:0:0:0:
288,140,38661,5,2,0:0:0:0:
284,124,38749,1,0,0:0:0:0:
280,108,38837,1,10,0:0:0:0:
256,24,39013,1,0,0:0:0:0:
356,44,39190,1,10,0:0:0:0:
176,104,39366,5,2,0:0:0:0:
172,88,39455,1,2,0:0:0:0:
168,72,39543,1,10,0:0:0:0:
280,108,39719,1,2,0:0:0:0:
284,124,39808,1,2,0:0:0:0:
288,140,39896,1,10,0:0:0:0:
317,244,40072,1,0,0:0:0:0:
208,353,40249,5,8,0:0:0:0:
212,320,40337,1,0,0:0:0:0:
215,287,40425,1,2,0:0:0:0:
219,255,40513,1,2,0:0:0:0:
222,222,40602,1,10,0:0:0:0:
328,152,40778,2,0,L|321:221,1,42.5,2|0,0:0|0:0,0:0:0:0:
317,244,40955,6,0,P|370:209|430:232,1,127.500004863739,4|0,1:0|0:0,0:0:0:0:
446,372,41219,2,0,P|390:343|379:281,1,127.500004863739,8|0,0:0|0:0,0:0:0:0:
494,196,41484,2,0,P|497:258|448:298,1,127.500004863739,8|0,0:0|0:0,0:0:0:0:
416,288,41749,5,0,0:0:0:0:
379,284,41837,1,0,0:0:0:0:
342,280,41925,1,0,0:0:0:0:
305,277,42013,1,10,0:0:0:0:
269,273,42102,1,2,0:0:0:0:
232,270,42190,2,0,L|148:284,1,63.7500024318696
232,270,42366,6,0,L|384:244,1,127.500004863739,10|0,0:0|0:0,0:0:0:0:
505,262,42631,2,0,L|380:284,1,127.500004863739,8|0,0:0|0:0,0:0:0:0:
91,254,42896,2,8,L|216:232,1,127.500004863739,10|0,0:0|0:0,0:0:0:0:
216,232,43249,5,8,0:0:0:0:
244,192,43337,1,0,0:0:0:0:
248,140,43425,1,0,0:0:0:0:
220,96,43513,1,0,0:0:0:0:
172,76,43602,1,10,0:0:0:0:
120,84,43690,1,2,0:0:0:0:
80,116,43778,6,0,L|104:240,1,101.999996887207,14|2,0:0|0:0,0:0:0:0:
235,332,44131,2,0,L|216:232,1,101.999996887207,8|2,0:0|0:0,0:0:0:0:
128,336,44484,1,12,0:0:0:0:
320,260,44661,1,0,0:0:0:0:
314,229,44749,1,0,0:0:0:0:
309,199,44837,1,10,0:0:0:0:
303,169,44925,1,2,0:0:0:0:
298,139,45013,1,2,0:0:0:0:
292,109,45102,1,2,0:0:0:0:
284,76,45190,6,0,L|392:92,1,101.999996887207,14|2,0:0|0:0,0:0:0:0:
424,100,45455,1,2,0:0:0:0:
424,100,45543,1,8,0:0:0:0:
412,56,45631,1,0,0:0:0:0:
400,12,45719,1,0,0:0:0:0:
320,260,45896,2,0,L|376:288,1,50.9999984436036,12|0,0:0|0:0,0:0:0:0:
447,191,46072,2,0,L|398:204,1,50.9999984436036
436,364,46249,6,0,L|448:260,1,89.2499972763062,8|0,0:0|0:0,0:0:0:0:
452,232,46602,6,0,P|488:280|412:288,1,165.749992412568,4|0,1:0|0:0,0:0:0:0:
396,246,46955,6,0,P|396:225|398:204,1,42.5,2|0,0:0|0:0,0:0:0:0:
312,104,47131,2,0,P|323:85|337:70,1,42.5,2|0,0:0|0:0,0:0:0:0:
472,96,47308,2,0,P|452:104|431:108,1,42.5,8|0,0:0|0:0,0:0:0:0:
288,200,47484,2,0,P|256:200|228:192,1,42.5
92,120,47661,1,2,0:0:0:0:
220,24,47837,6,0,B|232:64|232:64|204:192,1,170,10|0,0:0|0:0,0:0:0:0:
172,320,48366,2,0,P|119:280|143:216,1,127.5,10|0,0:0|0:0,0:0:0:0:
252,316,48719,2,0,P|288:324|324:324,1,42.5,8|0,0:0|0:0,0:0:0:0:
440,352,48896,2,0,P|464:332|480:312,1,42.5
380,224,49072,2,0,P|375:244|372:265,1,42.5,2|0,0:0|0:0,0:0:0:0:
476,192,49249,2,0,P|472:160|464:136,1,42.5,2|0,0:0|0:0,0:0:0:0:
376,44,49425,6,0,L|208:60,1,127.5,8|0,0:0|0:0,0:0:0:0:
172,80,49778,2,0,B|80:64|80:64|128:40,1,127.5
236,136,50131,2,0,P|236:184|232:204,1,42.5,8|0,0:0|0:0,0:0:0:0:
280,276,50308,2,0,P|264:312|248:328,1,42.5,8|0,0:0|0:0,0:0:0:0:
116,340,50484,2,0,P|105:321|98:301,1,42.5,2|0,0:0|0:0,0:0:0:0:
150,173,50661,6,0,B|236:160|236:160|268:167|268:167|368:154,1,212.5,8|0,0:0|0:0,0:0:0:0:
436,128,51190,2,0,L|420:68,1,42.5,8|0,0:0|0:0,0:0:0:0:
304,32,51366,2,0,L|316:76,1,42.5,2|0,0:0|0:0,0:0:0:0:
260,220,51543,2,0,L|240:148,1,42.5,8|0,0:0|0:0,0:0:0:0:
400,200,51719,2,0,L|504:220,2,85,0|2|2,0:0|0:0|0:0,0:0:0:0:
476,360,52249,6,0,P|517:314|505:254,1,127.5,12|0,0:0|0:0,0:0:0:0:
424,232,52602,2,0,P|402:232|382:237,1,42.5,2|0,0:0|0:0,0:0:0:0:
348,332,52778,2,0,P|369:330|389:325,1,42.5,2|0,0:0|0:0,0:0:0:0:
270,284,52955,2,0,P|232:268|189:268,1,85,8|0,0:0|0:0,0:0:0:0:
76,340,53308,1,2,0:0:0:0:
208,316,53484,6,0,P|236:268|140:284,1,212.5,8|0,0:0|0:0,0:0:0:0:
216,188,54013,2,0,P|214:166|209:146,1,42.5,8|0,0:0|0:0,0:0:0:0:
236,40,54190,2,0,P|220:26|200:17,1,42.5,2|0,0:0|0:0,0:0:0:0:
72,108,54366,2,0,L|132:112,1,42.5,8|0,0:0|0:0,0:0:0:0:
296,124,54543,2,0,L|412:128,1,85,0|2,0:0|0:0,0:0:0:0:
352,220,54896,1,2,0:0:0:0:
272,76,55072,6,0,L|356:79,1,85,12|0,0:0|0:0,0:0:0:0:
496,120,55425,1,8,0:0:0:0:
496,120,55602,2,0,L|368:112,1,127.5,8|0,0:0|0:0,0:0:0:0:
244,104,55955,1,2,0:0:0:0:
364,8,56131,1,8,0:0:0:0:
424,204,56308,6,0,L|276:192,1,140.25000428009,4|0,1:0|0:0,0:0:0:0:
156,176,56661,1,10,0:0:0:0:
272,76,56837,1,8,0:0:0:0:
352,288,57013,6,0,L|196:276,1,152.999995330811,4|0,1:0|0:0,0:0:0:0:
60,256,57366,1,10,0:0:0:0:
188,152,57543,1,10,0:0:0:0:
280,372,57719,6,0,B|143:360|143:360|184:328,1,165.749992412568,4|0,1:0|0:0,0:0:0:0:
199,276,58072,2,0,P|203:260|203:236,1,27.6249987354279,8|0,0:0|0:0,0:0:0:0:
260,84,58249,2,0,P|250:70|231:55,1,27.6249987354279,8|0,0:0|0:0,0:0:0:0:
88,120,58425,2,0,P|97:133|116:148,1,27.6249987354279,8|0,0:0|0:0,0:0:0:0:
276,168,58602,6,0,L|360:156,1,55.2499974708558,8|0,0:0|0:0,0:0:0:0:
372,152,58778,2,0,L|399:149,2,27.6249987354279,2|0|2,0:0|0:0|0:0,0:0:0:0:
444,144,58955,1,8,0:0:0:0:
388,252,59131,1,0,0:0:0:0:
316,92,59308,6,0,P|380:72|440:112,1,127.5,10|0,0:0|0:0,0:0:0:0:
476,112,59661,2,0,L|488:20,1,85,10|0,0:0|0:0,0:0:0:0:
504,196,60013,2,0,L|484:344,1,127.5,10|0,0:0|0:0,0:0:0:0:
480,364,60366,1,8,0:0:0:0:
328,300,60543,1,2,0:0:0:0:
392,376,60719,6,0,L|416:212,1,127.5,10|0,0:0|0:0,0:0:0:0:
416,208,61072,2,0,L|308:224,1,85,10|0,0:0|0:0,0:0:0:0:
200,244,61425,1,10,0:0:0:0:
324,321,61602,2,0,L|328:300,2,21.25
332,268,61778,1,8,0:0:0:0:
152,348,61955,1,2,0:0:0:0:
48,280,62131,6,0,L|192:300,1,127.5,10|0,0:0|0:0,0:0:0:0:
216,300,62484,2,0,L|204:212,1,85,10|0,0:0|0:0,0:0:0:0:
184,44,62837,2,0,P|245:42|286:89,1,127.5,10|0,0:0|0:0,0:0:0:0:
296,132,63190,1,8,0:0:0:0:
128,232,63366,1,2,0:0:0:0:
264,224,63543,5,10,0:0:0:0:
156,140,63719,2,0,L|134:136,2,21.25
104,132,63896,1,8,0:0:0:0:
48,264,64072,1,2,0:0:0:0:
223,184,64249,2,0,P|238:123|201:73,1,127.5,10|0,0:0|0:0,0:0:0:0:
168,48,64602,2,0,P|208:64|264:60,1,85,10|0,0:0|0:0,0:0:0:0:
448,32,64955,6,0,B|348:20|348:20|322:29,1,127.5,4|0,1:0|0:0,0:0:0:0:
328,72,65308,2,0,L|348:154,1,85,10|0,0:0|0:0,0:0:0:0:
464,280,65661,2,0,L|434:155,1,127.5,10|0,0:0|0:0,0:0:0:0:
424,116,66013,1,8,0:0:0:0:
492,192,66190,1,2,0:0:0:0:
332,232,66366,6,0,P|277:202|216:217,1,127.5,10|0,0:0|0:0,0:0:0:0:
153,269,66719,2,0,P|137:208|168:152,1,127.5,10|0,0:0|0:0,0:0:0:0:
232,104,67072,1,8,0:0:0:0:
372,88,67249,1,2,0:0:0:0:
216,216,67425,1,10,0:0:0:0:
392,304,67602,1,0,0:0:0:0:
332,200,67778,5,4,1:0:0:0:
264,312,67955,2,0,L|276:344,2,21.25
284,360,68131,1,8,0:0:0:0:
432,320,68308,1,2,0:0:0:0:
332,200,68484,2,0,L|192:192,1,127.5,4|0,1:0|0:0,0:0:0:0:
160,188,68837,5,10,0:0:0:0:
44,180,69013,1,10,0:0:0:0:
180,72,69190,6,0,L|192:180,1,85,12|0,0:0|0:0,0:0:0:0:
140,312,69455,2,0,L|128:196,1,93.5000028533936,8|0,0:0|0:0,0:0:0:0:
272,160,69719,2,0,L|296:376,1,203.999993774414,12|8,0:0|0:0,0:0:0:0:
294,362,70249,1,10,0:0:0:0:
492,328,70602,6,0,B|516:256|476:208|476:208|452:243,1,170,8|0,0:0|0:0,0:0:0:0:
452,242,71308,2,0,P|398:276|336:272,1,127.5
308,240,71661,2,0,L|313:197,1,42.5,2|0,0:0|0:0,0:0:0:0:
384,164,71837,2,0,L|389:121,1,42.5,2|0,0:0|0:0,0:0:0:0:
468,96,72013,6,0,B|476:28|476:28|424:52,1,85,0|2,0:0|0:0,0:0:0:0:
428,60,72278,1,2,0:0:0:0:
428,60,72366,2,0,P|392:68|372:64,1,42.5
316,108,72543,2,0,P|294:107|274:100,1,42.5,2|0,0:0|0:0,0:0:0:0:
240,28,72719,1,2,0:0:0:0:
384,164,72896,1,0,0:0:0:0:
192,224,73072,1,2,0:0:0:0:
268,140,73249,1,8,0:0:0:0:
320,308,73425,6,0,B|298:359|298:359|236:380|186:351,1,170,8|0,0:0|0:0,0:0:0:0:
188,351,73955,1,0,0:0:0:0:
188,351,74131,2,0,P|124:344|80:348,1,85,0|2,0:0|0:0,0:0:0:0:
103,344,74484,1,0,0:0:0:0:
224,272,74661,1,2,0:0:0:0:
132,148,74837,6,0,L|144:276,1,110.499994941712,8|0,0:0|0:0,0:0:0:0:
60,244,75102,2,0,L|48:116,1,110.499994941712,8|0,0:0|0:0,0:0:0:0:
148,12,75366,6,0,L|160:140,1,110.499994941712,8|0,0:0|0:0,0:0:0:0:
252,252,75631,2,0,L|240:124,1,110.499994941712,8|0,0:0|0:0,0:0:0:0:
232,32,75896,1,8,0:0:0:0:
232,32,76072,1,8,0:0:0:0:
345,195,76249,6,0,B|398:228|475:201|475:201|433:162,1,170,12|0,0:0|0:0,0:0:0:0:
448,177,76955,2,0,P|406:132|414:71,1,127.5
484,108,77308,2,0,L|424:144,1,42.5
344,196,77484,2,0,L|304:156,1,42.5,8|0,0:0|0:0,0:0:0:0:
232,72,77661,6,0,L|402:84,1,170,8|0,0:0|0:0,0:0:0:0:
402,84,78366,2,0,B|318:108|318:108|336:68,1,127.5
356,16,78719,2,0,L|360:88,1,42.5,2|0,0:0|0:0,0:0:0:0:
368,168,78896,2,0,L|372:240,1,42.5,10|0,0:0|0:0,0:0:0:0:
452,176,79072,6,0,B|448:125|448:125|429:99|429:99|443:69|443:69|439:19,1,165.749992412568,8|0,0:0|0:0,0:0:0:0:
368,168,79425,2,0,L|372:248,1,55.2499974708558,2|0,0:0|0:0,0:0:0:0:
376,324,79602,2,0,L|380:404,1,55.2499974708558,10|0,0:0|0:0,0:0:0:0:
296,364,79778,6,0,B|293:301|293:301|308:272|308:272|290:245|290:245|288:164,1,191.250007295609,8|0,0:0|0:0,0:0:0:0:
356,16,80131,2,0,L|360:104,1,63.7500024318696,2|0,0:0|0:0,0:0:0:0:
368,168,80308,2,0,L|372:248,1,63.7500024318696,10|0,0:0|0:0,0:0:0:0:
380,348,80484,6,0,L|244:340,1,127.500004863739,10|0,0:0|0:0,0:0:0:0:
102,320,80749,2,0,P|98:258|140:212,1,127.500004863739,10|0,0:0|0:0,0:0:0:0:
232,176,81013,2,0,P|236:213|225:250,1,76.4999976654053,10|0,0:0|0:0,0:0:0:0:
13,227,81190,6,0,L|140:212,1,127.500004863739,10|0,0:0|0:0,0:0:0:0:
313,201,81455,2,0,P|313:139|267:97,1,127.500004863739,10|0,0:0|0:0,0:0:0:0:
182,60,81719,2,0,P|171:96|175:134,1,76.4999976654053,10|0,0:0|0:0,0:0:0:0:
300,340,81896,6,0,L|432:324,1,127.5,8|0,0:0|0:0,0:0:0:0:
468,312,82249,2,0,P|469:267|453:223,1,85,8|0,0:0|0:0,0:0:0:0:
304,204,82602,1,8,0:0:0:0:
304,204,82690,2,0,P|302:159|318:115,1,85
348,96,82955,2,0,L|456:104,1,85,8|0,0:0|0:0,0:0:0:0:
508,184,83308,6,0,L|356:172,1,127.5,8|0,0:0|0:0,0:0:0:0:
340,168,83661,2,0,L|368:80,1,85,8|0,0:0|0:0,0:0:0:0:
376,256,84013,1,8,0:0:0:0:
376,256,84102,2,0,L|348:344,1,85
307,335,84366,2,0,P|267:324|224:326,1,85,8|0,0:0|0:0,0:0:0:0:
32,340,84719,6,0,P|88:367|149:354,1,127.5,8|0,0:0|0:0,0:0:0:0:
223,326,85072,2,0,L|207:238,1,85,8|0,0:0|0:0,0:0:0:0:
292,108,85425,1,8,0:0:0:0:
292,108,85513,2,0,L|280:204,1,85
352,236,85778,2,0,L|340:332,1,85,8|0,0:0|0:0,0:0:0:0:
468,216,86131,6,0,L|484:72,1,127.5,8|0,0:0|0:0,0:0:0:0:
404,108,86484,2,0,P|360:124|320:124,1,85,8|0,0:0|0:0,0:0:0:0:
216,200,86837,1,8,0:0:0:0:
216,200,86925,2,0,P|168:192|132:160,1,85
128,88,87190,2,0,P|176:96|212:128,1,85,8|4,0:0|0:0,0:0:0:0:
180,368,87543,6,0,P|144:316|156:252,1,127.5,8|0,0:0|0:0,0:0:0:0:
296,232,87896,2,0,P|300:190|289:149,1,85,8|0,0:0|0:0,0:0:0:0:
52,216,88249,1,8,0:0:0:0:
52,216,88337,2,0,L|136:222,1,85
260,332,88602,2,0,L|376:340,1,85,8|0,0:0|0:0,0:0:0:0:
492,132,88955,6,0,P|448:96|372:112,1,127.5,8|0,0:0|0:0,0:0:0:0:
288,195,89308,2,0,P|283:238|292:280,1,85,8|0,0:0|0:0,0:0:0:0:
504,312,89661,1,8,0:0:0:0:
504,312,89749,2,0,L|400:276,1,85
296,308,90013,2,0,L|214:283,1,85,8|0,0:0|0:0,0:0:0:0:
92,308,90366,5,8,0:0:0:0:
83,305,90543,1,8,0:0:0:0:
74,302,90719,1,8,0:0:0:0:
66,300,90896,1,8,0:0:0:0:
57,297,91072,1,8,0:0:0:0:
49,295,91249,1,8,0:0:0:0:
40,292,91425,1,8,0:0:0:0:
31,290,91602,1,8,0:0:0:0:
22,287,91778,6,0,L|198:311,1,170,8|0,0:0|0:0,0:0:0:0:
212,310,92572,6,0,P|206:268|187:230,1,85
103,235,92837,6,0,P|69:319|147:360,1,191.250007295609,6|0,1:0|0:0,0:0:0:0:
287,305,93190,6,0,B|270:195|270:195|254:245,1,152.999995330811,8|0,0:0|0:0,0:0:0:0:
244,279,93543,2,0,L|343:255,1,101.999996887207,8|0,0:0|0:0,0:0:0:0:
476,248,93896,1,8,0:0:0:0:
476,248,93984,2,0,B|497:304|497:304|484:346,1,101.999996887207
444,376,94249,2,0,L|458:326,1,50.9999984436036,8|0,0:0|0:0,0:0:0:0:
476,248,94425,1,0,0:0:0:0:
492,128,94602,6,0,L|472:28,1,101.999996887207,8|0,0:0|0:0,0:0:0:0:
428,12,94866,1,0,0:0:0:0:
428,12,94955,2,0,B|364:28|364:28|394:47,1,101.999996887207,8|0,0:0|0:0,0:0:0:0:
368,200,95308,1,8,0:0:0:0:
368,200,95396,2,0,P|320:224|268:212,1,101.999996887207
236,188,95661,2,0,L|248:124,2,50.9999984436036,8|0|0,0:0|0:0|0:0,0:0:0:0:
368,200,96013,6,0,L|388:356,1,152.999995330811,8|0,0:0|0:0,0:0:0:0:
344,348,96366,2,0,P|296:329|246:331,1,101.999996887207,8|0,0:0|0:0,0:0:0:0:
128,336,96719,1,8,0:0:0:0:
129,336,96808,2,0,P|81:354|31:352,1,101.999996887207
0,319,97072,2,0,P|24:310|49:311,1,50.9999984436036,8|0,0:0|0:0,0:0:0:0:
128,336,97249,1,0,0:0:0:0:
240,376,97425,6,0,P|302:337|373:360,1,152.999995330811,8|0,0:0|0:0,0:0:0:0:
468,328,97778,6,0,P|507:279|504:216,1,127.500004863739,8|0,0:0|0:0,0:0:0:0:
376,252,98131,1,10,0:0:0:0:
484,268,98308,1,2,0:0:0:0:
460,60,98484,6,0,L|472:184,1,102,8|0,0:0|0:0,0:0:0:0:
484,268,98837,6,0,B|384:236|384:236|304:244,1,152.999995330811,8|0,0:0|0:0,0:0:0:0:
292,252,99190,2,0,P|330:221|334:171,1,101.999996887207,8|0,0:0|0:0,0:0:0:0:
264,36,99543,1,8,0:0:0:0:
264,36,99631,2,0,L|152:48,1,101.999996887207
84,60,99896,2,0,L|108:112,1,50.9999984436036,8|0,0:0|0:0,0:0:0:0:
156,200,100072,1,0,0:0:0:0:
36,368,100249,6,0,L|24:228,1,101.999996887207,8|0,0:0|0:0,0:0:0:0:
20,184,100513,1,0,0:0:0:0:
20,184,100602,2,0,L|124:200,1,101.999996887207,8|0,0:0|0:0,0:0:0:0:
288,212,100955,1,8,0:0:0:0:
287,212,101043,2,0,P|317:171|314:121,1,101.999996887207
256,60,101308,2,0,L|176:72,2,50.9999984436036,8|0|0,0:0|0:0|0:0,0:0:0:0:
368,240,101661,6,0,P|420:248|464:224,1,101.999996887207,8|0,0:0|0:0,0:0:0:0:
500,152,101925,1,0,0:0:0:0:
500,152,102013,2,0,P|447:143|403:167,1,101.999996887207,8|0,0:0|0:0,0:0:0:0:
392,324,102366,1,8,0:0:0:0:
392,324,102455,2,0,P|340:348|288:336,1,101.999996887207
224,308,102719,2,0,P|199:300|174:300,1,50.9999984436036,8|0,0:0|0:0,0:0:0:0:
48,344,102896,1,0,0:0:0:0:
264,320,103072,6,0,L|252:180,1,127.500004863739,8|0,0:0|0:0,0:0:0:0:
320,116,103337,6,0,L|332:256,1,127.500004863739,8|0,0:0|0:0,0:0:0:0:
412,340,103602,6,0,L|400:200,1,127.500004863739,8|8,0:0|0:0,0:0:0:0:
484,320,103955,5,8,0:0:0:0:
484,320,104131,2,0,L|472:196,1,102,8|0,0:0|0:0,0:0:0:0:
456,176,104484,6,0,P|416:164|444:228,1,152.999995330811,8|0,0:0|0:0,0:0:0:0:
504,184,104837,2,0,L|492:56,1,101.999996887207,8|0,0:0|0:0,0:0:0:0:
344,12,105190,1,8,0:0:0:0:
344,12,105278,2,0,P|316:56|344:132,1,101.999996887207
389,141,105543,2,0,P|396:117|396:92,1,50.9999984436036,8|0,0:0|0:0,0:0:0:0:
240,40,105719,1,0,0:0:0:0:
264,196,105896,6,0,L|280:328,1,101.999996887207,8|0,0:0|0:0,0:0:0:0:
288,376,106161,1,0,0:0:0:0:
288,376,106249,2,0,P|237:355|160:356,1,101.999996887207,8|0,0:0|0:0,0:0:0:0:
32,312,106602,1,8,0:0:0:0:
31,311,106690,2,0,P|81:311|125:286,1,101.999996887207
148,204,106955,2,0,L|136:132,2,50.9999984436036,8|0|0,0:0|0:0|0:0,0:0:0:0:
112,40,107308,6,0,L|244:56,1,101.999996887207,8|0,0:0|0:0,0:0:0:0:
292,56,107572,1,0,0:0:0:0:
292,56,107661,2,0,P|340:32|404:40,1,101.999996887207,8|0,0:0|0:0,0:0:0:0:
460,124,108013,1,8,0:0:0:0:
460,124,108102,2,0,L|328:108,1,101.999996887207
308,176,108366,2,0,L|328:248,1,50.9999984436036,8|0,0:0|0:0,0:0:0:0:
356,320,108543,1,0,0:0:0:0:
472,208,108719,5,10,0:0:0:0:
468,200,108896,1,10,0:0:0:0:
464,192,109072,1,10,0:0:0:0:
460,184,109249,1,2,0:0:0:0:
456,175,109425,6,0,P|413:219|428:292,1,127.500004863739,10|0,0:0|0:0,0:0:0:0:
452,352,109690,6,0,P|494:308|480:235,1,127.500004863739,10|0,0:0|0:0,0:0:0:0:
367,257,109955,6,0,L|356:320,1,63.7500024318696,10|0,0:0|0:0,0:0:0:0:
264,364,110131,6,0,B|244:344|244:344|216:360|216:360|188:324|131:341,1,152.999995330811,8|0,0:0|0:0,0:0:0:0:
72,248,110484,2,0,P|24:276|8:332,1,101.999996887207,8|0,0:0|0:0,0:0:0:0:
184,244,110837,1,8,0:0:0:0:
184,244,110925,2,0,P|180:184|148:148,1,101.999996887207
24,176,111190,2,0,L|44:52,1,101.999996887207,8|0,0:0|0:0,0:0:0:0:
232,4,111543,6,0,L|216:132,1,101.999996887207,8|0,0:0|0:0,0:0:0:0:
208,212,111808,1,0,0:0:0:0:
207,212,111896,2,0,P|249:185|299:186,1,101.999996887207,8|0,0:0|0:0,0:0:0:0:
484,172,112249,1,8,0:0:0:0:
484,172,112337,2,0,P|433:173|391:146,1,101.999996887207
280,180,112602,2,0,P|272:130|300:84,1,101.999996887207,8|0,0:0|0:0,0:0:0:0:
480,88,112955,6,0,B|508:72|508:72|432:56,1,101.999996887207,8|0,0:0|0:0,0:0:0:0:
352,144,113219,1,0,0:0:0:0:
352,144,113308,2,0,L|368:256,1,101.999996887207,8|0,0:0|0:0,0:0:0:0:
270,354,113661,1,8,0:0:0:0:
270,354,113749,2,0,L|286:242,1,101.999996887207
440,312,114013,1,8,0:0:0:0:
352,144,114190,1,8,0:0:0:0:
285,254,114366,6,0,P|333:286|405:266,1,127.500004863739,8|0,0:0|0:0,0:0:0:0:
273,170,114631,6,0,P|221:195|201:262,1,127.500004863739,8|0,0:0|0:0,0:0:0:0:
348,206,114896,6,0,P|355:175|351:143,1,63.7500024318696,8|0,0:0|0:0,0:0:0:0:
272,72,115072,1,2,0:0:0:0:
440,144,115249,1,10,0:0:0:0:
372,16,115425,6,0,P|349:60|355:110,1,102,6|0,1:0|0:0,0:0:0:0:
355,110,115778,2,0,L|195:87,1,127.5,10|0,0:0|0:0,0:0:0:0:
156,120,116131,2,0,P|88:156|40:148,1,127.5,2|0,0:0|0:0,0:0:0:0:
24,72,116484,1,2,0:0:0:0:
136,240,116661,1,8,0:0:0:0:
156,120,116837,1,2,0:0:0:0:
8,160,117013,6,0,L|32:344,1,170,10|0,0:0|0:0,0:0:0:0:
116,224,117543,1,2,0:0:0:0:
216,352,117719,1,2,0:0:0:0:
192,348,117808,1,2,0:0:0:0:
168,344,117896,1,2,0:0:0:0:
32,328,118072,1,2,0:0:0:0:
148,316,118249,1,2,0:0:0:0:
116,224,118425,1,2,0:0:0:0:
248,248,118602,6,0,L|404:276,1,127.5,4|0,1:0|0:0,0:0:0:0:
452,260,118955,2,0,P|473:223|473:181,1,85,2|8,0:0|0:0,0:0:0:0:
344,56,119308,2,0,P|327:94|332:136,1,85,2|8,0:0|0:0,0:0:0:0:
492,112,119661,2,0,L|400:104,1,85,2|8,0:0|0:0,0:0:0:0:
196,216,120190,5,2,0:0:0:0:
217,218,120278,1,2,0:0:0:0:
239,221,120366,2,0,L|212:170,1,42.5,10|2,0:0|0:0,0:0:0:0:
259,95,120543,2,0,L|298:164,1,42.5,2|2,0:0|0:0,0:0:0:0:
136,161,120719,2,0,L|34:152,2,85,8|2|10,0:0|0:0|0:0,0:0:0:0:
280,176,121249,1,10,0:0:0:0:
432,192,121425,6,0,B|312:180|312:180|356:156,1,170,14|2,0:0|0:0,0:0:0:0:
355,156,122131,2,0,L|364:256,1,85,2|8,0:0|0:0,0:0:0:0:
380,364,122484,1,2,0:0:0:0:
504,308,122661,2,0,P|464:252|368:272,1,170,8|0,0:0|0:0,0:0:0:0:
373,266,123190,1,2,0:0:0:0:
492,72,123543,5,2,0:0:0:0:
396,24,123719,1,2,0:0:0:0:
416,176,123896,1,2,0:0:0:0:
288,248,124072,1,10,0:0:0:0:
204,164,124249,6,0,L|360:172,1,127.5,4|0,1:0|0:0,0:0:0:0:
416,176,124602,2,0,L|392:84,1,85,2|8,0:0|0:0,0:0:0:0:
284,144,124955,1,2,0:0:0:0:
172,20,125131,1,8,0:0:0:0:
348,76,125308,1,2,0:0:0:0:
204,164,125484,6,0,L|225:38,1,127.5,8|0,0:0|0:0,0:0:0:0:
364,140,125837,2,0,L|374:224,1,85,2|2,0:0|0:0,0:0:0:0:
240,340,126190,2,0,P|169:310|274:280,1,255,2|2,0:0|0:0,0:0:0:0:
256,192,126808,12,0,129543,0:0:0:0:
