osu file format v14

[General]
AudioFilename: Dajiahao.mp3
AudioLeadIn: 2000
PreviewTime: 46249
Countdown: 0
SampleSet: Soft
StackLeniency: 0.7
Mode: 0
LetterboxInBreaks: 0
WidescreenStoryboard: 0

[Editor]
Bookmarks: 29661,70602,81896,115778
DistanceSpacing: 1.1
BeatDivisor: 4
GridSize: 4
TimelineZoom: 1.6

[Metadata]
Title:Dajiahao (Erhu ver.)
TitleUnicode:大家好 (二胡ver.)
Artist:Memme
ArtistUnicode:Memme
Creator:Kamio Misuzu
Version:Easy
Source:节奏大师
Tags:AIR Guy Asahina momoko m_o_k_o_r_i mokori rhythm master tencent games
BeatmapID:673056
BeatmapSetID:284847

[Difficulty]
HPDrainRate:2
CircleSize:3
OverallDifficulty:2
ApproachRate:3
SliderMultiplier:0.8
SliderTickRate:1

[Events]
//Background and Video events
0,0,"BG.jpg",0,0
//Break Periods
//Storyboard Layer 0 (Background)
//Storyboard Layer 1 (Fail)
//Storyboard Layer 2 (Pass)
//Storyboard Layer 3 (Foreground)
//Storyboard Sound Samples

[TimingPoints]
14,352.941176470588,4,2,1,20,1,0
1425,-100,4,2,1,60,0,0
4249,-100,4,2,1,80,0,0
7072,-100,4,2,1,60,0,0
9896,-100,4,2,1,80,0,0
12719,-100,4,2,1,80,0,1
24013,-100,4,2,1,60,0,0
32484,-100,4,2,1,80,0,0
35308,-100,4,2,1,60,0,0
40955,-100,4,2,1,80,0,0
41749,-100,4,2,1,60,0,0
42190,-100,4,2,1,80,0,0
43249,-100,4,2,1,60,0,0
46249,-100,4,2,1,80,0,0
46602,-100,4,2,1,60,0,0
56308,-100,4,2,1,65,0,0
57013,-100,4,2,1,70,0,0
57719,-100,4,2,1,75,0,0
59308,-100,4,2,1,80,0,1
70602,-100,4,2,1,60,0,0
74837,-100,4,2,1,80,0,0
76249,-100,4,2,1,60,0,0
79072,-100,4,2,1,65,0,0
79778,-100,4,2,1,70,0,0
80484,-100,4,2,1,80,0,0
81896,-100,4,2,1,60,0,0
87543,-100,4,2,1,70,0,0
92484,-100,4,2,0,70,0,0
92661,-100,4,1,0,70,0,0
92837,-100,4,2,1,80,0,0
93190,-100,4,2,1,60,0,0
97425,-100,4,2,1,80,0,0
98837,-100,4,2,1,65,0,0
103072,-100,4,2,1,80,0,0
104484,-100,4,2,1,70,0,0
108719,-100,4,2,1,80,0,0
110131,-100,4,2,1,75,0,0
114366,-100,4,2,1,80,0,0
115778,-100,4,2,1,50,0,0
127072,-100,4,2,1,45,0,0
127425,-100,4,2,1,40,0,0
127778,-100,4,2,1,35,0,0
128131,-100,4,2,1,30,0,0
128484,-100,4,2,1,25,0,0
128837,-100,4,2,1,20,0,0
129190,-100,4,2,1,15,0,0
129543,-100,4,2,1,10,0,0

[Colours]
Combo1 : 234,117,0
Combo2 : 247,228,142
Combo3 : 255,51,51

[HitObjects]
180,188,1425,6,0,P|142:102|209:36,1,200,8|8,0:0|0:0,0:0:0:0:
296,40,2661,2,0,B|340:48|340:48|368:40|368:40|414:48,1,120,8|0,0:0|0:0,0:0:0:0:
476,108,3543,2,0,L|452:292,1,160,0|12,0:0|0:0,0:0:0:0:
324,284,4778,2,0,P|276:268|232:268,1,80,8|12,0:0|0:0,0:0:0:0:
196,340,5484,2,0,P|128:352|56:352,1,120,8|12,0:0|0:0,0:0:0:0:
28,280,6366,2,0,P|72:268|120:268,1,80,8|8,0:0|0:0,0:0:0:0:
192,252,7072,6,0,B|264:216|324:288|392:252,1,200,8|8,0:0|0:0,0:0:0:0:
468,220,8308,2,0,P|479:162|455:108,1,120,12|0,0:0|0:0,0:0:0:0:
384,56,9190,2,0,B|284:40|284:40|192:60,1,160,0|4,0:0|0:0,0:0:0:0:
100,84,10425,2,0,L|112:192,1,80,8|12,0:0|0:0,0:0:0:0:
188,204,11131,2,0,P|216:325|92:344,1,280,8|8,0:0|0:0,0:0:0:0:
24,288,12719,6,0,B|12:184|12:184|36:112,1,160,2|2,0:0|0:0,0:0:0:0:
112,96,13778,1,0,0:0:0:0:
200,112,14131,2,0,P|245:108|284:96,1,80,2|0,0:0|0:0,0:0:0:0:
360,128,14837,2,0,P|371:161|363:229,1,80,2|0,0:0|0:0,0:0:0:0:
348,292,15543,6,0,B|296:308|240:272|184:288,1,160,2|0,0:0|0:0,0:0:0:0:
108,320,16602,1,0,0:0:0:0:
80,236,16955,2,0,P|75:196|73:156,1,80,2|0,0:0|0:0,0:0:0:0:
124,84,17661,2,0,L|216:96,1,80,2|0,0:0|0:0,0:0:0:0:
292,91,18366,6,0,P|354:46|430:61,1,160,6|0,0:0|0:0,0:0:0:0:
492,124,19425,1,0,0:0:0:0:
504,212,19778,2,0,P|503:252|497:291,1,80,6|0,0:0|0:0,0:0:0:0:
440,360,20484,2,0,P|425:337|412:280,1,80,2|0,0:0|0:0,0:0:0:0:
330,305,21190,6,0,P|255:331|176:340,1,160,6|4,0:0|0:1,0:0:0:0:
92,316,22249,1,0,0:0:0:0:
12,276,22602,2,0,P|55:236|114:233,2,120,6|6|0,0:0|0:0|0:0,0:0:0:0:
92,316,24013,6,0,L|76:144,1,160,8|8,0:0|0:0,0:0:0:0:
64,68,25072,1,0,0:0:0:0:
146,99,25425,2,0,P|217:134|296:127,1,160,8|8,0:0|0:0,0:0:0:0:
384,108,26484,1,0,0:0:0:0:
400,20,26837,6,0,P|360:21|325:40,1,80,8|0,0:0|0:0,0:0:0:0:
296,128,27543,2,0,P|308:176|308:224,1,80,8|0,0:0|0:0,0:0:0:0:
288,292,28249,2,0,P|228:344|147:345,1,160,8|8,0:0|0:0,0:0:0:0:
68,316,29308,1,0,0:0:0:0:
24,240,29661,6,0,P|84:188|164:186,1,160,12|8,0:0|0:0,0:0:0:0:
240,224,30719,1,0,0:0:0:0:
296,292,31072,2,0,P|360:332|448:312,1,160,8|8,0:0|0:0,0:0:0:0:
504,256,32131,1,0,0:0:0:0:
508,168,32484,6,0,P|503:117|492:72,1,80,8|0,0:0|0:0,0:0:0:0:
412,64,33190,2,0,P|345:23|268:41,1,160,8|12,0:0|0:0,0:0:0:0:
212,108,34249,1,8,0:0:0:0:
180,192,34602,2,0,P|176:231|183:270,1,80,8|8,0:0|0:0,0:0:0:0:
256,320,35308,6,0,B|313:331|374:293|423:305,1,160,8|8,0:0|0:0,0:0:0:0:
488,256,36366,1,0,0:0:0:0:
408,216,36719,2,0,B|350:204|289:242|240:230,1,160,8|8,0:0|0:0,0:0:0:0:
164,244,37778,1,0,0:0:0:0:
196,160,38131,6,0,P|234:150|274:146,1,80,8|0,0:0|0:0,0:0:0:0:
352,188,38837,2,0,P|361:242|360:284,1,80,8|0,0:0|0:0,0:0:0:0:
296,328,39543,2,0,B|238:339|177:301|128:313,1,160,8|8,0:0|0:0,0:0:0:0:
52,336,40602,5,0,0:0:0:0:
4,264,40955,2,0,P|2:222|8:196,2,60,12|8|8,0:0|0:0|0:0,0:0:0:0:
136,248,42013,5,0,0:0:0:0:
192,180,42366,2,0,P|193:138|188:112,2,60,8|8|8,0:0|0:0|0:0,0:0:0:0:
224,264,43249,1,0,0:0:0:0:
332,340,43778,6,0,P|407:358|468:311,1,160,12|8,0:0|0:0,0:0:0:0:
484,224,44837,1,0,0:0:0:0:
448,144,45190,2,0,P|444:84|448:56,2,80,12|8|8,0:0|0:0|0:0,0:0:0:0:
396,216,46249,1,0,0:0:0:0:
312,240,46602,6,0,B|248:252|212:216|144:228,1,160,8|0,0:0|0:0,0:0:0:0:
44,300,47837,2,0,P|96:327|156:316,1,120,8|0,0:0|0:0,0:0:0:0:
228,269,48719,1,0,0:0:0:0:
64,208,49425,6,0,P|48:84|52:44,1,160,8|0,0:0|0:0,0:0:0:0:
184,32,50661,2,0,B|220:16|272:44|302:30,1,120,8|0,0:0|0:0,0:0:0:0:
388,12,51543,1,0,0:0:0:0:
256,128,52249,6,0,P|236:216|244:300,1,160,12|0,0:0|0:0,0:0:0:0:
344,368,53484,2,0,P|360:312|356:248,1,120,8|0,0:0|0:0,0:0:0:0:
332,168,54366,1,0,0:0:0:0:
176,248,55072,6,0,B|113:282|49:266,1,120,12|8,0:0|0:0,0:0:0:0:
12,100,56308,2,0,P|68:47|144:60,1,160,12|8,0:0|0:0,0:0:0:0:
128,240,57719,2,0,P|178:353|296:296,1,280,12|8,0:0|0:0,0:0:0:0:
212,268,59308,6,0,B|220:228|220:228|192:144|192:144|200:112,1,160,2|0,0:0|0:0,0:0:0:0:
252,44,60366,1,0,0:0:0:0:
336,24,60719,2,0,P|392:24|424:36,1,80,2|0,0:0|0:0,0:0:0:0:
460,108,61425,2,0,P|421:117|381:115,1,80,2|0,0:0|0:0,0:0:0:0:
299,147,62131,6,0,P|224:122|145:123,1,160,2|0,0:0|0:0,0:0:0:0:
76,176,63190,1,0,0:0:0:0:
36,256,63543,2,0,P|36:312|44:348,1,80,2|0,0:0|0:0,0:0:0:0:
124,368,64249,2,0,P|124:312|116:276,1,80,2|0,0:0|0:0,0:0:0:0:
208,300,64955,6,0,P|256:344|356:328,1,160,6|0,0:0|0:0,0:0:0:0:
432,340,66013,1,0,0:0:0:0:
504,288,66366,2,0,L|488:116,1,160,2|0,0:0|0:0,0:0:0:0:
412,84,67425,1,0,0:0:0:0:
332,116,67778,6,0,P|286:179|312:259,1,160,6|2,0:0|0:0,0:0:0:0:
372,196,68837,1,0,0:0:0:0:
420,124,69190,2,0,P|400:60|248:80,1,240,6|0,0:0|0:0,0:0:0:0:
236,156,70602,5,8,0:0:0:0:
68,288,73425,5,4,0:0:0:0:
144,116,74837,6,0,L|212:100,1,60,8|8,0:0|0:0,0:0:0:0:
256,144,75366,2,0,L|316:128,1,60
372,156,75896,2,0,L|424:140,2,40,8|8|12,0:0|0:0|0:0,0:0:0:0:
72,276,77484,6,0,L|116:284,1,40,8|4,0:0|0:0,0:0:0:0:
416,328,78896,6,0,L|404:276,1,40,8|4,0:0|0:0,0:0:0:0:
280,248,79602,2,0,L|288:192,1,40,8|4,0:0|0:0,0:0:0:0:
312,36,80484,2,0,L|376:16,2,60,12|8|8,0:0|0:0|0:0,0:0:0:0:
268,48,81190,2,0,L|196:36,2,60,8|8|8,0:0|0:0|0:0,0:0:0:0:
300,80,81896,6,0,P|332:151|315:228,1,160,12|8,0:0|0:0,0:0:0:0:
240,276,82955,1,0,0:0:0:0:
152,292,83308,2,0,L|68:280,1,80,8|0,0:0|0:0,0:0:0:0:
68,192,84013,2,0,L|156:204,1,80,8|0,0:0|0:0,0:0:0:0:
228,240,84719,6,0,P|240:316|188:374,1,160,8|8,0:0|0:0,0:0:0:0:
100,376,85778,1,0,0:0:0:0:
28,328,86131,2,0,L|40:244,1,80,8|0,0:0|0:0,0:0:0:0:
120,212,86837,2,0,L|113:117,1,80,8|0,0:0|0:0,0:0:0:0:
88,48,87543,6,0,P|44:52|0:76,2,80,12|0|8,0:0|0:0|0:0,0:0:0:0:
176,60,88602,1,8,0:0:0:0:
256,96,88955,2,0,L|256:192,2,80,8|0|8,0:0|0:0|0:0,0:0:0:0:
336,56,90013,1,8,0:0:0:0:
424,48,90366,6,0,P|468:52|512:76,1,80,12|8,0:0|0:0,0:0:0:0:
444,132,91072,2,0,P|416:172|408:212,1,80,4|8,0:0|0:0,0:0:0:0:
496,208,91778,6,0,P|482:317|371:325,1,240,8|6,0:0|0:1,0:0:0:0:
284,304,93190,6,0,B|244:332|244:332|120:328,1,160,8|8,0:0|0:0,0:0:0:0:
52,296,94249,1,0,0:0:0:0:
88,216,94602,2,0,L|180:220,1,80,8|0,0:0|0:0,0:0:0:0:
256,216,95308,2,0,L|232:128,1,80,8|0,0:0|0:0,0:0:0:0:
204,56,96013,6,0,L|44:136,1,160,8|8,0:0|0:0,0:0:0:0:
12,200,97072,1,0,0:0:0:0:
24,288,97425,1,8,0:0:0:0:
92,344,97778,2,0,B|144:324|196:364|250:344,1,160,10|2,0:0|0:0,0:0:0:0:
280,260,98837,6,0,L|444:292,1,160,12|8,0:0|0:0,0:0:0:0:
508,236,99896,1,0,0:0:0:0:
468,156,100249,2,0,L|428:72,1,80,8|0,0:0|0:0,0:0:0:0:
360,36,100955,2,0,L|336:128,1,80,8|0,0:0|0:0,0:0:0:0:
272,168,101661,6,0,L|114:142,1,160,8|8,0:0|0:0,0:0:0:0:
28,132,102719,1,0,0:0:0:0:
68,212,103072,2,0,P|177:203|185:94,1,240,8|2,0:0|0:1,0:0:0:0:
240,24,104484,6,0,B|284:16|284:16|408:32,1,160,8|8,0:0|0:0,0:0:0:0:
464,92,105543,1,0,0:0:0:0:
476,180,105896,2,0,L|472:264,1,80,8|0,0:0|0:0,0:0:0:0:
384,268,106602,2,0,L|380:347,1,80,8|0,0:0|0:0,0:0:0:0:
292,344,107308,6,0,L|300:176,1,160,8|8,0:0|0:0,0:0:0:0:
260,104,108366,1,0,0:0:0:0:
184,152,108719,2,0,L|100:168,1,80,10|0,0:0|0:0,0:0:0:0:
24,128,109425,2,0,L|42:71,2,60,10|10|10,0:0|0:0|0:0,0:0:0:0:
20,172,110131,6,0,L|31:331,1,160,8|8,0:0|0:0,0:0:0:0:
116,352,111190,1,0,0:0:0:0:
200,324,111543,2,0,L|288:356,1,80,8|0,0:0|0:0,0:0:0:0:
360,328,112249,2,0,L|356:248,1,80,8|0,0:0|0:0,0:0:0:0:
280,204,112955,6,0,L|304:40,1,160,4|8,0:1|0:0,0:0:0:0:
388,24,114013,1,0,0:0:0:0:
464,68,114366,2,0,P|464:124|452:156,1,80,8|0,0:0|0:0,0:0:0:0:
372,172,115072,1,8,0:0:0:0:
292,136,115425,6,0,P|262:135|208:148,1,80,6|2,0:1|0:0,0:0:0:0:
272,312,116484,2,0,P|326:335|385:332,1,120,0|2,0:0|0:0,0:0:0:0:
484,244,117543,1,2,0:0:0:0:
428,176,117896,2,0,B|384:164|312:200|268:184,1,160,2|6,0:0|0:0,0:0:0:0:
104,124,119308,6,0,P|96:52|128:8,1,120,0|2,0:0|0:0,0:0:0:0:
220,100,120366,1,2,0:0:0:0:
268,172,120719,2,0,P|288:256|236:320,1,160,2|6,0:0|0:0,0:0:0:0:
72,292,122131,6,0,L|48:172,1,120,0|2,0:0|0:0,0:0:0:0:
24,44,123190,1,2,0:0:0:0:
108,68,123543,2,0,B|204:84|204:84|276:68,1,160,2|6,0:0|0:0,0:0:0:0:
416,160,124955,5,2,0:0:0:0:
308,236,125484,2,0,P|228:252|268:124,1,280,2|2,0:0|0:0,0:0:0:0:
256,192,126896,12,0,129543,0:0:0:0:
