osu file format v14

[General]
AudioFilename: Music.mp3
AudioLeadIn: 1500
PreviewTime: 72650
Countdown: 0
SampleSet: None
StackLeniency: 0.2
Mode: 0
LetterboxInBreaks: 0
WidescreenStoryboard: 0

[Editor]
Bookmarks: 6564,94764
DistanceSpacing: 0.5
BeatDivisor: 4
GridSize: 16
TimelineZoom: 1.600005

[Metadata]
Title:Chinese Restaurant
TitleUnicode:Chinese Restaurant
Artist:Memme
ArtistUnicode:Memme
Creator:rrtyui
Version:09
Source:Pump It Up Prime
Tags:parkmemme dance simulation arcade Electronic 09kami
BeatmapID:875324
BeatmapSetID:399404

[Difficulty]
HPDrainRate:6
CircleSize:3.9
OverallDifficulty:6.9
ApproachRate:9.6
SliderMultiplier:3.1
SliderTickRate:1

[Events]
//Background and Video events
0,0,"BG.jpg",0,0
//Break Periods
//Storyboard Layer 0 (Background)
//Storyboard Layer 1 (Fail)
//Storyboard Layer 2 (Pass)
//Storyboard Layer 3 (Foreground)
//Storyboard Sound Samples

[TimingPoints]
136,342.857142857143,4,2,0,60,1,0
821,-200,4,2,0,60,0,0
993,-100,4,2,0,60,0,0
1164,-200,4,2,0,60,0,0
1507,-200,4,2,0,60,0,0
3564,-100,4,2,0,60,0,0
4036,-100,4,2,0,5,0,0
4078,-100,4,2,0,60,0,0
4421,-200,4,2,0,60,0,0
5450,-100,4,2,0,60,0,0
5878,-100,4,2,0,5,0,0
5964,-66.6666666666667,4,2,0,60,0,0
6050,-66.6666666666667,4,2,0,5,0,0
6136,-50,4,2,0,60,0,0
6221,-50,4,2,0,5,0,0
6307,-100,4,2,0,60,0,0
6478,-200,4,2,0,60,0,0
6650,-200,4,2,0,60,0,0
8536,-100,4,2,0,60,0,0
8707,-200,4,2,0,60,0,0
9050,-100,4,2,0,60,0,0
9564,-200,4,2,0,60,0,0
11278,-50,4,2,0,60,0,1
11793,-50,4,2,0,60,0,1
11878,-50,4,2,0,5,0,1
11964,-50,4,2,0,60,0,1
12136,-200,4,2,0,60,0,1
12650,-100,4,2,0,60,0,0
14878,-200,4,2,0,60,0,0
15221,-100,4,2,0,60,0,0
16378,-100,4,2,0,5,0,0
16421,-100,4,2,0,60,0,0
16764,-200,4,2,0,60,0,0
17793,-100,4,2,0,60,0,0
19850,-50,4,2,0,60,0,0
20193,-100,4,2,0,60,0,0
22421,-66.6666666666667,4,2,0,60,0,0
22593,-100,4,2,0,60,0,0
25164,-100,4,2,0,60,0,0
25336,-50,4,2,0,60,0,0
25678,-100,4,2,0,60,0,0
27907,-50,4,2,0,60,0,0
28250,-100,4,2,0,60,0,0
30821,-50,4,2,0,60,0,0
31164,-100,4,2,0,60,0,0
34421,-66.6666666666667,4,2,0,60,0,0
36478,-50,4,2,0,60,0,0
36993,-100,4,2,0,60,0,0
38878,-66.6666666666667,4,2,0,60,0,0
39050,-50,4,2,0,60,0,0
39221,-200,4,2,0,60,0,0
45393,-133.333333333333,4,2,0,60,0,0
46593,-200,4,2,0,60,0,0
48136,-66.6666666666667,4,2,0,60,0,0
49336,-200,4,2,0,60,0,0
49678,-50,4,2,0,60,0,0
50193,-100,4,2,0,60,0,0
50878,-200,4,2,0,30,0,0
60478,-100,4,2,0,100,0,0
61164,-50,4,2,0,100,0,0
61507,-100,4,2,0,30,0,0
66307,-100,4,2,0,60,0,0
71450,-50,4,2,0,60,0,0
72221,-100,4,2,0,60,0,0
74364,-100,4,2,0,45,0,0
74536,-66.6666666666667,4,2,0,30,0,0
75564,-100,4,2,0,60,0,0
77107,-200,4,2,0,60,0,0
77278,-50,4,2,0,60,0,0
77878,-100,4,2,0,60,0,0
78136,-200,4,2,0,60,0,0
78478,-100,4,2,0,60,0,0
80021,-100,4,2,0,30,0,0
81050,-83.3333333333333,4,2,0,60,0,0
82593,-50,4,2,0,60,0,0
83107,-50,4,2,0,80,0,0
83793,-100,4,2,0,60,0,0
85336,-100,4,2,0,45,0,0
85507,-80,4,2,0,30,0,0
86193,-100,4,2,0,30,0,0
86364,-133.333333333333,4,2,0,60,0,0
86536,-100,4,2,0,60,0,0
88078,-200,4,2,0,60,0,0
88250,-50,4,2,0,60,0,0
88850,-100,4,2,0,60,0,0
89107,-200,4,2,0,60,0,0
89450,-100,4,2,0,60,0,0
90821,-100,4,2,0,45,0,0
90993,-80,4,2,0,30,0,0
92021,-100,4,2,0,60,0,0
93221,-200,4,2,0,60,0,0
93393,-100,4,2,0,60,0,0
94250,-66.6666666666667,4,2,0,60,0,0
94593,-200,4,2,0,60,0,0
94764,-100,4,2,0,60,0,0
98193,-200,4,2,0,60,0,0
99050,-50,4,2,0,60,0,1
99650,-50,4,2,0,5,0,1
99736,-50,4,2,0,60,0,1
99907,-200,4,2,0,60,0,1
100421,-100,4,2,0,60,0,0
101450,-200,4,2,0,60,0,0
101964,-100,4,2,0,60,0,0
102821,-200,4,2,0,60,0,0
105393,-200,4,2,0,30,0,0
108821,-200,4,2,0,10,0,0
109507,-200,4,2,0,5,0,0

[Colours]
Combo1 : 11,58,251
Combo2 : 60,21,94
Combo3 : 243,251,153
Combo4 : 169,225,235

[HitObjects]
104,80,821,6,0,L|80:86,3,19.375
117,86,993,6,0,L|213:99,1,77.5
288,128,1164,2,0,L|312:136,7,19.375
320,142,1507,2,0,L|234:182,1,77.5,4|2,0:0|0:0,0:0:0:0:
42,163,1764,2,0,L|88:175,1,38.75,0|2,0:0|0:0,0:0:0:0:
311,247,2021,2,0,L|219:272,1,77.5,4|2,0:0|0:0,0:0:0:0:
33,268,2278,2,0,L|80:272,1,38.75,0|2,0:0|0:0,0:0:0:0:
388,42,2536,2,0,L|294:51,1,77.5,4|2,0:0|0:0,0:0:0:0:
110,63,2793,2,0,L|158:59,1,38.75,0|2,0:0|0:0,0:0:0:0:
320,141,3050,6,0,L|242:135,1,77.5,4|2,0:0|0:0,0:0:0:0:
42,163,3307,2,0,L|84:152,1,38.75,0|2,0:0|0:0,0:0:0:0:
461,205,3564,6,0,P|440:229|391:257,1,77.5,4|0,0:0|0:0,0:0:0:0:
320,260,3736,2,0,P|282:268|244:268,2,77.5,4|0|4,0:0|0:0|0:0,0:0:0:0:
50,286,4078,2,0,B|17:296|-1:319|32:378|140:334|140:334|217:351|217:351,1,232.5,12|0,0:0|0:0,0:0:0:0:
357,366,4421,6,0,L|278:347,1,77.5
477,293,4764,1,0,0:0:0:0:
427,57,4936,1,0,0:0:0:0:
257,252,5107,1,0,0:0:0:0:
512,152,5278,1,0,0:0:0:0:
307,93,5450,6,0,L|74:104,1,232.5
152,187,5793,2,0,L|229:190,1,77.5
345,197,5964,6,0,L|229:191,1,116.250004434586
57,284,6136,6,0,L|211:275,1,155
477,293,6307,1,0,0:0:0:0:
120,311,6478,6,2,L|169:309,2,38.75
200,64,6821,1,0,0:0:0:0:
201,55,6907,1,0,0:0:0:0:
203,45,6993,2,0,L|127:56,1,77.5,2|0,0:0|0:0,0:0:0:0:
276,79,7250,1,0,0:0:0:0:
351,51,7336,2,0,L|428:41,1,77.5,8|0,0:0|0:0,0:0:0:0:
203,45,7678,2,0,L|127:56,1,77.5,2|0,0:0|0:0,0:0:0:0:
276,79,8021,1,8,0:0:0:0:
384,207,8193,2,0,B|442:213|442:213|454:240|396:269,1,116.25
186,302,8536,6,0,L|157:330,1,38.75
186,302,8621,2,0,L|221:319,1,38.75
186,302,8707,2,0,L|277:289,1,77.5
64,349,9050,2,0,B|32:273|32:273|47:214,1,116.25
46,244,9221,2,0,L|65:194,1,38.75
52,247,9307,2,0,L|71:197,1,38.75
58,250,9393,6,0,L|110:97,1,155
266,35,9650,1,0,0:0:0:0:
250,113,9736,6,0,P|215:95|189:68,1,77.5
332,96,9993,1,0,0:0:0:0:
381,165,10078,2,0,P|415:182|442:210,1,77.5
250,113,10421,6,0,P|215:95|189:68,1,77.5
332,96,10764,1,0,0:0:0:0:
389,339,10936,2,0,B|426:383|426:383|455:377|446:313,1,116.25
296,310,11278,6,0,L|450:335,1,155
375,217,11450,2,0,L|210:190,1,155
163,83,11621,2,0,L|315:108,1,155
472,116,11793,6,0,P|384:97|235:138,1,232.5
56,159,11964,2,0,P|145:162|285:96,1,232.5
14,166,12136,6,0,P|90:174|158:210,1,155,0|4,0:0|0:0,0:0:0:0:
294,327,12650,6,0,P|257:315|226:294,1,77.5
158,210,12821,2,0,P|90:174|14:166,1,155
390,153,13164,2,0,P|321:188|245:197,1,155
365,30,13507,1,0,0:0:0:0:
150,106,13678,2,0,P|265:46|395:32,1,232.5
455,72,14021,5,0,0:0:0:0:
461,80,14107,1,0,0:0:0:0:
464,88,14193,2,2,L|442:172,2,77.5
464,88,14536,2,0,L|413:202,1,116.25
403,179,14707,2,0,L|325:180,1,77.5
451,296,14878,6,2,L|489:294,2,38.75
112,316,15221,5,6,0:0:0:0:
158,83,15393,1,2,0:0:0:0:
219,81,15478,1,2,0:0:0:0:
270,115,15564,2,0,L|106:114,1,155,8|0,0:0|0:0,0:0:0:0:
302,353,15907,5,6,0:0:0:0:
217,73,16078,1,2,0:0:0:0:
156,71,16163,1,2,0:0:0:0:
105,105,16250,2,0,L|234:105,1,116.25,8|0,0:0|0:0,0:0:0:0:
218,115,16421,2,0,B|339:117|339:117|340:146|340:146|433:145|433:145|434:100,1,271.25,4|0,0:0|0:0,0:0:0:0:
435,88,16764,6,2,L|435:44,2,38.75
512,73,17107,2,2,L|512:34,2,38.75
467,256,17536,2,0,L|470:212,1,38.75
382,352,17793,6,0,L|68:321,1,310,4|0,0:0|0:0,0:0:0:0:
73,321,18307,2,0,L|81:282,1,38.75,2|0,0:0|0:0,0:0:0:0:
80,283,18478,2,0,L|87:243,1,38.75,2|0,0:0|0:0,0:0:0:0:
87,244,18650,2,0,L|94:204,1,38.75,2|0,0:0|0:0,0:0:0:0:
94,205,18821,2,0,L|101:165,1,38.75,2|0,0:0|0:0,0:0:0:0:
101,166,18993,2,0,L|108:126,1,38.75,2|0,0:0|0:0,0:0:0:0:
416,158,19164,6,0,L|102:127,1,310,4|0,0:0|0:0,0:0:0:0:
118,84,19678,2,0,L|40:78,1,77.5,2|0,0:0|0:0,0:0:0:0:
25,105,19850,6,0,L|334:74,1,310
480,117,20193,5,0,0:0:0:0:
476,120,20250,1,0,0:0:0:0:
471,123,20307,1,0,0:0:0:0:
464,127,20364,2,0,L|369:110,1,77.5
164,100,20536,2,0,L|324:85,1,155
29,217,20878,5,0,0:0:0:0:
43,252,20964,1,0,0:0:0:0:
74,275,21050,1,0,0:0:0:0:
137,230,21221,1,0,0:0:0:0:
168,254,21307,1,0,0:0:0:0:
207,261,21393,1,0,0:0:0:0:
228,186,21564,1,0,0:0:0:0:
266,186,21649,1,0,0:0:0:0:
301,170,21735,1,0,0:0:0:0:
324,139,21821,1,0,0:0:0:0:
333,102,21906,1,0,0:0:0:0:
326,64,21992,1,0,0:0:0:0:
306,31,22078,5,0,0:0:0:0:
251,30,22164,1,0,0:0:0:0:
203,39,22249,1,0,0:0:0:0:
149,51,22336,1,0,0:0:0:0:
77,118,22421,6,0,B|64:119|40:79|40:79|115:59,1,116.250004434586
149,51,22593,5,0,0:0:0:0:
201,34,22678,1,0,0:0:0:0:
248,21,22765,1,0,0:0:0:0:
303,17,22851,1,0,0:0:0:0:
326,48,22936,1,0,0:0:0:0:
336,85,23022,1,0,0:0:0:0:
331,123,23107,1,0,0:0:0:0:
299,318,23278,6,0,P|311:205|419:39,1,310,4|0,0:0|0:0,0:0:0:0:
415,42,23793,2,0,L|423:81,1,38.75,2|0,0:0|0:0,0:0:0:0:
422,80,23964,2,0,L|429:120,1,38.75,2|0,0:0|0:0,0:0:0:0:
429,119,24136,2,0,L|436:159,1,38.75,2|0,0:0|0:0,0:0:0:0:
436,158,24307,2,0,L|443:198,1,38.75,2|0,0:0|0:0,0:0:0:0:
443,197,24479,2,0,L|450:237,1,38.75,2|0,0:0|0:0,0:0:0:0:
211,54,24650,6,0,P|277:145|454:235,1,310,4|0,0:0|0:0,0:0:0:0:
230,259,25164,6,0,L|124:264,1,77.5,2|0,0:0|0:0,0:0:0:0:
52,265,25336,6,0,P|168:198|352:210,1,310
465,301,25678,1,0,0:0:0:0:
459,304,25736,1,0,0:0:0:0:
455,306,25793,1,0,0:0:0:0:
451,308,25850,6,0,L|304:293,1,116.25
335,296,26021,2,0,L|180:312,1,155
49,352,26364,1,0,0:0:0:0:
33,315,26449,1,0,0:0:0:0:
25,278,26535,1,0,0:0:0:0:
25,240,26621,1,0,0:0:0:0:
34,201,26706,1,0,0:0:0:0:
180,312,26878,5,0,0:0:0:0:
49,352,27050,1,0,0:0:0:0:
35,315,27135,1,0,0:0:0:0:
29,277,27221,1,0,0:0:0:0:
31,239,27307,1,0,0:0:0:0:
42,201,27392,1,0,0:0:0:0:
59,166,27478,1,0,0:0:0:0:
71,129,27564,1,0,0:0:0:0:
77,90,27650,1,0,0:0:0:0:
73,51,27736,2,0,L|152:21,1,77.5
191,40,27907,6,0,L|31:34,1,155
458,32,28078,2,0,L|298:26,1,155
223,37,28250,1,0,0:0:0:0:
227,47,28336,1,0,0:0:0:0:
232,59,28421,1,4,0:0:0:0:
250,138,28764,1,0,0:0:0:0:
250,138,28936,6,0,L|220:166,1,38.75,6|0,0:0|0:0,0:0:0:0:
221,164,29107,2,0,L|251:192,1,38.75,2|0,0:0|0:0,0:0:0:0:
249,190,29278,2,0,L|219:218,1,38.75,2|0,0:0|0:0,0:0:0:0:
220,216,29450,2,0,L|251:244,1,38.75,2|0,0:0|0:0,0:0:0:0:
248,241,29621,2,0,L|218:269,1,38.75,2|0,0:0|0:0,0:0:0:0:
219,267,29793,2,0,L|250:290,1,38.75,2|0,0:0|0:0,0:0:0:0:
250,290,29964,2,0,L|219:313,1,38.75,2|0,0:0|0:0,0:0:0:0:
23,314,30136,2,0,B|148:340|286:312|286:312|337:284,1,310,4|0,0:0|0:0,0:0:0:0:
447,210,30650,2,0,P|406:189|376:181,1,77.5,2|0,0:0|0:0,0:0:0:0:
282,180,30821,6,0,B|373:176|468:109|468:109|412:95|353:125,1,310
39,124,31164,5,0,0:0:0:0:
43,126,31221,1,0,0:0:0:0:
47,128,31278,1,0,0:0:0:0:
50,131,31336,2,0,P|119:158|135:158,1,77.5
470,110,31507,2,0,P|364:117|320:145,1,155
204,51,31850,5,0,0:0:0:0:
184,85,31936,1,0,0:0:0:0:
223,85,32021,1,0,0:0:0:0:
144,187,32193,5,0,0:0:0:0:
105,187,32278,1,0,0:0:0:0:
124,153,32364,1,0,0:0:0:0:
255,200,32536,5,0,0:0:0:0:
275,234,32622,1,0,0:0:0:0:
236,234,32707,1,0,0:0:0:0:
18,323,32878,5,0,0:0:0:0:
48,268,32964,1,0,0:0:0:0:
79,321,33050,1,0,0:0:0:0:
183,341,33221,5,0,0:0:0:0:
221,346,33307,1,0,0:0:0:0:
258,336,33393,1,0,0:0:0:0:
294,322,33478,1,0,0:0:0:0:
348,317,33564,1,0,0:0:0:0:
401,326,33650,1,0,0:0:0:0:
448,352,33736,5,0,0:0:0:0:
475,325,33821,1,0,0:0:0:0:
483,287,33907,1,0,0:0:0:0:
476,248,33993,1,0,0:0:0:0:
450,219,34078,1,0,0:0:0:0:
433,183,34164,1,0,0:0:0:0:
427,144,34250,1,0,0:0:0:0:
434,105,34336,1,0,0:0:0:0:
463,73,34421,6,0,L|334:70,1,116.250004434586,4|0,0:0|0:0,0:0:0:0:
38,38,34593,2,0,L|161:38,2,116.250004434586,2|0|4,0:0|0:0|0:0,0:0:0:0:
20,136,34936,2,0,L|144:135,1,116.250004434586,4|0,0:0|0:0,0:0:0:0:
463,73,35108,2,0,L|329:73,2,116.250004434586,2|0|4,0:0|0:0|0:0,0:0:0:0:
445,171,35450,2,0,L|302:172,1,116.250004434586,4|0,0:0|0:0,0:0:0:0:
20,136,35622,2,0,L|146:137,2,116.250004434586,2|0|4,0:0|0:0|0:0,0:0:0:0:
2,234,35964,2,0,L|121:234,1,116.250004434586,4|0,0:0|0:0,0:0:0:0:
445,171,36136,2,0,L|319:171,2,116.250004434586,2|0|4,0:0|0:0|0:0,0:0:0:0:
427,269,36478,2,0,L|254:268,1,155,2|0,0:0|0:0,0:0:0:0:
2,234,36650,2,0,L|175:233,2,155,2|0|2,0:0|0:0|0:0,0:0:0:0:
24,335,36993,5,4,0:0:0:0:
61,327,37078,1,0,0:0:0:0:
98,335,37164,1,0,0:0:0:0:
134,347,37250,1,0,0:0:0:0:
172,348,37336,1,0,0:0:0:0:
209,337,37421,1,0,0:0:0:0:
247,332,37507,1,0,0:0:0:0:
285,339,37593,1,0,0:0:0:0:
322,349,37678,1,0,0:0:0:0:
360,349,37764,1,0,0:0:0:0:
398,346,37850,6,0,L|303:320,1,77.5
427,269,38021,2,0,L|332:243,1,77.5
456,187,38193,2,0,L|361:161,1,77.5
443,87,38364,5,0,0:0:0:0:
420,79,38450,1,0,0:0:0:0:
420,56,38536,1,0,0:0:0:0:
443,49,38621,1,0,0:0:0:0:
456,68,38707,2,0,L|361:42,1,77.5,4|0,0:0|0:0,0:0:0:0:
322,96,38878,6,0,L|181:86,1,116.250004434586,4|0,0:0|0:0,0:0:0:0:
155,147,39050,6,0,L|-11:163,1,155,4|0,0:0|0:0,0:0:0:0:
42,149,39221,6,0,L|131:157,1,77.5,4|0,0:0|0:0,0:0:0:0:
62,252,39564,5,0,0:0:0:0:
221,225,39736,1,0,0:0:0:0:
491,283,39907,2,0,L|325:263,1,155,4|0,0:0|0:0,0:0:0:0:
59,341,40593,2,0,L|225:321,1,155,4|0,0:0|0:0,0:0:0:0:
465,361,41107,1,0,0:0:0:0:
465,361,41450,5,0,0:0:0:0:
477,220,41621,1,0,0:0:0:0:
487,86,41793,1,0,0:0:0:0:
199,121,41964,2,0,L|291:121,1,77.5,4|0,0:0|0:0,0:0:0:0:
343,104,42221,1,0,0:0:0:0:
409,86,42307,2,0,L|501:86,1,77.5
255,92,42650,2,0,L|84:90,1,155,4|0,0:0|0:0,0:0:0:0:
20,199,43336,2,0,L|174:200,1,155,4|0,0:0|0:0,0:0:0:0:
20,199,43850,6,0,L|146:216,1,116.25
173,220,44193,1,0,0:0:0:0:
210,226,44278,1,0,0:0:0:0:
248,233,44364,1,0,0:0:0:0:
286,240,44450,1,0,0:0:0:0:
323,248,44536,1,0,0:0:0:0:
360,256,44621,1,0,0:0:0:0:
398,263,44707,2,0,L|322:274,1,77.5
16,288,45050,2,0,L|108:302,1,77.5
436,350,45393,6,0,B|481:339|481:339|505:256|477:148,1,232.500008869171,4|0,0:0|0:0,0:0:0:0:
352,85,46078,2,0,B|308:69|308:69|242:126|207:232,1,232.500008869171,4|0,0:0|0:0,0:0:0:0:
352,85,46593,6,0,L|222:85,1,116.25,4|0,0:0|0:0,0:0:0:0:
228,78,46936,1,0,0:0:0:0:
166,23,47107,1,0,0:0:0:0:
142,99,47278,1,0,0:0:0:0:
86,38,47450,1,0,0:0:0:0:
86,38,47536,1,0,0:0:0:0:
38,70,47621,1,0,0:0:0:0:
25,119,47707,1,0,0:0:0:0:
24,169,47793,1,0,0:0:0:0:
38,216,47878,1,0,0:0:0:0:
67,257,47964,1,0,0:0:0:0:
424,336,48136,6,0,P|335:302|296:303,1,116.250004434586
100,290,48307,2,0,P|191:265|222:241,1,116.250004434586
352,209,48478,2,0,P|278:180|372:130,1,232.500008869171
177,120,48821,6,0,P|229:143|287:147,1,116.250004434586
492,69,48993,2,0,P|439:45|381:41,2,116.250004434586
287,92,49336,6,0,P|234:115|176:119,1,116.250004434586,4|0,0:0|0:0,0:0:0:0:
59,79,49678,6,0,P|50:56|81:87,1,155,8|0,0:0|0:0,0:0:0:0:
53,201,49850,2,0,P|54:176|69:217,1,155,8|0,0:0|0:0,0:0:0:0:
49,324,50021,2,0,P|60:302|57:345,1,155,8|0,0:0|0:0,0:0:0:0:
56,345,50193,6,0,P|181:323|378:349,1,310
445,115,50878,5,0,0:0:0:0:
374,66,51050,1,0,0:0:0:0:
445,115,51221,5,0,0:0:0:0:
301,102,51393,1,0,0:0:0:0:
445,115,51564,5,0,0:0:0:0:
269,176,51736,1,0,0:0:0:0:
374,66,51907,5,0,0:0:0:0:
298,250,52078,1,0,0:0:0:0:
374,66,52250,5,0,0:0:0:0:
269,176,52421,1,0,0:0:0:0:
374,66,52593,5,0,0:0:0:0:
301,102,52764,1,0,0:0:0:0:
445,115,52936,5,0,0:0:0:0:
133,103,53107,2,0,L|180:104,2,38.75
133,103,53450,5,0,0:0:0:0:
52,133,53622,1,0,0:0:0:0:
133,103,53793,5,0,0:0:0:0:
39,213,53965,1,0,0:0:0:0:
133,103,54136,5,0,0:0:0:0:
82,282,54308,1,0,0:0:0:0:
52,133,54479,5,0,0:0:0:0:
159,300,54650,1,0,0:0:0:0:
52,133,54822,5,0,0:0:0:0:
82,282,54993,1,0,0:0:0:0:
52,133,55165,5,0,0:0:0:0:
39,213,55336,1,0,0:0:0:0:
343,252,55507,2,0,L|296:248,1,38.75
213,169,55678,2,0,L|251:172,1,38.75
359,240,55850,2,0,L|312:236,1,38.75
196,148,56021,2,0,L|234:151,1,38.75
326,211,56193,2,0,L|279:207,1,38.75
179,124,56364,2,0,L|217:127,2,38.75
179,124,56707,5,0,0:0:0:0:
217,46,56879,1,0,0:0:0:0:
179,124,57050,5,0,0:0:0:0:
299,43,57222,1,0,0:0:0:0:
179,124,57393,5,0,0:0:0:0:
361,95,57565,1,0,0:0:0:0:
217,46,57736,5,0,0:0:0:0:
370,173,57907,1,0,0:0:0:0:
217,46,58079,5,0,0:0:0:0:
361,95,58250,1,0,0:0:0:0:
217,46,58422,5,0,0:0:0:0:
226,313,58593,2,0,L|225:269,2,38.75
226,313,58936,5,0,0:0:0:0:
139,322,59108,1,0,0:0:0:0:
226,313,59279,5,0,0:0:0:0:
93,254,59451,1,0,0:0:0:0:
226,313,59622,5,0,0:0:0:0:
104,174,59794,1,0,0:0:0:0:
139,322,59965,5,0,0:0:0:0:
166,125,60136,1,0,0:0:0:0:
139,322,60308,5,0,0:0:0:0:
104,174,60478,5,4,0:0:0:0:
475,227,60821,1,4,0:0:0:0:
432,329,61164,6,0,L|445:96,1,232.5
418,94,61336,2,0,L|405:327,1,232.5
375,323,61507,6,0,L|388:90,1,232.5
237,129,61850,6,0,P|239:92|266:129,1,103.333333333333
187,194,62021,2,0,P|185:231|158:194,1,103.333333333333
237,129,62193,6,0,P|248:93|265:136,1,103.333333333333
187,194,62364,2,0,P|175:229|158:186,1,103.333333333333
237,129,62536,6,0,P|257:97|262:143,1,103.333333333333
187,194,62707,2,0,P|166:225|161:179,1,103.333333333333
237,129,62878,6,0,P|264:104|257:149,1,103.333333333333
187,194,63049,2,0,P|159:218|166:173,1,103.333333333333
237,129,63221,6,0,P|270:112|251:154,1,103.333333333333
187,194,63392,2,0,P|153:210|172:168,1,103.333333333333
237,129,63564,6,0,P|273:121|244:157,1,103.333333333333
187,194,63735,2,0,P|150:201|179:165,1,103.333333333333
354,178,63907,2,0,L|450:177,1,77.5
333,260,64078,2,0,L|244:262,1,77.5
190,295,64250,6,0,P|163:327|205:326,1,103.333333333333
271,293,64421,2,0,P|297:260|255:261,1,103.333333333333
182,300,64593,6,0,P|165:337|205:326,1,103.333333333333
279,288,64764,2,0,P|295:250|255:261,1,103.333333333333
176,307,64936,6,0,P|169:348|205:326,1,103.333333333333
285,281,65107,2,0,P|291:239|255:261,1,103.333333333333
172,315,65278,6,0,P|176:356|205:326,1,103.333333333333
289,273,65449,2,0,P|284:231|255:261,1,103.333333333333
170,324,65621,6,0,P|184:362|205:326,1,103.333333333333
291,264,65792,2,0,P|276:225|255:261,1,103.333333333333
171,333,65964,6,0,P|195:366|205:326,1,103.333333333333
290,255,66135,2,0,P|265:221|255:261,1,103.333333333333
338,358,66307,2,0,L|407:206,1,155
434,146,66564,1,0,0:0:0:0:
402,216,66650,2,0,L|333:64,1,155
305,7,66907,1,0,0:0:0:0:
337,74,66993,2,0,L|170:85,1,155
256,192,67336,12,0,71107,0:0:0:0:
300,148,71450,6,0,B|386:220|386:220|329:290|329:290|240:281|240:281|235:347,1,310,6|0,0:0|0:0,0:0:0:0:
300,148,71707,6,0,B|347:249|347:249|266:288|266:288|189:243|189:243|156:300,1,310,6|0,0:0|0:0,0:0:0:0:
300,148,71964,6,0,B|300:260|300:260|209:261|209:261|159:187|159:187|105:226,1,310,6|0,0:0|0:0,0:0:0:0:
85,76,72221,6,0,L|39:87,1,38.75
87,94,72307,2,0,L|41:105,1,38.75
88,110,72393,2,0,L|42:121,1,38.75
91,125,72478,2,0,B|50:135|50:135|49:269,1,155
421,259,72821,6,0,B|462:249|462:249|463:115,1,155
443,195,73078,1,0,0:0:0:0:
462,136,73164,2,0,B|421:146|421:146|421:259,1,155
299,147,73507,5,0,0:0:0:0:
260,201,73593,1,0,0:0:0:0:
257,270,73679,2,0,B|258:158|258:158|299:148,1,155
298,76,74021,5,0,0:0:0:0:
299,112,74107,1,0,0:0:0:0:
299,147,74193,2,0,B|299:193|299:193|346:193,1,77.5
299,112,74364,2,0,B|299:66|299:66|252:66,1,77.5
39,75,74536,2,0,B|74:75|74:75|71:123|71:123|119:123,1,116.250004434586
378,129,74707,2,0,B|410:129|410:129|410:225,1,116.250004434586
226,189,74878,2,0,B|226:210|226:210|178:210|178:210|178:162,1,116.250004434586
54,195,75050,2,0,L|54:311,1,116.250004434586
249,341,75221,2,0,B|249:304|249:304|297:304|297:304|297:336,1,116.250004434586
129,297,75393,2,0,B|129:329|129:329|177:329|177:329|177:293,1,116.250004434586
480,336,75564,6,0,B|368:336|368:336|368:288,1,155
426,311,75821,1,0,0:0:0:0:
368,293,75907,2,0,B|480:293|480:293|480:336,1,155
370,106,76250,5,0,0:0:0:0:
431,105,76336,1,0,0:0:0:0:
482,149,76422,2,0,B|482:106|482:106|370:106,1,155
284,106,76764,5,0,0:0:0:0:
326,106,76850,1,0,0:0:0:0:
370,106,76936,2,0,B|368:48|368:48|336:48,1,77.5
90,56,77107,6,2,P|126:40|146:43,1,58.125
163,47,77278,6,0,P|133:147|129:214,1,155
87,155,77450,2,0,P|137:247|181:297,1,155
111,285,77621,2,0,P|211:315|278:319,2,155
111,324,77878,6,0,P|184:299|261:289,1,155
418,325,78136,6,0,P|451:325|435:300,1,77.5
418,153,78478,5,0,0:0:0:0:
361,176,78564,1,0,0:0:0:0:
344,233,78650,2,0,B|317:214|317:214|336:170|441:148,1,155
386,58,78993,5,0,0:0:0:0:
321,51,79079,1,0,0:0:0:0:
286,100,79165,2,0,B|269:71|269:71|305:39|409:63,1,155
484,50,79507,5,0,0:0:0:0:
436,65,79593,1,0,0:0:0:0:
386,58,79678,2,0,B|305:39|269:71|269:71|286:100,1,155
159,58,80021,5,0,0:0:0:0:
105,69,80107,1,0,0:0:0:0:
48,77,80193,1,0,0:0:0:0:
29,57,80364,1,0,0:0:0:0:
67,63,80449,1,0,0:0:0:0:
105,69,80535,1,0,0:0:0:0:
144,76,80621,1,0,0:0:0:0:
182,82,80706,1,0,0:0:0:0:
29,57,80878,1,0,0:0:0:0:
110,321,81050,6,0,B|56:199|56:199|110:171,1,185.999994323731
104,247,81307,1,0,0:0:0:0:
102,174,81393,2,0,B|156:296|156:296|109:320,1,185.999994323731
317,281,81736,5,0,0:0:0:0:
292,205,81821,1,0,0:0:0:0:
228,166,81907,2,0,B|342:234|342:234|314:288,1,185.999994323731
224,278,82250,1,0,0:0:0:0:
271,280,82336,1,0,0:0:0:0:
317,281,82421,6,0,B|328:316|328:316|277:337,1,92.9999971618653
438,362,82593,6,0,B|473:331|473:331|455:206,1,155
395,164,82764,2,0,B|397:117|397:117|296:41,1,155
227,65,82936,2,0,B|196:29|196:29|70:48,1,155
16,149,83107,6,0,B|47:114|47:114|172:132,1,155
106,163,83278,2,0,B|145:137|145:137|261:186,1,155
189,200,83450,2,0,B|233:185|233:185|332:263,1,155
264,258,83621,2,0,B|310:255|310:255|386:356,1,155
191,343,83793,6,0,B|71:343|71:343|72:302,1,155
131,323,84050,1,0,0:0:0:0:
71,308,84136,2,0,B|191:308|191:308|190:349,1,155
332,168,84478,5,0,0:0:0:0:
388,132,84564,1,0,0:0:0:0:
452,133,84650,2,0,B|332:133|332:133|333:174,1,155
421,169,84993,1,0,0:0:0:0:
374,167,85078,1,0,0:0:0:0:
332,168,85164,6,0,B|280:166|280:166|281:131,1,77.5
481,83,85336,6,0,B|480:132|480:132|440:133,1,77.5
399,88,85507,1,0,0:0:0:0:
348,60,85593,1,0,0:0:0:0:
270,46,85678,1,0,0:0:0:0:
210,47,85764,1,0,0:0:0:0:
136,66,85850,1,0,0:0:0:0:
86,95,85936,1,0,0:0:0:0:
36,153,86021,6,0,B|18:184|18:184|51:261,1,96.875
122,230,86193,6,0,B|119:266|119:266|151:293,1,77.5
221,270,86364,6,0,B|234:304|234:304|263:309,1,58.1250022172929
493,307,86536,2,0,P|400:278|327:294,1,155
418,299,86793,1,0,0:0:0:0:
344,286,86878,2,0,P|414:315|491:310,1,155
174,146,87221,1,0,0:0:0:0:
249,131,87307,1,0,0:0:0:0:
322,122,87392,2,0,P|251:151|174:146,1,155
420,160,87736,6,0,P|472:139|513:138,1,77.5
161,147,87907,2,0,P|122:154|88:171,1,77.5
74,104,88078,6,2,P|103:119|129:120,1,58.125
132,111,88250,6,0,B|152:78|152:78|160:211,1,155
177,262,88421,2,0,B|167:224|167:224|267:312,1,155
320,322,88593,2,0,B|287:301|287:301|420:293,2,155
483,301,88850,6,0,B|516:321|516:321|383:329,1,155
59,337,89107,2,0,L|148:335,1,77.5
347,156,89450,5,0,0:0:0:0:
417,166,89536,1,0,0:0:0:0:
467,209,89621,2,0,B|386:134|386:134|341:161,1,155
262,105,89964,5,0,0:0:0:0:
326,74,90050,1,0,0:0:0:0:
392,91,90135,2,0,B|284:66|284:66|258:112,1,155
162,110,90478,5,0,0:0:0:0:
213,108,90564,1,0,0:0:0:0:
262,105,90650,2,0,B|261:54|261:54|234:38,1,77.5
110,110,90821,2,0,B|111:161|111:161|141:175,1,77.5
208,185,90993,6,0,B|256:185|256:185|256:244,1,96.875
328,288,91164,2,0,B|330:192,1,96.875
463,319,91336,2,0,B|463:270|463:270|415:270,1,96.875
81,330,91507,2,0,B|129:330|129:330|129:282,1,96.875
283,366,91678,2,0,B|235:366|235:366|235:318,1,96.875
477,190,91850,2,0,B|478:127|478:127|443:127,1,96.875
170,57,92021,6,0,P|254:73|337:57,1,155
247,59,92278,1,0,0:0:0:0:
322,63,92364,2,0,P|246:47|170:57,1,155
157,186,92707,5,0,0:0:0:0:
98,236,92793,1,0,0:0:0:0:
30,270,92879,2,0,P|85:216|156:185,1,155
137,335,93221,2,0,L|193:319,1,58.125
219,329,93393,5,0,0:0:0:0:
272,322,93478,1,0,0:0:0:0:
325,332,93564,1,0,0:0:0:0:
379,333,93650,1,0,0:0:0:0:
438,314,93736,5,0,0:0:0:0:
474,264,93821,1,0,0:0:0:0:
474,201,93907,1,0,0:0:0:0:
446,145,93993,1,0,0:0:0:0:
406,98,94078,2,0,P|398:57|434:33,1,77.5
495,77,94250,6,0,L|365:69,1,116.250004434586
267,76,94421,2,0,L|137:68,1,116.250004434586
78,156,94593,6,0,L|116:170,1,38.75
196,230,94764,6,0,P|136:167|153:102,1,155
160,288,95107,2,0,P|146:201|198:158,1,155
96,316,95450,2,0,P|134:238|201:231,2,155
463,342,95964,2,0,L|227:302,1,232.5
96,316,96307,6,0,L|43:328,1,38.75
96,316,96393,2,0,L|142:339,1,38.75
96,316,96478,2,0,L|114:152,1,155
52,61,96821,2,0,B|88:35|135:77|174:64,1,116.25
168,58,96993,2,0,L|209:58,1,38.75
175,50,97078,2,0,L|216:50,1,38.75
178,44,97164,2,0,B|211:22|289:60|361:53,1,155
471,166,97507,2,0,B|438:144|360:182|288:175,1,155
34,224,97850,2,0,B|75:230|153:192|186:214,1,155
385,334,98193,6,0,B|343:340|265:302|232:324,1,155
232,323,98707,2,0,B|265:345|319:309|348:317,1,116.25
409,190,99050,6,0,B|354:323|354:323|343:315,1,155
264,228,99221,6,0,B|272:234|272:234|327:101,1,155
250,17,99393,6,0,B|195:150|195:150|184:142,1,155
17,121,99564,2,0,P|95:88|246:96,1,232.5
402,167,99736,2,0,P|292:130|208:52,1,232.5
435,193,99907,2,0,P|320:203|276:221,1,155
123,299,100421,6,0,P|169:296|211:273,1,77.5
283,217,100593,2,0,P|357:194|435:193,1,155
55,125,100936,2,0,P|117:171|189:197,1,155
451,106,101278,1,0,0:0:0:0:
298,109,101450,6,0,P|374:96|450:105,1,155
446,319,101964,6,0,P|370:329|294:316,1,155
168,249,102307,1,0,0:0:0:0:
19,346,102478,5,0,0:0:0:0:
58,299,102564,1,0,0:0:0:0:
109,265,102650,1,0,0:0:0:0:
168,249,102736,1,0,0:0:0:0:
226,254,102821,6,0,L|226:183,1,58.125
243,159,102993,5,0,0:0:0:0:
133,62,103164,1,0,0:0:0:0:
137,67,103250,1,0,0:0:0:0:
137,67,103336,1,0,0:0:0:0:
413,168,103507,1,0,0:0:0:0:
243,159,103678,5,0,0:0:0:0:
367,69,103850,1,0,0:0:0:0:
288,67,103935,1,0,0:0:0:0:
325,44,104021,1,0,0:0:0:0:
198,188,104193,2,0,L|198:317,1,116.25
286,297,104536,5,0,0:0:0:0:
349,297,104622,1,0,0:0:0:0:
315,312,104708,1,0,0:0:0:0:
110,224,104878,5,0,0:0:0:0:
31,226,104963,1,0,0:0:0:0:
68,249,105049,1,0,0:0:0:0:
61,332,105393,1,0,0:0:0:0:
409,347,105564,1,0,0:0:0:0:
479,214,105907,1,0,0:0:0:0:
479,214,105993,1,0,0:0:0:0:
479,214,106078,1,0,0:0:0:0:
479,214,106164,1,0,0:0:0:0:
479,214,106250,1,0,0:0:0:0:
479,214,106336,1,0,0:0:0:0:
256,192,106421,12,0,107535,0:0:0:0:
256,192,107621,12,0,109850,0:0:0:0:
