osu file format v14

[General]
AudioFilename: audio.mp3
AudioLeadIn: 0
PreviewTime: 71377
Countdown: 0
SampleSet: Normal
StackLeniency: 0
Mode: 0
LetterboxInBreaks: 0
WidescreenStoryboard: 1

[Editor]
Bookmarks: 1477,6963,17763,23248,28906,34391,39534,50848,60448,71420,72791,82391,83763,91991,94734,106391
DistanceSpacing: 0.8
BeatDivisor: 16
GridSize: 8
TimelineZoom: 3.099997

[Metadata]
Title:Chinese Restaurant
TitleUnicode:Chinese Restaurant
Artist:Memme
ArtistUnicode:Memme
Creator:Marioo83
Version:Insane
Source:Pump It Up Prime
Tags:ParkMemme Electronic China Dance Oriental Arcade PIUP Instrumental Orange_ Delta_ bluirre
BeatmapID:3451610
BeatmapSetID:1631530

[Difficulty]
HPDrainRate:4.6
CircleSize:3
OverallDifficulty:8
ApproachRate:9.2
SliderMultiplier:1.4
SliderTickRate:1

[Events]
//Background and Video events
0,0,"cute wallpaper.jpg",0,0
//Break Periods
2,51048,54907
2,56534,59878
//Storyboard Layer 0 (Background)
//Storyboard Layer 1 (Fail)
//Storyboard Layer 2 (Pass)
//Storyboard Layer 3 (Foreground)
//Storyboard Layer 4 (Overlay)
//Storyboard Sound Samples

[TimingPoints]
106,342.857142857143,4,1,1,60,1,0
448,-66.6666666666667,4,1,1,60,0,0
1413,-66.6666666666667,4,1,1,5,0,0
1456,-66.6666666666667,4,1,1,80,0,0
4027,-100,4,1,1,80,0,0
5913,-83.3333333333333,4,1,1,80,0,0
6256,-60.6060606060606,4,1,1,80,0,0
6427,-60.6060606060606,4,1,2,80,0,0
6641,-60.6060606060606,4,1,1,80,0,0
6770,-60.6060606060606,4,1,1,80,0,0
6941,-80,4,1,1,70,0,0
13113,-71.4285714285714,4,1,1,70,0,0
13456,-80,4,1,1,70,0,0
13970,-66.6666666666667,4,1,1,70,0,0
14056,-66.6666666666667,4,1,1,5,0,0
14098,-66.6666666666667,4,1,1,70,0,0
14227,-66.6666666666667,4,1,1,5,0,0
14269,-66.6666666666667,4,1,1,70,0,0
14398,-66.6666666666667,4,1,1,5,0,0
14440,-66.6666666666667,4,1,1,70,0,0
14998,-57.1428571428571,4,1,1,70,0,0
15127,-57.1428571428571,4,1,1,5,0,0
15170,-100,4,1,1,70,0,0
16884,-80,4,1,1,70,0,0
17227,-66.6666666666667,4,1,1,70,0,0
17398,-80,4,1,1,60,0,0
17741,-100,4,1,1,60,0,0
20656,-66.6666666666667,4,1,1,80,0,0
20827,-80,4,1,1,80,0,0
21684,-66.6666666666667,4,1,1,80,0,0
22113,-66.6666666666667,4,1,1,5,0,0
22156,-100,4,1,1,80,0,0
22713,-66.6666666666667,4,1,1,80,0,0
23227,-100,4,1,1,60,0,0
25113,-80,4,1,1,60,0,0
26141,-66.6666666666667,4,1,1,80,0,0
27341,-80,4,1,1,70,0,0
28198,-80,4,1,2,70,0,0
28370,-133.333333333333,4,1,2,70,0,0
28413,-133.333333333333,4,1,1,70,0,0
28798,-133.333333333333,4,1,1,5,0,0
28841,-76.9230769230769,4,1,1,70,0,0
31627,-76.9230769230769,4,1,1,80,0,0
34370,-66.6666666666667,4,1,1,80,0,0
36941,-100,4,1,1,80,0,0
38313,-83.3333333333333,4,1,1,80,0,0
39170,-133.333333333333,4,1,2,80,0,0
39213,-133.333333333333,4,1,1,80,0,0
39427,-133.333333333333,4,1,1,5,0,0
39470,-100,4,1,1,60,0,0
40541,-100,4,1,3,60,0,0
40584,-100,4,1,1,60,0,0
40841,-100,4,1,1,5,0,0
40884,-100,4,1,1,60,0,0
41056,-111.111111111111,4,1,1,60,0,0
41570,-90.9090909090909,4,1,1,60,0,0
41913,-90.9090909090909,4,1,3,60,0,0
41956,-90.9090909090909,4,1,1,60,0,0
43284,-90.9090909090909,4,1,3,60,0,0
43327,-90.9090909090909,4,1,1,60,0,0
43584,-90.9090909090909,4,1,1,5,0,0
43627,-90.9090909090909,4,1,1,60,0,0
44141,-90.9090909090909,4,1,1,70,0,0
44656,-90.9090909090909,4,1,3,70,0,0
44699,-90.9090909090909,4,1,1,70,0,0
45341,-90.9090909090909,4,1,1,60,0,0
46027,-90.9090909090909,4,1,3,60,0,0
46070,-90.9090909090909,4,1,1,60,0,0
46327,-90.9090909090909,4,1,1,5,0,0
46370,-90.9090909090909,4,1,1,60,0,0
46970,-90.9090909090909,4,1,1,5,0,0
47013,-90.9090909090909,4,1,1,60,0,0
47141,-90.9090909090909,4,1,1,5,0,0
47184,-90.9090909090909,4,1,1,60,0,0
47313,-90.9090909090909,4,1,1,5,0,0
47356,-90.9090909090909,4,1,1,60,0,0
47398,-90.9090909090909,4,1,3,60,0,0
47441,-90.9090909090909,4,1,1,60,0,0
47913,-71.4285714285714,4,1,1,60,0,0
48041,-71.4285714285714,4,1,1,5,0,0
48084,-90.9090909090909,4,1,1,60,0,0
48770,-90.9090909090909,4,1,3,60,0,0
48813,-90.9090909090909,4,1,1,60,0,0
50313,-90.9090909090909,4,1,1,60,0,0
50484,-90.9090909090909,4,1,2,60,0,0
50827,-90.9090909090909,4,1,3,60,0,0
51170,-90.9090909090909,4,1,1,60,0,0
55456,-90.9090909090909,4,1,1,80,0,0
55498,-90.9090909090909,4,1,1,5,0,0
55541,-66.6666666666667,4,1,1,80,0,0
55584,-66.6666666666667,4,1,1,5,0,0
55627,-50,4,1,3,80,0,0
55670,-50,4,1,1,80,0,0
55713,-50,4,1,1,80,0,0
55756,-66.6666666666667,4,1,1,80,0,0
55798,-66.6666666666667,4,1,3,80,0,0
55841,-66.6666666666667,4,1,3,10,0,0
55884,-66.6666666666667,4,1,3,80,0,0
55927,-66.6666666666667,4,1,1,5,0,0
55970,-50,4,1,1,80,0,0
56313,-71.4285714285714,4,1,3,80,0,0
56356,-71.4285714285714,4,1,1,80,0,0
60427,-66.6666666666667,4,1,1,80,0,0
61713,-66.6666666666667,4,1,1,5,0,0
61756,-66.6666666666667,4,1,1,70,0,0
66598,-60.6060606060606,4,1,1,80,0,0
67284,-55.5555555555556,4,1,2,80,0,0
67327,-55.5555555555556,4,1,1,80,0,0
70027,-83.3333333333333,4,1,1,60,0,0
70370,-71.4285714285714,4,1,1,70,0,0
70713,-62.5,4,1,1,80,0,0
71056,-55.5555555555556,4,1,1,90,0,0
71398,-50,4,1,1,80,0,0
71570,-50,4,1,1,5,0,0
71613,-50,4,1,1,80,0,0
71827,-50,4,1,1,5,0,0
71870,-50,4,1,1,80,0,0
71998,-50,4,1,1,5,0,0
72084,-50,4,1,1,70,0,0
72427,-80,4,1,2,90,0,0
72684,-80,4,1,2,5,0,0
72727,-57.1428571428571,4,1,2,100,0,0
72770,-57.1428571428571,4,1,3,100,0,0
72791,-57.1428571428571,4,1,3,100,0,1
72984,-44.4444444444445,4,1,3,100,0,1
73284,-50,4,1,3,100,0,1
73627,-44.4444444444445,4,1,3,100,0,1
74313,-57.1428571428571,4,1,3,100,0,1
75856,-44.4444444444445,4,1,3,100,0,1
76027,-50,4,1,3,100,0,1
76370,-44.4444444444445,4,1,3,100,0,1
77056,-44.4444444444445,4,1,1,100,0,1
77227,-100,4,1,4,100,0,1
77270,-100,4,1,1,5,0,1
77313,-100,4,1,1,100,0,1
77356,-100,4,1,1,5,0,1
77398,-100,4,1,1,100,0,1
77441,-100,4,1,1,5,0,1
77484,-100,4,1,1,100,0,1
77527,-100,4,1,1,5,0,1
77570,-44.4444444444445,4,1,2,100,0,1
77741,-44.4444444444445,4,1,2,5,0,1
77784,-42.5531914893617,4,1,2,100,0,1
77827,-42.5531914893617,4,1,1,100,0,1
77998,-42.5531914893617,4,1,1,5,0,1
78041,-40,4,1,1,100,0,1
78084,-40,4,1,4,100,0,1
78213,-40,4,1,4,5,0,1
78256,-55.5555555555556,4,1,3,100,0,1
78598,-40,4,1,3,100,0,1
78770,-55.5555555555556,4,1,3,100,0,1
79113,-40,4,1,3,100,0,1
79284,-55.5555555555556,4,1,3,100,0,1
79798,-55.5555555555556,4,1,3,100,0,1
80141,-52.6315789473684,4,1,3,100,0,1
80270,-52.6315789473684,4,1,3,5,0,1
80313,-50,4,1,3,100,0,1
80656,-55.5555555555556,4,1,3,100,0,1
80784,-55.5555555555556,4,1,3,5,0,1
80827,-55.5555555555556,4,1,3,100,0,1
80999,-55.5555555555556,4,1,3,100,0,1
81342,-43.4782608695652,4,1,3,100,0,1
82563,-50,4,1,3,80,0,0
83056,-50,4,1,3,90,0,0
83398,-50,4,1,4,90,0,0
83441,-50,4,1,3,90,0,0
83742,-57.1428571428571,4,1,3,100,0,0
83763,-57.1428571428571,4,1,3,100,0,1
84085,-43.4782608695652,4,1,3,100,0,1
85456,-50,4,1,3,100,0,1
85627,-55.5555555555556,4,1,3,100,0,1
85799,-62.5,4,1,3,100,0,1
85970,-66.6666666666667,4,1,3,100,0,1
86485,-55.5555555555556,4,1,3,100,0,1
86827,-44.4444444444445,4,1,3,100,0,1
86999,-55.5555555555556,4,1,3,100,0,1
87342,-44.4444444444445,4,1,3,100,0,1
87514,-55.5555555555556,4,1,3,100,0,1
87856,-41.6666666666667,4,1,3,100,0,1
88027,-40,4,1,1,100,0,1
88198,-100,4,1,4,100,0,1
88241,-100,4,1,1,5,0,1
88284,-100,4,1,1,100,0,1
88327,-100,4,1,1,5,0,1
88369,-100,4,1,1,100,0,1
88413,-100,4,1,1,5,0,1
88455,-100,4,1,1,100,0,1
88498,-100,4,1,1,5,0,1
88541,-42.5531914893617,4,1,2,100,0,1
88713,-42.5531914893617,4,1,2,5,0,1
88756,-42.5531914893617,4,1,2,100,0,1
88798,-42.5531914893617,4,1,1,100,0,1
88970,-42.5531914893617,4,1,1,5,0,1
89013,-40,4,1,1,100,0,1
89055,-40,4,1,4,100,0,1
89184,-40,4,1,4,5,0,1
89227,-55.5555555555556,4,1,3,100,0,1
89570,-43.4782608695652,4,1,3,100,0,1
89742,-55.5555555555556,4,1,3,100,0,1
90085,-43.4782608695652,4,1,3,100,0,1
90256,-55.5555555555556,4,1,3,100,0,1
90599,-45.4545454545455,4,1,3,100,0,1
90942,-55.5555555555556,4,1,3,100,0,1
91970,-55.5555555555556,4,1,4,100,0,1
92013,-55.5555555555556,4,1,3,100,0,1
92313,-40,4,1,3,100,0,1
92485,-50,4,1,3,100,0,1
92827,-40,4,1,3,100,0,1
93127,-40,4,1,3,5,0,1
93170,-66.6666666666667,4,1,3,100,0,1
94198,-66.6666666666667,4,1,2,100,0,1
94391,-76.9230769230769,4,1,2,100,0,0
94412,-76.9230769230769,4,1,1,100,0,0
94541,-76.9230769230769,4,1,1,70,0,0
101827,-76.9230769230769,4,1,1,5,0,0
101870,-76.9230769230769,4,1,1,70,0,0
101998,-76.9230769230769,4,1,1,5,0,0
102041,-76.9230769230769,4,1,1,70,0,0
102170,-76.9230769230769,4,1,1,5,0,0
102256,-66.6666666666667,4,1,1,70,0,0
102770,-50,4,1,1,70,0,0
102898,-50,4,1,1,5,0,0
102941,-50,4,1,1,80,0,0
104141,-76.9230769230769,4,1,1,80,0,0
104656,-66.6666666666667,4,1,1,80,0,0
105170,-66.6666666666667,4,1,1,80,0,0
105513,-100,4,1,1,70,0,0
106370,-100,4,1,3,90,0,0
107398,-100,4,1,3,5,0,0
107506,-100,4,1,1,50,0,0
107763,-100,4,1,1,100,0,0
107784,-100,4,1,1,99,0,0
107806,-100,4,1,1,98,0,0
107827,-100,4,1,1,97,0,0
107848,-100,4,1,1,96,0,0
107870,-100,4,1,1,95,0,0
107891,-100,4,1,1,94,0,0
107913,-100,4,1,1,93,0,0
107934,-100,4,1,1,92,0,0
107956,-100,4,1,1,91,0,0
107977,-100,4,1,1,90,0,0
107998,-100,4,1,1,89,0,0
108020,-100,4,1,1,88,0,0
108041,-100,4,1,1,87,0,0
108063,-100,4,1,1,86,0,0
108084,-100,4,1,1,85,0,0
108106,-100,4,1,1,84,0,0
108127,-100,4,1,1,83,0,0
108148,-100,4,1,1,82,0,0
108170,-100,4,1,1,81,0,0
108191,-100,4,1,1,80,0,0
108213,-100,4,1,1,79,0,0
108234,-100,4,1,1,78,0,0
108256,-100,4,1,1,77,0,0
108277,-100,4,1,1,76,0,0
108298,-100,4,1,1,75,0,0
108320,-100,4,1,1,74,0,0
108341,-100,4,1,1,73,0,0
108363,-100,4,1,1,72,0,0
108384,-100,4,1,1,71,0,0
108406,-100,4,1,1,70,0,0
108427,-100,4,1,1,69,0,0
108448,-100,4,1,1,68,0,0
108470,-100,4,1,1,67,0,0
108491,-100,4,1,1,66,0,0
108513,-100,4,1,1,65,0,0
108534,-100,4,1,1,64,0,0
108556,-100,4,1,1,63,0,0
108577,-100,4,1,1,62,0,0
108598,-100,4,1,1,61,0,0
108620,-100,4,1,1,60,0,0
108641,-100,4,1,1,59,0,0
108663,-100,4,1,1,58,0,0
108684,-100,4,1,1,57,0,0
108706,-100,4,1,1,56,0,0
108727,-100,4,1,1,55,0,0
108748,-100,4,1,1,54,0,0
108770,-100,4,1,1,53,0,0
108791,-100,4,1,1,52,0,0
108813,-100,4,1,1,51,0,0
108834,-100,4,1,1,50,0,0
108856,-100,4,1,1,49,0,0
108877,-100,4,1,1,48,0,0
108898,-100,4,1,1,47,0,0
108920,-100,4,1,1,46,0,0
108941,-100,4,1,1,45,0,0
108963,-100,4,1,1,44,0,0
108984,-100,4,1,1,43,0,0
109006,-100,4,1,1,42,0,0
109027,-100,4,1,1,41,0,0
109048,-100,4,1,1,40,0,0
109070,-100,4,1,1,39,0,0
109091,-100,4,1,1,38,0,0
109113,-100,4,1,1,37,0,0
109134,-100,4,1,1,36,0,0
109156,-100,4,1,1,35,0,0
109177,-100,4,1,1,34,0,0
109198,-100,4,1,1,33,0,0
109220,-100,4,1,1,32,0,0
109241,-100,4,1,1,31,0,0
109263,-100,4,1,1,30,0,0
109284,-100,4,1,1,29,0,0
109306,-100,4,1,1,28,0,0
109327,-100,4,1,1,27,0,0
109348,-100,4,1,1,26,0,0
109370,-100,4,1,1,25,0,0
109391,-100,4,1,1,24,0,0
109413,-100,4,1,1,23,0,0
109434,-100,4,1,1,22,0,0
109456,-100,4,1,1,21,0,0
109477,-100,4,1,1,20,0,0
109498,-100,4,1,1,19,0,0
109520,-100,4,1,1,18,0,0
109541,-100,4,1,1,17,0,0
109563,-100,4,1,1,16,0,0
109584,-100,4,1,1,15,0,0
109606,-100,4,1,1,14,0,0
109627,-100,4,1,1,13,0,0
109648,-100,4,1,1,12,0,0
109670,-100,4,1,1,11,0,0
109691,-100,4,1,1,10,0,0
109713,-100,4,1,1,9,0,0
109734,-100,4,1,1,8,0,0
109756,-100,4,1,1,7,0,0
109777,-100,4,1,1,6,0,0
109798,-100,4,1,1,5,0,0
109820,-100,4,1,1,5,0,0

[Colours]
Combo1 : 174,21,94
Combo2 : 234,207,21
Combo3 : 200,4,23
Combo4 : 219,124,30

[HitObjects]
93,56,791,6,0,P|86:117|88:172,1,105.000004005432,0|0,2:0|2:0,0:0:0:0:
104,201,1048,1,0,2:0:0:0:
100,210,1134,2,0,P|82:217|69:226,3,26.2500010013581,0|0|0|0,2:0|2:0|2:0|2:0,0:0:0:0:
188,179,1306,2,0,P|230:170|275:180,1,78.7500030040742,0|0,2:0|2:0,0:0:0:0:
302,206,1477,5,12,0:2:0:0:
236,288,1649,1,0,0:0:0:0:
228,292,1734,1,0,0:0:0:0:
228,284,1820,1,2,0:2:0:0:
315,208,1991,5,12,0:2:0:0:
381,290,2163,1,0,0:0:0:0:
389,294,2248,1,0,0:0:0:0:
389,286,2334,1,2,0:2:0:0:
398,132,2506,5,12,0:2:0:0:
348,27,2677,1,0,0:0:0:0:
346,35,2763,1,0,0:0:0:0:
355,34,2848,1,2,0:2:0:0:
512,119,3020,5,12,0:2:0:0:
472,226,3191,1,0,0:0:0:0:
481,227,3276,1,0,0:0:0:0:
479,219,3362,1,2,0:2:0:0:
398,132,3534,5,14,0:2:0:0:
368,131,3619,1,2,0:2:0:0:
344,124,3705,1,2,0:2:0:0:
315,126,3791,1,2,0:2:0:0:
291,118,3876,1,2,0:2:0:0:
186,38,4048,6,0,P|191:108|187:178,1,140,12|2,0:0|0:2,0:0:0:0:
113,256,4563,1,8,0:0:0:0:
226,294,4734,1,2,0:2:0:0:
137,363,4906,1,8,0:0:0:0:
236,288,5077,1,2,0:2:0:0:
332,355,5248,1,8,0:0:0:0:
421,283,5420,6,0,P|380:227|315:208,1,140,8|2,0:0|0:2,0:0:0:0:
218,149,5934,2,0,P|251:123|292:119,1,83.9999974365235,8|2,0:0|0:2,0:0:0:0:
512,168,6277,2,0,P|449:159|408:121,1,115.500001101494,8|2,0:0|2:0,0:0:0:0:
417,98,6534,1,2,2:0:0:0:
427,82,6620,1,4,2:1:0:0:
302,105,6791,5,0,0:0:0:0:
297,112,6877,1,0,0:0:0:0:
292,119,6963,2,0,P|282:163|290:210,1,87.5,12|2,0:2|0:2,0:0:0:0:
366,319,7306,2,0,B|355:299|331:297|331:297|278:293,1,87.5,8|2,0:2|0:2,0:0:0:0:
168,209,7648,2,0,L|179:297,1,87.5,8|2,0:2|0:2,0:0:0:0:
195,314,7906,1,2,0:2:0:0:
202,321,7991,1,8,0:2:0:0:
103,378,8163,2,0,L|92:290,1,87.5,2|8,0:2|0:2,0:0:0:0:
20,177,8506,5,2,0:2:0:0:
16,155,8591,1,2,0:2:0:0:
0,167,8677,2,0,L|91:150,1,87.5,8|2,0:2|0:2,0:0:0:0:
209,23,9020,2,0,P|165:43|142:82,1,87.5,8|2,0:2|0:2,0:0:0:0:
225,111,9277,1,2,0:2:0:0:
232,118,9363,2,0,B|261:128|261:128|323:111,1,87.5,8|2,0:2|0:2,0:0:0:0:
457,24,9706,6,0,P|477:79|473:124,1,87.5,8|2,0:2|0:2,0:0:0:0:
416,171,10048,2,0,P|410:229|426:271,1,87.5,8|2,0:2|0:2,0:0:0:0:
508,381,10391,2,0,P|513:322|497:280,1,87.5,8|2,0:2|0:2,0:0:0:0:
416,171,10734,1,8,0:2:0:0:
393,163,10906,2,0,P|327:220|275:291,1,175,2|2,0:2|0:2,0:0:0:0:
237,304,11334,5,2,0:2:0:0:
229,311,11420,2,0,P|195:302|183:295,1,43.75,8|2,0:2|0:2,0:0:0:0:
123,218,11591,2,0,P|129:194|140:175,2,43.75,2|2|8,0:2|0:2|0:2,0:0:0:0:
56,328,11934,5,2,0:2:0:0:
0,201,12106,1,8,0:2:0:0:
0,201,12448,6,0,P|24:158|29:115,1,87.5,8|2,0:2|0:2,0:0:0:0:
32,0,12791,2,0,P|80:18|106:51,1,87.5,8|2,0:2|0:2,0:0:0:0:
138,177,13134,2,0,B|121:182|121:182|130:138|175:118,1,97.9999970092774,8|2,0:2|0:2,0:0:0:0:
278,106,13477,1,8,0:2:0:0:
227,196,13648,2,0,L|242:283,1,87.5,2|8,0:2|0:2,0:0:0:0:
354,362,13991,6,0,P|366:337|369:309,1,52.5000020027161,2|2,0:2|0:2,0:0:0:0:
347,185,14163,2,0,P|334:209|331:237,1,52.5000020027161,8|0,0:2|0:0,0:0:0:0:
483,250,14334,2,0,L|423:235,1,52.5000020027161,2|0,0:2|0:0,0:0:0:0:
278,106,14506,2,0,P|329:83|379:86,1,105.000004005432,8|2,0:2|0:2,0:0:0:0:
442,155,14763,2,0,L|492:167,2,52.5000020027161,2|8|2,0:2|0:2|0:2,0:0:0:0:
347,185,15020,2,0,P|334:209|343:277,1,91.8750008761883,2|0,0:2|0:0,0:0:0:0:
369,312,15191,5,8,0:0:0:0:
255,377,15363,1,0,0:0:0:0:
255,368,15448,1,0,0:0:0:0:
262,372,15534,1,8,0:2:0:0:
227,196,15706,5,8,0:2:0:0:
241,282,15877,5,8,0:0:0:0:
118,229,16049,1,0,0:0:0:0:
118,238,16134,1,0,0:0:0:0:
125,234,16220,1,8,0:2:0:0:
15,264,16391,6,0,P|7:197|43:132,1,140,8|0,0:0|0:0,0:0:0:0:
79,132,16820,1,0,0:0:0:0:
89,127,16906,2,0,P|116:86|119:43,1,87.5,8|0,0:0|0:0,0:0:0:0:
96,10,17163,1,0,0:0:0:0:
84,0,17248,1,8,0:0:0:0:
222,35,17420,6,0,L|216:82,1,43.75,2|0,0:2|3:0,0:0:0:0:
214,108,17591,1,0,3:0:0:0:
313,13,17763,6,0,L|297:154,1,140,12|0,2:1|2:0,0:0:0:0:
288,246,18277,1,0,2:0:0:0:
288,246,18448,1,0,2:0:0:0:
444,263,18620,2,0,L|371:255,1,70,0|0,2:0|2:0,0:0:0:0:
202,236,18963,1,0,2:0:0:0:
140,324,19134,6,0,L|284:339,1,140,12|0,2:1|2:0,0:0:0:0:
202,236,19648,2,0,L|129:228,1,70,0|0,2:0|2:0,0:0:0:0:
46,219,19991,5,0,2:0:0:0:
56,131,20163,2,0,L|60:87,2,23.3333333333333,0|0|0,2:0|2:0|2:0,0:0:0:0:
145,141,20334,2,0,L|217:149,1,70,8|8,2:0|2:0,0:0:0:0:
392,129,20677,5,12,0:0:0:0:
304,110,20848,2,0,P|301:90|307:63,2,43.75,2|2|8,0:2|0:2|0:0,0:0:0:0:
474,164,21191,2,0,P|482:143|483:122,2,43.75,2|2|8,0:2|0:2|0:0,0:0:0:0:
358,217,21534,5,2,0:2:0:0:
364,213,21620,1,2,0:2:0:0:
371,211,21706,2,0,P|404:222|421:235,1,52.5000020027161,8|2,0:0|0:2,0:0:0:0:
438,330,21877,2,0,B|401:344|355:322|373:315|331:288|288:301,1,157.500006008148,8|0,0:0|0:0,0:0:0:0:
169,312,22220,2,0,L|162:350,2,35,2|2|8,0:2|0:2|0:0,0:0:0:0:
57,275,22563,5,2,0:2:0:0:
57,268,22648,1,2,0:2:0:0:
59,261,22734,2,0,P|79:227|99:217,1,52.5000020027161,8|2,0:0|0:2,0:0:0:0:
74,137,22906,2,0,P|113:137|132:149,1,52.5000020027161,2|2,0:2|0:2,0:0:0:0:
206,196,23077,1,8,0:0:0:0:
306,139,23248,6,0,L|445:123,1,140,12|0,2:1|2:0,0:0:0:0:
436,36,23763,1,0,2:0:0:0:
436,36,23934,1,0,2:0:0:0:
445,123,24106,2,0,L|453:192,1,70,0|0,2:0|2:0,0:0:0:0:
462,279,24448,1,0,2:0:0:0:
321,278,24620,6,0,L|305:136,1,140,12|0,2:1|2:0,0:0:0:0:
177,64,25134,2,0,L|186:151,1,87.5,0|0,2:0|2:0,0:0:0:0:
197,259,25477,5,0,2:0:0:0:
306,139,25648,2,0,L|350:134,2,29.1666666666667,0|0|0,2:0|2:0|2:0,0:0:0:0:
186,151,25820,2,0,L|98:160,1,87.5,8|8,2:0|2:0,0:0:0:0:
15,257,26163,5,12,0:0:0:0:
75,347,26334,1,2,0:2:0:0:
77,341,26420,1,2,0:2:0:0:
81,336,26506,2,0,P|110:329|141:335,1,52.5000020027161,8|2,0:0|0:2,0:0:0:0:
212,383,26677,1,2,0:2:0:0:
226,233,26848,5,8,0:0:0:0:
338,293,27020,1,2,0:2:0:0:
335,299,27106,1,2,0:2:0:0:
331,305,27192,2,0,P|302:312|271:306,1,52.5000020027161,8|2,0:0|0:2,0:0:0:0:
356,202,27363,2,0,B|408:205|437:244|412:253|452:288|500:290,1,175,12|2,0:0|0:2,0:0:0:0:
503,197,27877,2,0,P|472:153|442:134,1,87.5,8|2,0:0|0:2,0:0:0:0:
235,124,28220,5,2,2:0:0:0:
232,134,28306,1,2,2:0:0:0:
229,144,28391,2,0,L|358:112,1,131.25000500679,4|0,2:1|0:0,0:0:0:0:
379,65,28906,6,0,L|288:46,1,90.9999958343508,8|2,0:2|0:2,0:0:0:0:
151,55,29248,1,8,0:2:0:0:
182,34,29420,1,2,0:2:0:0:
121,147,29591,2,0,L|139:237,1,90.9999958343508,8|2,0:2|0:2,0:0:0:0:
160,344,29934,1,8,0:2:0:0:
318,273,30106,6,0,L|112:231,1,181.999991668702,2|2,0:2|0:2,0:0:0:0:
229,144,30620,2,0,L|319:122,1,90.9999958343508,8|2,0:2|0:2,0:0:0:0:
416,154,30963,1,8,0:2:0:0:
395,66,31134,2,0,L|406:18,2,30.3333319447836,2|2|2,0:2|0:2|0:2,0:0:0:0:
490,90,31306,2,0,L|512:180,1,90.9999958343508,10|2,0:2|0:2,0:0:0:0:
423,244,31648,5,8,0:0:0:0:
305,229,31820,2,0,L|321:289,2,45.4999979171754,2|2|8,0:2|0:2|0:0,0:0:0:0:
229,144,32163,2,0,L|249:88,2,45.4999979171754,2|2|8,0:2|0:2|0:0,0:0:0:0:
139,236,32506,2,0,L|154:296,2,45.4999979171754,2|2|8,0:2|0:2|0:0,0:0:0:0:
45,194,32848,5,2,0:2:0:0:
43,186,32934,1,2,0:2:0:0:
39,179,33019,1,8,0:0:0:0:
11,64,33191,5,2,0:2:0:0:
15,59,33277,1,2,0:2:0:0:
20,55,33363,2,0,P|52:45|78:49,1,45.4999979171754,8|2,0:0|0:2,0:0:0:0:
149,44,33534,2,0,P|174:63|183:90,1,45.4999979171754,2|2,0:2|0:2,0:0:0:0:
229,144,33706,2,0,P|234:168|222:201,1,45.4999979171754,8|2,0:0|0:2,0:0:0:0:
134,240,33877,5,2,0:2:0:0:
137,246,33962,1,2,0:2:0:0:
141,251,34048,2,0,P|167:281|224:298,1,90.9999958343508,8|8,0:0|0:0,0:0:0:0:
328,205,34391,5,12,0:2:0:0:
365,314,34562,1,0,0:0:0:0:
357,309,34648,1,0,0:0:0:0:
364,305,34734,1,2,0:2:0:0:
454,384,34906,5,12,0:2:0:0:
475,269,35077,1,0,0:0:0:0:
479,279,35163,1,0,0:0:0:0:
471,278,35249,1,2,0:2:0:0:
425,180,35420,5,12,0:2:0:0:
510,100,35591,1,0,0:0:0:0:
505,109,35677,1,0,0:0:0:0:
500,103,35763,1,2,0:2:0:0:
431,0,35934,5,12,0:2:0:0:
350,81,36106,1,0,0:0:0:0:
356,90,36192,1,0,0:0:0:0:
361,84,36278,1,2,0:2:0:0:
226,0,36448,5,14,0:2:0:0:
236,26,36533,1,2,0:2:0:0:
237,52,36619,1,2,0:2:0:0:
246,74,36705,1,2,0:2:0:0:
246,95,36790,1,2,0:2:0:0:
189,196,36963,6,0,P|258:195|328:205,1,140,12|2,0:0|0:2,0:0:0:0:
425,180,37477,1,8,0:0:0:0:
364,305,37648,1,2,0:2:0:0:
475,269,37820,1,8,0:0:0:0:
357,309,37991,1,2,0:2:0:0:
328,205,38163,1,8,0:0:0:0:
247,317,38334,6,0,B|205:340|159:313|176:306|137:282|86:304,1,167.999994873047,12|0,0:0|0:0,0:0:0:0:
5,317,38763,1,0,0:0:0:0:
1,312,38848,2,0,P|-3:283|5:256,1,41.9999987182618,8|0,0:0|0:0,0:0:0:0:
46,175,39020,1,8,0:0:0:0:
50,169,39106,1,8,0:0:0:0:
53,163,39191,2,0,P|43:122|11:95,1,78.7500030040742,4|0,0:0|0:0,0:0:0:0:
0,0,39534,6,0,P|40:5|72:18,1,70
160,93,39877,2,0,P|150:58|155:26,1,70,12|0,0:2|0:0,0:0:0:0:
248,119,40220,2,0,P|236:151|209:177,1,70,2|0,0:2|0:0,0:0:0:0:
177,270,40563,2,0,P|231:230|283:234,1,122.5,8|0,0:0|0:0,0:0:0:0:
298,273,40906,1,2,0:2:0:0:
399,296,41077,2,0,P|459:276|491:218,1,125.999996154785,8|0,0:2|0:0,0:0:0:0:
413,129,41591,6,0,L|401:210,1,77.0000023498536,8|0,0:2|0:0,0:0:0:0:
501,105,41934,2,0,P|484:69|454:47,1,77.0000023498536,8|0,0:0|0:0,0:0:0:0:
372,9,42191,1,0,0:0:0:0:
367,15,42277,2,0,P|327:36|291:33,1,77.0000023498536,2|8,0:2|0:2,0:0:0:0:
186,4,42620,6,0,P|201:38|200:85,1,77.0000023498536,8|0,0:2|0:0,0:0:0:0:
97,184,42963,2,0,P|100:146|124:106,1,77.0000023498536,2|0,0:2|0:0,0:0:0:0:
200,177,43306,2,0,P|184:240|126:283,1,134.750004112244,8|0,0:0|0:0,0:0:0:0:
95,285,43648,1,2,0:2:0:0:
164,376,43820,2,0,P|234:363|292:289,1,154.000004699707,8|0,0:2|0:0,0:0:0:0:
296,261,44248,5,0,0:0:0:0:
301,255,44334,2,0,P|321:245|353:249,1,38.5000011749268,10|0,0:2|0:0,0:0:0:0:
462,265,44506,2,0,P|476:258|493:234,2,38.5000011749268,0|0|8,0:0|0:0|0:0,0:0:0:0:
378,327,44848,1,2,0:2:0:0:
415,175,45020,1,8,0:2:0:0:
415,175,45363,6,0,L|328:154,1,77.0000023498536,12|0,0:2|0:0,0:0:0:0:
276,59,45706,2,0,L|363:38,1,77.0000023498536,2|0,0:2|0:0,0:0:0:0:
237,150,46048,2,0,P|193:110|181:38,1,134.750004112244,8|0,0:0|0:0,0:0:0:0:
205,9,46391,1,2,0:2:0:0:
76,39,46563,2,0,L|87:122,1,77.0000023498536,8|2,0:2|0:2,0:0:0:0:
138,199,46906,6,0,L|128:237,1,38.5000011749268
8,273,47077,2,0,L|46:261,1,38.5000011749268,8|0,0:2|0:0,0:0:0:0:
135,347,47248,2,0,L|105:319,1,38.5000011749268
209,293,47420,2,0,P|263:277|288:282,1,77.0000023498536,8|0,0:0|0:0,0:0:0:0:
351,344,47677,2,0,P|334:359|313:365,2,38.5000011749268,0|2|0,0:0|0:2|0:0,0:0:0:0:
412,279,47934,2,0,P|424:255|425:206,1,73.4999977569581,8|0,0:2|0:0,0:0:0:0:
412,184,48106,5,8,0:2:0:0:
492,110,48277,1,0,0:0:0:0:
500,106,48363,1,0,0:0:0:0:
500,115,48448,1,2,0:2:0:0:
385,64,48620,5,0,0:0:0:0:
301,148,48791,5,8,0:0:0:0:
259,34,48962,1,2,0:2:0:0:
267,31,49047,1,0,0:0:0:0:
265,39,49133,1,0,0:0:0:0:
161,101,49306,6,0,P|163:175|186:262,1,154.000004699707,8|0,0:2|0:0,0:0:0:0:
210,302,49734,1,0,0:0:0:0:
205,296,49820,2,0,P|179:283|149:281,1,38.5000011749268,8|0,0:2|0:0,0:0:0:0:
64,307,49991,5,0,0:0:0:0:
58,305,50077,1,0,0:0:0:0:
53,301,50163,2,0,P|32:282|15:235,1,77.0000023498536,8|8,0:2|0:2,0:0:0:0:
34,205,50420,1,8,0:2:0:0:
39,201,50506,1,4,0:0:0:0:
0,384,50848,5,12,0:2:0:0:
373,189,55477,6,0,P|363:198|351:203,1,19.2500005874634,2|0,0:3|0:0,0:0:0:0:
334,179,55563,2,0,P|321:175|310:167,1,26.2500010013581,2|0,0:3|0:0,0:0:0:0:
324,140,55648,2,0,P|320:127|335:72,1,70,2|2,0:0|0:3,0:0:0:0:
489,21,55820,6,0,P|501:24|512:32,1,26.2500010013581,2|0,0:0|0:0,0:0:0:0:
499,61,55906,2,0,P|502:73|500:86,1,26.2500010013581,2|0,0:0|0:0,0:0:0:0:
470,89,55991,2,0,P|460:98|405:113,1,70,2|2,0:3|0:3,0:0:0:0:
403,18,56163,5,2,0:3:0:0:
465,193,56334,1,12,0:2:0:0:
18,232,60448,6,0,L|1:128,1,105.000004005432,8|2,0:0|0:2,0:0:0:0:
154,0,60791,2,0,L|137:103,1,105.000004005432,8|2,0:0|0:2,0:0:0:0:
100,183,61134,5,8,0:2:0:0:
55,52,61306,1,8,0:2:0:0:
232,90,61477,2,0,B|236:96|243:97|243:97|246:105|255:107|255:107|256:117|263:119|263:119|262:129|269:133|269:133|267:141|274:146|274:146|271:156|276:163|276:163|271:171|275:180|275:180|268:187|269:196|269:196|263:201|262:211|262:211|256:215|253:223,1,157.500006008148,8|0,0:2|0:0,3:0:0:0:
235,303,61820,6,0,P|287:297|327:265,1,105.000004005432,12|2,0:0|0:2,0:0:0:0:
389,171,62077,1,2,0:2:0:0:
398,160,62163,2,0,L|417:270,1,105.000004005432,8|2,0:1|0:2,0:0:0:0:
418,358,62506,5,8,0:1:0:0:
411,371,62591,1,2,0:2:0:0:
317,274,62763,5,2,0:2:0:0:
326,265,62848,1,8,0:1:0:0:
495,220,63020,6,0,L|504:275,1,52.5000020027161,2|2,0:2|0:2,0:0:0:0:
512,323,63191,1,8,0:1:0:0:
495,220,63363,2,0,L|476:110,1,105.000004005432,2|8,0:2|0:1,0:0:0:0:
380,56,63706,1,2,0:2:0:0:
470,0,63877,1,8,0:1:0:0:
282,17,64048,5,2,0:3:0:0:
273,24,64134,1,2,0:3:0:0:
266,32,64220,2,0,P|255:69|257:90,1,52.5000020027161,8|2,0:1|0:2,0:0:0:0:
310,156,64391,1,2,0:2:0:0:
186,163,64563,1,8,0:1:0:0:
225,250,64734,1,2,0:2:0:0:
149,76,64906,2,0,L|42:114,1,105.000004005432,8|2,0:1|0:2,0:0:0:0:
0,215,65248,5,8,0:1:0:0:
0,225,65334,1,2,0:2:0:0:
1,235,65420,2,0,P|18:261|40:274,1,52.5000020027161,2|2,0:2|0:2,0:0:0:0:
116,316,65591,5,8,0:1:0:0:
127,323,65677,1,2,0:2:0:0:
216,258,65848,5,2,0:2:0:0:
225,250,65934,1,8,0:1:0:0:
264,337,66106,1,2,0:2:0:0:
186,162,66277,1,8,0:1:0:0:
326,262,66448,5,2,0:2:0:0:
373,261,66534,1,2,0:2:0:0:
420,259,66620,2,0,P|473:238|504:192,1,115.500001101494,8|2,0:1|0:2,0:0:0:0:
383,30,66963,1,8,0:1:0:0:
404,152,67134,1,2,0:2:0:0:
493,68,67306,6,0,P|442:29|372:32,1,125.999996154785,12|2,0:0|0:2,0:0:0:0:
288,94,67563,1,2,0:2:0:0:
291,102,67648,2,0,P|249:151|186:162,1,125.999996154785,8|2,0:1|0:2,0:0:0:0:
50,111,67991,5,8,0:1:0:0:
61,101,68077,1,2,0:2:0:0:
162,42,68248,5,2,0:2:0:0:
171,52,68334,1,8,0:1:0:0:
190,162,68506,6,0,L|151:221,1,62.9999980773926,2|2,0:2|0:2,0:0:0:0:
105,288,68677,1,12,0:0:0:0:
190,162,68848,2,0,L|312:196,1,125.999996154785,2|8,0:2|0:1,0:0:0:0:
512,233,69191,1,2,0:2:0:0:
420,151,69363,1,8,0:1:0:0:
419,292,69534,5,2,0:3:0:0:
411,298,69620,1,2,0:3:0:0:
403,304,69706,2,0,P|368:314|334:307,1,62.9999980773926,8|2,0:1|0:2,0:0:0:0:
232,265,69877,2,0,P|250:290|251:327,1,62.9999980773926,2|0,0:2|0:0,0:0:0:0:
172,384,70048,6,0,P|167:364|170:339,3,41.9999987182618,12|0|2|2,0:0|0:0|0:2|0:2,0:0:0:0:
105,286,70391,2,0,P|111:263|128:240,3,48.9999985046387,8|0|2|0,0:1|0:0|0:2|0:0,0:0:0:0:
81,170,70734,2,0,P|99:153|127:141,3,56,12|2|2|2,0:0|0:2|0:2|0:2,0:0:0:0:
125,49,71077,2,0,P|152:42|185:46,3,62.9999980773926,8|2|2|2,0:1|0:2|0:2|0:2,0:0:0:0:
241,121,71420,6,0,P|310:141|382:126,1,140,12|0,0:0|0:0,0:0:0:0:
450,16,71677,2,0,P|398:65|375:135,1,140,12|0,0:0|0:0,0:0:0:0:
404,189,71934,2,0,P|394:151|368:122,1,70,12|0,0:0|0:0,0:0:0:0:
241,121,72106,5,12,0:0:0:0:
211,161,72191,1,12,0:2:0:0:
205,202,72277,2,0,P|211:236|232:265,1,70,8|8,0:2|0:2,0:0:0:0:
342,310,72448,2,0,P|295:266|231:264,1,131.25,4|0,0:0|0:0,0:0:0:0:
147,317,72791,6,0,P|75:311|29:274,1,122.500001168251,12|0,0:2|0:0,0:0:0:0:
25,201,73048,1,0,0:0:0:0:
19,208,73134,2,0,P|17:247|35:282,1,78.7500030040742,8|0,0:0|0:0,0:0:0:0:
114,227,73306,2,0,L|92:87,1,140,0|8,0:0|0:2,0:0:0:0:
100,8,73563,1,0,0:0:0:0:
107,15,73649,2,0,P|109:54|91:89,1,78.7500030040742
15,124,73820,2,0,L|179:149,1,157.500006008148,8|0,0:0|0:0,0:0:0:0:
231,91,74077,1,0,0:0:0:0:
220,92,74163,2,0,P|185:114|169:157,1,78.7500030040742,8|0,0:2|0:0,0:0:0:0:
200,241,74334,5,2,0:2:0:0:
208,251,74420,1,2,0:2:0:0:
218,257,74506,2,0,P|253:268|277:263,1,61.2500005841255,8|2,0:0|0:2,0:0:0:0:
320,340,74677,2,0,P|347:315|354:291,1,61.2500005841255,2|2,0:2|0:2,0:0:0:0:
350,188,74849,5,10,0:2:0:0:
339,174,74934,1,2,0:2:0:0:
333,157,75020,1,2,0:2:0:0:
333,140,75106,1,2,0:2:0:0:
337,123,75191,2,0,P|350:102|382:86,1,61.2500005841255,8|2,0:0|0:2,0:0:0:0:
385,0,75363,2,0,P|409:1|439:20,1,61.2500005841255,2|2,0:2|0:2,0:0:0:0:
512,73,75534,6,0,L|493:197,1,122.500001168251,8|0,0:2|0:0,0:0:0:0:
437,254,75791,1,0,0:0:0:0:
438,245,75877,2,0,P|460:211|502:192,1,78.7500030040742,8|0,0:0|0:0,0:0:0:0:
498,324,76048,2,0,P|420:334|353:302,1,140,0|8,0:0|0:2,0:0:0:0:
315,249,76306,1,0,0:0:0:0:
324,249,76391,2,0,P|354:275|365:311,1,78.7500030040742
263,320,76563,2,0,L|287:158,1,157.500006008148,8|0,0:0|0:0,0:0:0:0:
277,73,76820,1,0,0:0:0:0:
266,71,76906,2,0,P|235:81|203:116,1,78.7500030040742,8|0,0:2|0:0,0:0:0:0:
155,187,77077,6,0,B|150:181|144:179|144:179|141:169|134:169|134:169|131:161|125:157|125:157|123:149|118:144|118:144|120:134|113:128|113:128|115:121|111:114,1,78.7500030040742,2|0,0:0|0:0,0:0:0:0:
62,50,77248,6,0,L|66:31,1,17.5,2|0,0:3|0:0,0:0:0:0:
81,63,77334,2,0,L|91:46,1,17.5,2|0,0:3|0:0,0:0:0:0:
96,82,77420,2,0,L|111:70,1,17.5,2|0,0:3|0:0,0:0:0:0:
107,104,77506,2,0,L|125:97,1,17.5,2|0,0:3|0:0,0:0:0:0:
113,126,77591,6,0,B|111:137|116:145|116:145|113:150|116:159|116:159|111:164|115:173|115:173|110:179|110:188|110:188|104:196|104:205|104:205|98:210|96:221|96:221|89:224|86:234|86:234|79:236|75:245|75:245|66:247|62:256|62:256|54:258,1,157.500006008148,10|0,0:0|0:0,0:0:0:0:
26,167,77848,6,0,B|37:170|46:167|46:167|50:170|60:169|60:169|65:174|73:172|73:172|79:178|88:179|88:179|95:186|105:188|105:188|109:195|119:198|119:198|121:206|131:211|131:211|132:218|140:224|140:224|141:232|149:239|149:239|149:247,1,164.499997489929,10|0,0:0|0:0,0:0:0:0:
172,337,78106,6,0,B|176:327|174:319|174:319|178:316|178:307|178:307|183:303|183:295|183:295|189:291|191:283|191:283|198:278|201:270|201:270|208:267|212:259|212:259|220:258|225:250|225:250|232:251|238:244|238:244|245:244|252:239|252:239|259:239,1,131.25,10|0,0:0|0:0,0:0:0:0:
342,220,78277,6,0,P|384:175|395:114,1,125.999996154785,8|0,0:2|0:0,0:0:0:0:
373,28,78534,1,0,0:0:0:0:
368,35,78620,2,0,P|370:78|395:114,1,87.5,8|0,0:0|0:0,0:0:0:0:
479,197,78791,2,0,P|449:143|395:114,1,125.999996154785,0|8,0:0|0:2,0:0:0:0:
304,108,79048,1,0,0:0:0:0:
311,114,79134,2,0,P|353:125|395:113,1,87.5
500,59,79306,2,0,P|439:70|395:114,1,125.999996154785,8|0,0:0|0:0,0:0:0:0:
347,212,79563,1,0,0:0:0:0:
343,220,79648,2,0,L|314:275,1,62.9999980773926,8|0,0:2|0:0,0:0:0:0:
250,357,79820,6,0,P|230:329|220:297,1,62.9999980773926,2|0,0:2|0:0,0:0:0:0:
222,213,79991,1,8,0:0:0:0:
216,206,80077,1,2,0:2:0:0:
208,199,80163,2,0,P|169:183|112:203,1,99.7499973363877,2|0,0:2|0:0,0:0:0:0:
62,229,80334,5,10,0:2:0:0:
30,199,80420,1,2,0:2:0:0:
16,159,80506,1,2,0:2:0:0:
28,120,80591,1,2,0:2:0:0:
54,91,80677,2,0,B|85:69|85:69|143:62,1,94.499997116089,8|0,0:0|0:0,0:0:0:0:
170,61,80848,1,2,0:2:0:0:
351,219,81020,6,0,B|371:198|373:170|373:170|377:99,1,125.999996154785,8|0,0:2|0:0,0:0:0:0:
257,22,81277,1,0,0:0:0:0:
254,30,81363,2,0,P|267:66|285:104,1,80.5000015354157,8|0,0:0|0:0,0:0:0:0:
488,189,81534,2,0,P|452:119|377:99,1,161.000003070831,0|8,0:0|0:2,0:0:0:0:
213,182,81791,1,0,0:0:0:0:
219,188,81877,2,0,P|256:199|297:206,1,80.5000015354157
499,26,82048,2,0,P|422:34|376:98,1,161.000003070831,8|0,0:0|0:0,0:0:0:0:
396,200,82306,1,0,0:0:0:0:
400,208,82391,2,0,P|391:252|364:290,1,80.5000015354157,8|0,0:2|0:0,0:0:0:0:
270,332,82563,5,8,0:2:0:0:
260,332,82648,1,0,0:0:0:0:
251,328,82734,2,0,P|227:297|229:252,1,70
139,252,82906,2,0,P|153:217|186:188,1,70
267,155,83077,5,8,0:2:0:0:
230,110,83163,1,0,0:0:0:0:
174,96,83248,2,0,P|134:102|108:122,1,70
22,47,83420,2,0,P|5:78|4:113,1,70,12|0,0:0|0:0,0:0:0:0:
55,224,83591,1,0,0:0:0:0:
97,238,83677,1,0,0:0:0:0:
139,252,83763,6,0,L|255:289,1,122.500001168251,12|0,0:2|0:0,0:0:0:0:
331,253,84020,1,0,0:0:0:0:
322,250,84106,2,0,P|278:265|253:295,1,80.5000015354157,8|0,0:0|0:0,0:0:0:0:
365,338,84277,2,0,P|416:274|402:195,1,161.000003070831,0|8,0:0|0:2,0:0:0:0:
397,118,84534,1,0,0:0:0:0:
390,124,84620,2,0,P|389:170|408:204,1,80.5000015354157
496,122,84791,2,0,P|465:45|390:20,1,161.000003070831,8|0,0:0|0:0,0:0:0:0:
313,49,85048,1,0,0:0:0:0:
308,57,85134,2,0,P|268:75|221:71,1,80.5000015354157,8|0,0:2|0:0,0:0:0:0:
140,68,85306,5,2,0:2:0:0:
131,72,85391,1,2,0:2:0:0:
123,78,85477,2,0,P|100:105|91:142,1,70,8|2,0:0|0:2,0:0:0:0:
0,160,85648,2,0,P|13:192|41:218,1,62.9999980773926,2|2,0:2|0:2,0:0:0:0:
3,301,85820,2,0,P|37:305|76:291,1,56,10|2,0:2|0:2,0:0:0:0:
124,363,85991,2,0,P|141:338|147:305,1,52.5000020027161,2|2,0:2|0:2,0:0:0:0:
230,297,86163,2,0,P|218:269|192:246,1,52.5000020027161,8|2,0:0|0:2,0:0:0:0:
228,173,86334,2,0,P|197:168|165:179,1,52.5000020027161,2|2,0:2|0:2,0:0:0:0:
203,253,86506,6,0,P|265:251|307:206,1,125.999996154785,8|0,0:2|0:0,0:0:0:0:
321,114,86763,1,0,0:0:0:0:
331,115,86848,2,0,P|367:132|393:160,1,78.7500030040742,8|0,0:0|0:0,0:0:0:0:
457,256,87020,2,0,P|401:208|403:124,1,125.999996154785,0|8,0:0|0:2,0:0:0:0:
504,184,87277,1,0,0:0:0:0:
502,193,87363,2,0,P|485:229|456:255,1,78.7500030040742
360,320,87535,2,0,P|408:264|491:266,1,125.999996154785,8|0,0:0|0:0,0:0:0:0:
443,351,87791,1,0,0:0:0:0:
433,352,87877,2,0,P|393:344|359:319,1,83.9999974365235,8|0,0:2|0:0,0:0:0:0:
315,227,88048,6,0,B|309:228|304:225|304:225|298:229|292:224|292:224|286:228|279:226|279:226|274:231|266:229|266:229|260:234|254:234|254:234|251:239|243:241|243:241|238:245|238:245|235:252|235:252,1,87.5,2|0,0:0|0:0,0:0:0:0:
166,327,88220,6,0,L|171:345,1,17.5,2|0,0:3|0:0,0:0:0:0:
192,316,88306,2,0,L|201:332,1,17.5,2|0,0:3|0:0,0:0:0:0:
214,299,88391,2,0,L|227:312,1,17.5,2|0,0:3|0:0,0:0:0:0:
229,275,88477,2,0,L|245:284,1,17.5,2|0,0:3|0:0,0:0:0:0:
237,247,88563,6,0,B|233:239|238:232|238:232|233:226|238:220|238:220|232:212|235:204|235:204|230:198|231:189|231:189|225:185|225:175|225:175|218:173|218:166|218:166|211:163|210:155|210:155|202:152|200:144|200:144|191:144|190:137|190:137|181:136|177:129|177:129|168:129|163:123,1,164.499997489929,10|0,0:0|0:0,0:0:0:0:
40,196,88820,6,0,B|47:192|54:197|54:197|61:192|66:197|66:197|74:191|83:194|83:194|88:189|98:190|98:190|101:184|112:184|112:184|114:177|120:176|120:176|124:170|132:169|132:169|135:160|143:159|143:159|142:150|150:149|150:149|151:140|157:136|157:136|157:127|165:121,1,164.499997489929,10|0,0:0|0:0,0:0:0:0:
117,15,89077,6,0,B|120:22|116:29|116:29|120:36|116:41|116:41|122:50|118:58|118:58|124:64|122:73|122:73|129:77|129:87|129:87|136:89|136:96|136:96|143:99|144:107|144:107|152:110|154:118|154:118|162:118|167:127,1,131.25,10|0,0:0|0:0,0:0:0:0:
255,148,89248,6,0,L|380:132,1,125.999996154785,8|0,0:2|0:0,0:0:0:0:
466,119,89506,1,0,0:0:0:0:
458,121,89591,2,0,P|418:133|372:131,1,80.5000015354157,8|0,0:0|0:0,0:0:0:0:
236,59,89763,2,0,P|290:45|361:43,1,125.999996154785,0|8,0:0|0:2,0:0:0:0:
354,225,90021,1,0,0:0:0:0:
346,230,90106,2,0,P|306:240|260:240,1,80.5000015354157
380,132,90277,2,0,P|436:177|448:239,1,125.999996154785,8|0,0:0|0:0,0:0:0:0:
376,323,90534,1,0,0:0:0:0:
369,328,90620,2,0,P|326:347|282:348,1,77.0000023498536,8|0,0:2|0:0,0:0:0:0:
182,322,90791,5,2,0:2:0:0:
175,314,90877,1,2,0:2:0:0:
170,305,90963,2,0,P|160:271|169:236,1,62.9999980773926,8|2,0:0|0:2,0:0:0:0:
92,196,91134,2,0,P|110:167|142:152,1,62.9999980773926,2|2,0:2|0:2,0:0:0:0:
204,61,91306,5,10,0:2:0:0:
200,92,91391,1,2,0:2:0:0:
186,120,91477,1,2,0:2:0:0:
163,141,91563,1,2,0:2:0:0:
136,154,91648,2,0,P|93:148|75:136,1,62.9999980773926,8|2,0:0|0:2,0:0:0:0:
0,11,91820,2,0,P|24:42|27:66,1,62.9999980773926,2|2,0:2|0:2,0:0:0:0:
0,188,91991,6,0,L|30:310,1,125.999996154785,12|0,0:2|0:0,0:0:0:0:
107,372,92248,1,0,0:0:0:0:
123,341,92334,2,0,P|128:293|110:253,1,87.5,8|0,0:0|0:0,0:0:0:0:
0,188,92506,2,0,P|66:169|145:152,1,140,0|8,0:0|0:2,0:0:0:0:
237,183,92763,1,0,0:0:0:0:
256,212,92848,2,0,P|243:281|235:307,1,87.5
123,341,93020,2,0,P|182:299|247:301,1,131.25,8|0,0:0|0:0,0:0:0:0:
356,239,93191,6,0,P|305:218|248:211,1,105.000004005432,8|0,0:2|0:0,0:0:0:0:
459,76,93534,2,0,P|482:59|514:52,1,52.5000020027161
501,159,93706,1,8,0:2:0:0:
434,174,93791,1,0,0:0:0:0:
379,135,93877,1,0,0:0:0:0:
360,69,93963,1,0,0:0:0:0:
302,33,94048,2,0,P|251:19|200:32,1,105.000004005432,8|2,0:0|2:0,0:0:0:0:
182,63,94306,1,2,2:0:0:0:
173,78,94391,1,4,2:1:0:0:
170,189,94563,5,0,0:0:0:0:
164,192,94648,1,0,0:0:0:0:
158,195,94734,2,0,P|116:175|90:134,1,90.9999958343508,12|2,0:2|0:2,0:0:0:0:
14,11,95077,2,0,L|-1:105,1,90.9999958343508,8|2,0:2|0:2,0:0:0:0:
0,301,95420,2,0,P|30:266|29:205,1,90.9999958343508,8|2,0:2|0:2,0:0:0:0:
19,203,95677,1,2,0:2:0:0:
14,198,95763,1,8,0:2:0:0:
118,277,95934,2,0,B|143:297|143:297|212:289,1,90.9999958343508,2|8,0:2|0:2,0:0:0:0:
301,196,96277,5,2,0:2:0:0:
279,200,96363,1,2,0:2:0:0:
288,180,96448,2,0,L|305:280,1,90.9999958343508,8|2,0:2|0:2,0:0:0:0:
389,384,96791,2,0,L|406:283,1,90.9999958343508,8|2,0:2|0:2,0:0:0:0:
502,294,97048,1,2,0:2:0:0:
506,289,97134,2,0,P|492:240|448:206,1,90.9999958343508,8|2,0:2|0:2,0:0:0:0:
348,112,97477,6,0,L|452:124,1,90.9999958343508,8|2,0:2|0:2,0:0:0:0:
299,24,97820,2,0,P|264:53|247:110,1,90.9999958343508,8|2,0:2|0:2,0:0:0:0:
237,251,98163,2,0,P|271:221|288:164,1,90.9999958343508,8|2,0:2|0:2,0:0:0:0:
151,88,98506,1,8,0:2:0:0:
137,100,98677,2,0,P|112:188|97:277,1,181.999991668702,2|2,0:2|0:2,0:0:0:0:
105,306,99106,5,2,0:2:0:0:
109,313,99191,2,0,P|134:334|163:343,1,45.4999979171754,8|2,0:2|0:2,0:0:0:0:
265,286,99363,2,0,P|253:267|237:251,2,45.4999979171754,2|2|8,0:2|0:2|0:2,0:0:0:0:
231,384,99706,5,2,0:2:0:0:
347,234,99877,1,8,0:2:0:0:
347,234,100220,6,0,B|360:205|360:205|351:142,1,90.9999958343508,8|2,0:2|0:2,0:0:0:0:
443,35,100563,2,0,B|430:64|430:64|439:127,1,90.9999958343508,8|2,0:2|0:2,0:0:0:0:
512,211,100906,2,0,B|516:195|516:195|475:197|430:223,1,90.9999958343508,8|2,0:2|0:2,0:0:0:0:
347,234,101248,1,8,0:2:0:0:
413,319,101420,2,0,P|356:344|316:337,1,90.9999958343508,2|8,0:2|0:2,0:0:0:0:
172,239,101763,6,0,P|166:262|170:288,1,45.4999979171754,2|2,0:2|0:2,0:0:0:0:
241,371,101934,2,0,P|246:347|242:321,1,45.4999979171754,8|0,0:2|0:0,0:0:0:0:
100,346,102106,2,0,P|121:362|147:372,1,45.4999979171754,2|0,0:2|0:0,0:0:0:0:
260,227,102277,6,0,P|240:180|197:152,1,105.000004005432,8|2,0:2|0:2,0:0:0:0:
106,168,102534,2,0,P|98:192|81:214,2,52.5000020027161,2|8|2,0:2|0:2|0:2,0:0:0:0:
138,80,102791,2,0,P|187:54|256:52,1,105,2|0,0:2|0:0,0:0:0:0:
266,61,102963,5,8,0:0:0:0:
362,148,103134,1,0,0:0:0:0:
369,143,103220,1,0,0:0:0:0:
362,138,103306,1,8,0:2:0:0:
260,227,103477,5,8,0:2:0:0:
365,295,103648,5,8,0:0:0:0:
473,196,103820,1,0,0:0:0:0:
464,194,103906,1,0,0:0:0:0:
465,202,103991,1,8,0:2:0:0:
428,36,104163,6,0,P|342:15|266:61,1,181.999991668702,8|0,0:0|0:0,0:0:0:0:
253,95,104591,1,0,0:0:0:0:
250,103,104677,2,0,P|211:138|158:143,1,105.000004005432,8|0,0:0|0:0,0:0:0:0:
130,124,104934,1,0,0:0:0:0:
119,112,105020,1,8,0:0:0:0:
260,227,105191,6,0,L|248:289,1,52.5000020027161,2|0,0:2|3:0,0:0:0:0:
243,310,105363,1,0,3:0:0:0:
75,229,105534,6,0,P|107:244|130:342,1,140,12|2,0:0|0:2,0:0:0:0:
109,358,105963,1,2,0:2:0:0:
104,363,106048,1,8,0:0:0:0:
362,138,106391,5,12,0:2:0:0:
256,192,106477,12,0,107420,0:0:0:0:
164,238,107534,6,0,P|166:254|173:270,1,23.3333333333333,2|2,0:2|0:2,0:0:0:0:
256,192,107763,12,0,109820,0:0:0:0:
