osu file format v14

[General]
AudioFilename: audio.mp3
AudioLeadIn: 0
PreviewTime: 71377
Countdown: 0
SampleSet: Normal
StackLeniency: 0
Mode: 0
LetterboxInBreaks: 0
WidescreenStoryboard: 0

[Editor]
Bookmarks: 1477,6963,17763,23248,28906,34391,39534,50848,60448,71420,72791,82391,83763,91991,94734,106391
DistanceSpacing: 1.5
BeatDivisor: 16
GridSize: 32
TimelineZoom: 2.699997

[Metadata]
Title:Chinese Restaurant
TitleUnicode:Chinese Restaurant
Artist:Memme
ArtistUnicode:Memme
Creator:Marioo83
Version:I Like Chinese Food
Source:Pump It Up Prime
Tags:ParkMemme Electronic China Dance Oriental Arcade PIUP Instrumental Orange_ Delta_ bluirre
BeatmapID:3330445
BeatmapSetID:1631530

[Difficulty]
HPDrainRate:5
CircleSize:3.4
OverallDifficulty:9.5
ApproachRate:9.7
SliderMultiplier:2
SliderTickRate:1

[Events]
//Background and Video events
0,0,"cute wallpaper.jpg",0,0
//Break Periods
//Storyboard Layer 0 (Background)
//Storyboard Layer 1 (Fail)
//Storyboard Layer 2 (Pass)
//Storyboard Layer 3 (Foreground)
//Storyboard Layer 4 (Overlay)
//Storyboard Sound Samples

[TimingPoints]
106,342.857142857143,4,1,1,50,1,0
1113,-166.666666666667,4,1,1,50,0,0
1284,-90.9090909090909,4,1,1,50,0,0
1413,-100,4,1,1,5,0,0
1456,-80,4,1,1,80,0,0
1584,-80,4,1,1,5,0,0
1627,-86.9565217391304,4,1,1,80,0,0
2098,-86.9565217391304,4,1,1,5,0,0
2141,-95.2380952380952,4,1,1,80,0,0
2613,-95.2380952380952,4,1,1,5,0,0
2656,-100,4,1,1,80,0,0
3127,-105.263157894737,4,1,1,5,0,0
3170,-80,4,1,1,80,0,0
4027,-133.333333333333,4,1,1,80,0,0
4327,-133.333333333333,4,1,1,5,0,0
4370,-100,4,1,1,80,0,0
5698,-100,4,1,1,5,0,0
5741,-80,4,1,1,80,0,0
5827,-80,4,1,1,5,0,0
5913,-66.6666666666667,4,1,1,80,0,0
5998,-66.6666666666667,4,1,1,5,0,0
6084,-80,4,1,1,80,0,0
6170,-80,4,1,1,5,0,0
6256,-66.6666666666667,4,1,1,80,0,0
6384,-66.6666666666667,4,1,1,5,0,0
6427,-100,4,1,2,80,0,0
6641,-100,4,1,1,80,0,0
6684,-100,4,1,1,5,0,0
6727,-133.333333333333,4,1,1,70,0,0
7970,-100,4,1,1,70,0,0
8056,-100,4,1,1,5,0,0
8098,-133.333333333333,4,1,1,70,0,0
8484,-80,4,1,1,70,0,0
8527,-80,4,1,1,5,0,0
8570,-80,4,1,1,70,0,0
8613,-80,4,1,1,5,0,0
8656,-100,4,1,1,70,0,0
8998,-133.333333333333,4,1,1,70,0,0
9341,-100,4,1,1,70,0,0
9470,-100,4,1,1,5,0,0
9513,-100,4,1,1,70,0,0
9641,-100,4,1,1,5,0,0
9684,-133.333333333333,4,1,1,70,0,0
10798,-133.333333333333,4,1,1,5,0,0
10841,-133.333333333333,4,1,1,70,0,0
11227,-133.333333333333,4,1,1,90,0,0
11313,-133.333333333333,4,1,1,75,0,0
11398,-133.333333333333,4,1,1,60,0,0
11484,-133.333333333333,4,1,1,50,0,0
11741,-100,4,1,1,70,0,0
11827,-100,4,1,1,5,0,0
11870,-100,4,1,1,70,0,0
11998,-100,4,1,1,5,0,0
12041,-100,4,1,1,70,0,0
12427,-133.333333333333,4,1,1,70,0,0
13541,-133.333333333333,4,1,1,5,0,0
13584,-133.333333333333,4,1,1,70,0,0
13970,-100,4,1,1,70,0,0
14056,-100,4,1,1,5,0,0
14098,-100,4,1,1,70,0,0
14227,-100,4,1,1,5,0,0
14269,-100,4,1,1,70,0,0
14441,-100,4,1,1,5,0,0
14483,-100,4,1,1,70,0,0
14998,-80,4,1,1,70,0,0
15127,-80,4,1,1,5,0,0
15170,-133.333333333333,4,1,1,70,0,0
15298,-133.333333333333,4,1,1,5,0,0
15341,-133.333333333333,4,1,1,70,0,0
15984,-133.333333333333,4,1,1,5,0,0
16027,-133.333333333333,4,1,1,70,0,0
16370,-125,4,1,1,70,0,0
16670,-111.111111111111,4,1,1,5,0,0
16713,-95.2380952380952,4,1,1,70,0,0
17013,-95.2380952380952,4,1,1,5,0,0
17056,-86.9565217391304,4,1,1,70,0,0
17356,-86.9565217391304,4,1,1,5,0,0
17398,-100,4,1,1,70,0,0
17741,-200,4,1,1,60,0,0
18041,-200,4,1,1,5,0,0
18084,-200,4,1,1,60,0,0
19413,-200,4,1,1,5,0,0
19456,-133.333333333333,4,1,1,60,0,0
19756,-133.333333333333,4,1,1,5,0,0
19798,-133.333333333333,4,1,1,60,0,0
19970,-100,4,1,1,60,0,0
20098,-100,4,1,1,5,0,0
20141,-100,4,1,1,60,0,0
20441,-100,4,1,1,5,0,0
20484,-100,4,1,1,60,0,0
20570,-100,4,1,1,5,0,0
20656,-80,4,1,1,80,0,0
23227,-200,4,1,1,60,0,0
23527,-200,4,1,1,5,0,0
23570,-200,4,1,1,60,0,0
24898,-200,4,1,1,5,0,0
24941,-133.333333333333,4,1,1,60,0,0
25241,-133.333333333333,4,1,1,5,0,0
25284,-80,4,1,1,60,0,0
25413,-80,4,1,1,5,0,0
25456,-80,4,1,1,60,0,0
25584,-80,4,1,1,5,0,0
25627,-80,4,1,1,60,0,0
25927,-80,4,1,1,5,0,0
25970,-80,4,1,1,60,0,0
26056,-80,4,1,1,5,0,0
26141,-80,4,1,1,80,0,0
27341,-100,4,1,1,80,0,0
27856,-80,4,1,1,70,0,0
28198,-133.333333333333,4,1,2,60,0,0
28413,-133.333333333333,4,1,1,60,0,0
28798,-133.333333333333,4,1,1,5,0,0
28884,-100,4,1,1,70,0,0
29013,-100,4,1,1,5,0,0
29056,-100,4,1,1,70,0,0
29698,-100,4,1,1,5,0,0
29741,-100,4,1,1,70,0,0
30384,-100,4,1,1,5,0,0
30427,-100,4,1,1,70,0,0
30727,-100,4,1,1,5,0,0
30770,-100,4,1,1,70,0,0
30898,-100,4,1,1,5,0,0
30941,-80,4,1,1,70,0,0
31070,-80,4,1,1,5,0,0
31113,-80,4,1,1,70,0,0
31413,-80,4,1,1,5,0,0
31456,-80,4,1,1,70,0,0
31541,-80,4,1,1,5,0,0
31627,-80,4,1,1,80,0,0
32827,-66.6666666666667,4,1,1,80,0,0
34027,-80,4,1,1,80,0,0
34370,-66.6666666666667,4,1,1,80,0,0
34498,-66.6666666666667,4,1,1,5,0,0
34541,-74.0740740740741,4,1,1,80,0,0
35013,-74.0740740740741,4,1,1,5,0,0
35056,-83.3333333333333,4,1,1,80,0,0
35527,-83.3333333333333,4,1,1,5,0,0
35570,-95.2380952380952,4,1,1,80,0,0
36041,-95.2380952380952,4,1,1,5,0,0
36084,-80,4,1,1,80,0,0
36941,-133.333333333333,4,1,1,80,0,0
37241,-133.333333333333,4,1,1,5,0,0
37284,-80,4,1,1,70,0,0
38313,-125,4,1,1,80,0,0
38570,-133.333333333333,4,1,1,5,0,0
38613,-133.333333333333,4,1,1,80,0,0
39170,-181.818181818182,4,1,2,80,0,0
39213,-181.818181818182,4,1,1,80,0,0
39427,-133.333333333333,4,1,1,5,0,0
39470,-86.9565217391304,4,1,1,60,0,0
39641,-86.9565217391304,4,1,1,5,0,0
39684,-105.263157894737,4,1,1,60,0,0
39813,-105.263157894737,4,1,1,5,0,0
39856,-133.333333333333,4,1,1,60,0,0
40541,-133.333333333333,4,1,3,60,0,0
40584,-133.333333333333,4,1,1,60,0,0
40884,-100,4,1,1,60,0,0
40970,-100,4,1,1,5,0,0
41013,-100,4,1,1,60,0,0
41356,-100,4,1,1,5,0,0
41398,-100,4,1,1,60,0,0
41484,-100,4,1,1,5,0,0
41527,-100,4,1,1,60,0,0
41656,-100,4,1,1,5,0,0
41699,-100,4,1,1,60,0,0
41827,-100,4,1,1,5,0,0
41913,-133.333333333333,4,1,3,60,0,0
41956,-133.333333333333,4,1,1,60,0,0
42384,-133.333333333333,4,1,1,5,0,0
42427,-133.333333333333,4,1,1,60,0,0
42556,-133.333333333333,4,1,1,5,0,0
42598,-133.333333333333,4,1,1,60,0,0
43284,-133.333333333333,4,1,3,60,0,0
43327,-133.333333333333,4,1,1,60,0,0
43627,-111.111111111111,4,1,1,60,0,0
43713,-133.333333333333,4,1,1,5,0,0
43755,-125,4,1,1,60,0,0
44098,-133.333333333333,4,1,1,5,0,0
44141,-100,4,1,1,60,0,0
44656,-100,4,1,3,60,0,0
44699,-100,4,1,1,60,0,0
44741,-100,4,1,1,5,0,0
44784,-100,4,1,1,60,0,0
44913,-100,4,1,1,5,0,0
44956,-100,4,1,1,60,0,0
45341,-133.333333333333,4,1,1,60,0,0
46027,-133.333333333333,4,1,3,60,0,0
46070,-133.333333333333,4,1,1,60,0,0
46370,-125,4,1,1,60,0,0
46456,-111.111111111111,4,1,1,5,0,0
46498,-111.111111111111,4,1,1,60,0,0
46841,-111.111111111111,4,1,1,5,0,0
46884,-80,4,1,1,60,0,0
46970,-80,4,1,1,5,0,0
47013,-80,4,1,1,60,0,0
47141,-80,4,1,1,5,0,0
47184,-80,4,1,1,60,0,0
47356,-80,4,1,1,5,0,0
47399,-80,4,1,3,60,0,0
47441,-80,4,1,1,60,0,0
48041,-80,4,1,1,5,0,0
48084,-117.647058823529,4,1,1,60,0,0
48213,-80,4,1,1,5,0,0
48256,-80,4,1,1,60,0,0
48684,-80,4,1,1,5,0,0
48727,-133.333333333333,4,1,1,60,0,0
48770,-133.333333333333,4,1,3,60,0,0
48813,-133.333333333333,4,1,1,60,0,0
48898,-133.333333333333,4,1,1,5,0,0
48941,-133.333333333333,4,1,1,60,0,0
49584,-133.333333333333,4,1,1,5,0,0
49627,-133.333333333333,4,1,1,60,0,0
50313,-133.333333333333,4,1,1,60,0,0
50484,-133.333333333333,4,1,2,60,0,0
50656,-133.333333333333,4,1,2,5,0,0
50698,-133.333333333333,4,1,2,60,0,0
50827,-100,4,1,3,40,0,0
51170,-100,4,1,1,40,0,0
53098,-100,4,1,1,10,0,0
53141,-100,4,1,1,40,0,0
53184,-100,4,1,1,10,0,0
53227,-100,4,1,1,50,0,0
54941,-100,4,1,1,60,0,0
55113,-88.4955752212389,4,1,1,70,0,0
55284,-80,4,1,1,70,0,0
55456,-66.6666666666667,4,1,1,70,0,0
55498,-66.6666666666667,4,1,1,10,0,0
55541,-66.6666666666667,4,1,1,70,0,0
55583,-66.6666666666667,4,1,1,10,0,0
55627,-66.6666666666667,4,1,3,70,0,0
55670,-66.6666666666667,4,1,1,70,0,0
55713,-66.6666666666667,4,1,1,70,0,0
55798,-80,4,1,3,70,0,0
55841,-80,4,1,3,10,0,0
55884,-80,4,1,3,70,0,0
55927,-80,4,1,1,10,0,0
55970,-80,4,1,1,70,0,0
56141,-100,4,1,1,60,0,0
56313,-80,4,1,3,80,0,0
56356,-80,4,1,1,60,0,0
57684,-80,4,1,1,60,0,0
58584,-80,4,1,1,10,0,0
58627,-80,4,1,1,60,0,0
58670,-80,4,1,1,10,0,0
58713,-80,4,1,1,60,0,0
58884,-80,4,1,1,65,0,0
59056,-80,4,1,1,70,0,0
59227,-80,4,1,1,75,0,0
59398,-80,4,1,1,80,0,0
59570,-80,4,1,1,70,0,0
60427,-57.1428571428571,4,1,1,100,0,0
60770,-47.6190476190476,4,1,1,100,0,0
61113,-50,4,1,1,100,0,0
61198,-50,4,1,1,5,0,0
61241,-50,4,1,1,100,0,0
61370,-50,4,1,1,5,0,0
61413,-50,4,1,1,100,0,0
61713,-50,4,1,1,5,0,0
61756,-66.6666666666667,4,1,1,70,0,0
64070,-66.6666666666667,4,1,1,10,0,0
64113,-66.6666666666667,4,1,1,70,0,0
64156,-66.6666666666667,4,1,1,10,0,0
64198,-66.6666666666667,4,1,1,90,0,0
64370,-66.6666666666667,4,1,1,80,0,0
64541,-66.6666666666667,4,1,1,70,0,0
65570,-66.6666666666667,4,1,1,75,0,0
66598,-66.6666666666667,4,1,1,80,0,0
67284,-66.6666666666667,4,1,2,80,0,0
67327,-66.6666666666667,4,1,1,80,0,0
69556,-66.6666666666667,4,1,1,10,0,0
69598,-66.6666666666667,4,1,1,85,0,0
69641,-66.6666666666667,4,1,1,10,0,0
69683,-66.6666666666667,4,1,1,90,0,0
70027,-57.1428571428571,4,1,1,90,0,0
71398,-66.6666666666667,4,1,1,80,0,0
71570,-66.6666666666667,4,1,1,5,0,0
71613,-66.6666666666667,4,1,1,90,0,0
71827,-66.6666666666667,4,1,1,5,0,0
71870,-52.6315789473684,4,1,1,75,0,0
71998,-66.6666666666667,4,1,1,5,0,0
72041,-66.6666666666667,4,1,1,75,0,0
72084,-66.6666666666667,4,1,1,90,0,0
72170,-66.6666666666667,4,1,1,80,0,0
72256,-66.6666666666667,4,1,1,70,0,0
72341,-66.6666666666667,4,1,1,80,0,0
72427,-106.382978723404,4,1,2,90,0,0
72598,-107.52688172043,4,1,2,5,0,0
72641,-100,4,1,2,70,0,0
72770,-66.6666666666667,4,1,3,100,0,0
72791,-66.6666666666667,4,1,3,100,0,1
72898,-66.6666666666667,4,1,3,5,0,1
72941,-50,4,1,3,100,0,1
72984,-50,4,1,3,5,0,1
73027,-50,4,1,3,100,0,1
73070,-50,4,1,3,5,0,1
73113,-50,4,1,3,100,0,1
73284,-51.2820512820513,4,1,3,100,0,1
73413,-51.2820512820513,4,1,3,5,0,1
73456,-50,4,1,3,100,0,1
73498,-50,4,1,3,5,0,1
73541,-50,4,1,3,100,0,1
73584,-50,4,1,3,5,0,1
73627,-50,4,1,3,100,0,1
73798,-51.2820512820513,4,1,3,100,0,1
73927,-51.2820512820513,4,1,3,5,0,1
73970,-66.6666666666667,4,1,3,100,0,1
75513,-80,4,1,3,100,0,1
75641,-80,4,1,3,5,0,1
75684,-57.1428571428571,4,1,3,100,0,1
75727,-57.1428571428571,4,1,3,5,0,1
75770,-57.1428571428571,4,1,3,100,0,1
75813,-57.1428571428571,4,1,3,5,0,1
75856,-57.1428571428571,4,1,3,100,0,1
76156,-80,4,1,3,5,0,1
76199,-57.1428571428571,4,1,3,100,0,1
76242,-57.1428571428571,4,1,3,5,0,1
76285,-57.1428571428571,4,1,3,100,0,1
76328,-57.1428571428571,4,1,3,5,0,1
76371,-57.1428571428571,4,1,3,100,0,1
76670,-57.1428571428571,4,1,3,5,0,1
76713,-66.6666666666667,4,1,3,100,0,1
77056,-40,4,1,1,100,0,1
77184,-40,4,1,1,5,0,1
77227,-66.6666666666667,4,1,4,100,0,1
77270,-66.6666666666667,4,1,1,5,0,1
77313,-66.6666666666667,4,1,1,100,0,1
77356,-66.6666666666667,4,1,1,5,0,1
77399,-66.6666666666667,4,1,1,100,0,1
77441,-66.6666666666667,4,1,1,5,0,1
77484,-66.6666666666667,4,1,1,100,0,1
77527,-66.6666666666667,4,1,1,5,0,1
77570,-50,4,1,2,100,0,1
77741,-50,4,1,2,5,0,1
77784,-50,4,1,2,100,0,1
77827,-50,4,1,1,100,0,1
77998,-50,4,1,1,5,0,1
78084,-40,4,1,4,100,0,1
78213,-40,4,1,4,5,0,1
78256,-66.6666666666667,4,1,3,100,0,1
78384,-66.6666666666667,4,1,3,5,0,1
78427,-50,4,1,3,100,0,1
78470,-50,4,1,3,5,0,1
78513,-50,4,1,3,100,0,1
78556,-50,4,1,3,5,0,1
78599,-50,4,1,3,100,0,1
78898,-66.6666666666667,4,1,3,5,0,1
78941,-50,4,1,3,100,0,1
78984,-50,4,1,3,5,0,1
79027,-50,4,1,3,100,0,1
79070,-50,4,1,3,5,0,1
79113,-50,4,1,3,100,0,1
79413,-66.6666666666667,4,1,3,5,0,1
79456,-50,4,1,3,100,0,1
79627,-66.6666666666667,4,1,3,100,0,1
80270,-66.6666666666667,4,1,3,5,0,1
80313,-66.6666666666667,4,1,3,100,0,1
80741,-66.6666666666667,4,1,3,5,0,1
80827,-50,4,1,3,100,0,1
80956,-50,4,1,3,5,0,1
80998,-66.6666666666667,4,1,3,100,0,1
81127,-50,4,1,3,5,0,1
81170,-50,4,1,3,100,0,1
81213,-50,4,1,3,5,0,1
81256,-50,4,1,3,100,0,1
81298,-50,4,1,3,5,0,1
81341,-50,4,1,3,100,0,1
81641,-50,4,1,3,5,0,1
81684,-50,4,1,3,100,0,1
81727,-50,4,1,3,5,0,1
81770,-50,4,1,3,100,0,1
81812,-50,4,1,3,5,0,1
81855,-50,4,1,3,100,0,1
82156,-50,4,1,3,5,0,1
82198,-66.6666666666667,4,1,3,100,0,1
82563,-66.6666666666667,4,1,3,100,0,0
83398,-66.6666666666667,4,1,4,100,0,0
83441,-66.6666666666667,4,1,3,100,0,0
83763,-66.6666666666667,4,1,3,100,0,1
83870,-66.6666666666667,4,1,3,5,0,1
83913,-50,4,1,3,100,0,1
83956,-50,4,1,3,5,0,1
83998,-50,4,1,3,100,0,1
84041,-50,4,1,3,5,0,1
84084,-50,4,1,3,100,0,1
84384,-50,4,1,3,5,0,1
84426,-50,4,1,3,100,0,1
84470,-50,4,1,3,5,0,1
84512,-50,4,1,3,100,0,1
84556,-50,4,1,3,5,0,1
84598,-50,4,1,3,100,0,1
84898,-50,4,1,3,5,0,1
84941,-66.6666666666667,4,1,3,100,0,1
86613,-66.6666666666667,4,1,3,5,0,1
86656,-66.6666666666667,4,1,3,100,0,1
86698,-66.6666666666667,4,1,3,5,0,1
86741,-66.6666666666667,4,1,3,100,0,1
86784,-66.6666666666667,4,1,3,5,0,1
86827,-66.6666666666667,4,1,3,100,0,1
87127,-66.6666666666667,4,1,3,5,0,1
87170,-66.6666666666667,4,1,3,100,0,1
87213,-66.6666666666667,4,1,3,5,0,1
87256,-66.6666666666667,4,1,3,100,0,1
87298,-66.6666666666667,4,1,3,5,0,1
87341,-66.6666666666667,4,1,3,100,0,1
87641,-66.6666666666667,4,1,3,5,0,1
87684,-71.4285714285714,4,1,3,100,0,1
88027,-40,4,1,1,100,0,1
88156,-40,4,1,1,5,0,1
88198,-66.6666666666667,4,1,4,100,0,1
88241,-66.6666666666667,4,1,1,5,0,1
88284,-66.6666666666667,4,1,1,100,0,1
88327,-66.6666666666667,4,1,1,5,0,1
88370,-66.6666666666667,4,1,1,100,0,1
88413,-66.6666666666667,4,1,1,5,0,1
88456,-66.6666666666667,4,1,1,100,0,1
88498,-66.6666666666667,4,1,1,5,0,1
88541,-50,4,1,2,100,0,1
88713,-50,4,1,2,5,0,1
88756,-50,4,1,2,100,0,1
88798,-50,4,1,1,100,0,1
88970,-50,4,1,1,5,0,1
89056,-40,4,1,4,100,0,1
89184,-40,4,1,4,5,0,1
89227,-57.1428571428571,4,1,3,100,0,1
89356,-57.1428571428571,4,1,3,5,0,1
89398,-66.6666666666667,4,1,3,100,0,1
89441,-66.6666666666667,4,1,3,5,0,1
89484,-66.6666666666667,4,1,3,100,0,1
89527,-66.6666666666667,4,1,3,5,0,1
89570,-66.6666666666667,4,1,3,100,0,1
89870,-66.6666666666667,4,1,3,5,0,1
89913,-66.6666666666667,4,1,3,100,0,1
89956,-66.6666666666667,4,1,3,5,0,1
89999,-66.6666666666667,4,1,3,100,0,1
90042,-66.6666666666667,4,1,3,5,0,1
90085,-66.6666666666667,4,1,3,100,0,1
90385,-66.6666666666667,4,1,3,5,0,1
90428,-66.6666666666667,4,1,3,100,0,1
91970,-66.6666666666667,4,1,4,100,0,1
92013,-66.6666666666667,4,1,3,100,0,1
92098,-66.6666666666667,4,1,3,5,0,1
92141,-66.6666666666667,4,1,3,100,0,1
92184,-66.6666666666667,4,1,3,5,0,1
92227,-66.6666666666667,4,1,3,100,0,1
92270,-66.6666666666667,4,1,3,5,0,1
92313,-66.6666666666667,4,1,3,100,0,1
92484,-50,4,1,3,100,0,1
92613,-50,4,1,3,5,0,1
92656,-66.6666666666667,4,1,3,100,0,1
92698,-66.6666666666667,4,1,3,5,0,1
92741,-66.6666666666667,4,1,3,100,0,1
92784,-66.6666666666667,4,1,3,5,0,1
92827,-66.6666666666667,4,1,3,100,0,1
92998,-50,4,1,3,100,0,1
93127,-66.6666666666667,4,1,3,5,0,1
93170,-100,4,1,3,100,0,1
94113,-66.6666666666667,4,1,3,5,0,1
94156,-66.6666666666667,4,1,3,100,0,1
94198,-66.6666666666667,4,1,2,100,0,1
94391,-100,4,1,2,100,0,0
94412,-100,4,1,1,100,0,0
94498,-100,4,1,1,5,0,0
94541,-100,4,1,1,100,0,0
94713,-90.9090909090908,4,1,1,70,0,0
95741,-80,4,1,1,70,0,0
95827,-80,4,1,1,5,0,0
95870,-90.9090909090909,4,1,1,70,0,0
96256,-71.4285714285714,4,1,1,70,0,0
96298,-71.4285714285714,4,1,1,5,0,0
96341,-71.4285714285714,4,1,1,70,0,0
96384,-71.4285714285714,4,1,1,5,0,0
96427,-90.9090909090909,4,1,1,70,0,0
97113,-90.9090909090909,4,1,1,70,0,0
97241,-90.9090909090909,4,1,1,5,0,0
97284,-90.9090909090909,4,1,1,70,0,0
97413,-90.9090909090909,4,1,1,5,0,0
97456,-90.9090909090909,4,1,1,70,0,0
98570,-90.9090909090909,4,1,1,5,0,0
98613,-90.9090909090909,4,1,1,70,0,0
98998,-90.9090909090909,4,1,1,90,0,0
99084,-90.9090909090909,4,1,1,75,0,0
99170,-90.9090909090909,4,1,1,60,0,0
99256,-90.9090909090909,4,1,1,50,0,0
99513,-71.4285714285714,4,1,1,50,0,0
99598,-71.4285714285714,4,1,1,5,0,0
99641,-71.4285714285714,4,1,1,50,0,0
99770,-71.4285714285714,4,1,1,5,0,0
99813,-90.9090909090909,4,1,1,70,0,0
101313,-90.9090909090909,4,1,1,5,0,0
101356,-90.9090909090909,4,1,1,70,0,0
101741,-80,4,1,1,70,0,0
101827,-80,4,1,1,5,0,0
101870,-80,4,1,1,70,0,0
101998,-80,4,1,1,5,0,0
102041,-80,4,1,1,70,0,0
102213,-80,4,1,1,5,0,0
102256,-80,4,1,1,70,0,0
102898,-80,4,1,1,5,0,0
102941,-125,4,1,1,70,0,0
103070,-125,4,1,1,5,0,0
103113,-125,4,1,1,70,0,0
103756,-125,4,1,1,5,0,0
103798,-105.263157894737,4,1,1,70,0,0
104441,-105.263157894737,4,1,1,5,0,0
104484,-90.9090909090909,4,1,1,70,0,0
104784,-90.9090909090909,4,1,1,5,0,0
104827,-83.3333333333333,4,1,1,70,0,0
105127,-83.3333333333333,4,1,1,5,0,0
105170,-100,4,1,1,70,0,0
105513,-133.333333333333,4,1,1,70,0,0
105770,-133.333333333333,4,1,1,5,0,0
105813,-100,4,1,1,70,0,0
106327,-100,4,1,1,5,0,0
106370,-100,4,1,3,70,0,0
106413,-100,4,1,3,70,0,0
107398,-100,4,1,3,5,0,0
107441,-100,4,1,3,50,0,0
107506,-100,4,1,1,50,0,0
107620,-100,4,1,1,5,0,0
107677,-100,4,1,1,100,0,0
107763,-100,4,1,1,100,0,0
107784,-100,4,1,1,99,0,0
107806,-100,4,1,1,98,0,0
107827,-100,4,1,1,97,0,0
107848,-100,4,1,1,96,0,0
107870,-100,4,1,1,95,0,0
107891,-100,4,1,1,94,0,0
107913,-100,4,1,1,93,0,0
107934,-100,4,1,1,92,0,0
107956,-100,4,1,1,91,0,0
107977,-100,4,1,1,90,0,0
107998,-100,4,1,1,89,0,0
108020,-100,4,1,1,88,0,0
108041,-100,4,1,1,87,0,0
108063,-100,4,1,1,86,0,0
108084,-100,4,1,1,85,0,0
108106,-100,4,1,1,84,0,0
108127,-100,4,1,1,83,0,0
108148,-100,4,1,1,82,0,0
108170,-100,4,1,1,81,0,0
108191,-100,4,1,1,80,0,0
108213,-100,4,1,1,79,0,0
108234,-100,4,1,1,78,0,0
108256,-100,4,1,1,77,0,0
108277,-100,4,1,1,76,0,0
108298,-100,4,1,1,75,0,0
108320,-100,4,1,1,74,0,0
108341,-100,4,1,1,73,0,0
108363,-100,4,1,1,72,0,0
108384,-100,4,1,1,71,0,0
108406,-100,4,1,1,70,0,0
108427,-100,4,1,1,69,0,0
108448,-100,4,1,1,68,0,0
108470,-100,4,1,1,67,0,0
108491,-100,4,1,1,66,0,0
108513,-100,4,1,1,65,0,0
108534,-100,4,1,1,64,0,0
108556,-100,4,1,1,63,0,0
108577,-100,4,1,1,62,0,0
108598,-100,4,1,1,61,0,0
108620,-100,4,1,1,60,0,0
108641,-100,4,1,1,59,0,0
108663,-100,4,1,1,58,0,0
108684,-100,4,1,1,57,0,0
108706,-100,4,1,1,56,0,0
108727,-100,4,1,1,55,0,0
108748,-100,4,1,1,54,0,0
108770,-100,4,1,1,53,0,0
108791,-100,4,1,1,52,0,0
108813,-100,4,1,1,51,0,0
108834,-100,4,1,1,50,0,0
108856,-100,4,1,1,49,0,0
108877,-100,4,1,1,48,0,0
108898,-100,4,1,1,47,0,0
108920,-100,4,1,1,46,0,0
108941,-100,4,1,1,45,0,0
108963,-100,4,1,1,44,0,0
108984,-100,4,1,1,43,0,0
109006,-100,4,1,1,42,0,0
109027,-100,4,1,1,41,0,0
109048,-100,4,1,1,40,0,0
109070,-100,4,1,1,39,0,0
109091,-100,4,1,1,38,0,0
109113,-100,4,1,1,37,0,0
109134,-100,4,1,1,36,0,0
109156,-100,4,1,1,35,0,0
109177,-100,4,1,1,34,0,0
109198,-100,4,1,1,33,0,0
109220,-100,4,1,1,32,0,0
109241,-100,4,1,1,31,0,0
109263,-100,4,1,1,30,0,0
109284,-100,4,1,1,29,0,0
109306,-100,4,1,1,28,0,0
109327,-100,4,1,1,27,0,0
109348,-100,4,1,1,26,0,0
109370,-100,4,1,1,25,0,0
109391,-100,4,1,1,24,0,0
109413,-100,4,1,1,23,0,0
109434,-100,4,1,1,22,0,0
109456,-100,4,1,1,21,0,0
109477,-100,4,1,1,20,0,0
109498,-100,4,1,1,19,0,0
109520,-100,4,1,1,18,0,0
109541,-100,4,1,1,17,0,0
109563,-100,4,1,1,16,0,0
109584,-100,4,1,1,15,0,0
109606,-100,4,1,1,14,0,0
109627,-100,4,1,1,13,0,0
109648,-100,4,1,1,12,0,0
109670,-100,4,1,1,11,0,0
109691,-100,4,1,1,10,0,0
109713,-100,4,1,1,9,0,0
109734,-100,4,1,1,8,0,0
109756,-100,4,1,1,7,0,0
109777,-100,4,1,1,6,0,0
109798,-100,4,1,1,5,0,0
109820,-100,4,1,1,5,0,0

[Colours]
Combo1 : 174,21,94
Combo2 : 234,207,21
Combo3 : 198,6,26
Combo4 : 219,124,30

[HitObjects]
55,25,791,6,0,P|92:46|114:102,1,100,0|0,2:0|2:0,0:0:0:0:
174,150,1048,1,0,2:0:0:0:
257,66,1134,2,0,L|239:57,3,14.9999995422363,0|0|0|0,2:0|2:0|2:0|2:0,0:0:0:0:
265,76,1306,2,0,P|228:97|210:131,1,82.5000025177003,0|0,2:0|2:0,0:0:0:0:
293,278,1477,6,0,P|290:231|296:184,1,93.75,12|0,0:2|0:0,0:0:0:0:
312,160,1648,1,0,0:0:0:0:
309,171,1734,1,0,0:0:0:0:
301,163,1820,1,2,0:2:0:0:
446,333,1991,6,0,P|446:290|441:247,1,86.2500016450882,12|0,0:2|0:0,0:0:0:0:
428,223,2163,1,0,0:0:0:0:
431,233,2248,1,0,0:0:0:0:
440,226,2334,1,2,0:2:0:0:
81,230,2506,6,0,P|119:225|159:226,1,78.7499975967408,12|0,0:2|0:0,0:0:0:0:
186,229,2677,1,0,0:0:0:0:
182,240,2763,1,0,0:0:0:0:
174,235,2849,1,2,0:2:0:0:
214,350,3020,6,0,B|174:354|140:353,1,75,12|0,0:2|0:0,0:0:0:0:
111,353,3191,1,0,0:0:0:0:
115,342,3277,1,0,0:0:0:0:
123,347,3363,1,2,0:2:0:0:
54,72,3534,5,14,0:2:0:0:
109,45,3619,1,2,0:2:0:0:
168,63,3705,1,2,0:2:0:0:
219,98,3791,1,2,0:2:0:0:
280,87,3876,1,2,0:2:0:0:
286,77,4048,6,0,P|293:145|306:210,1,131.25000500679,12|0,0:0|0:0,0:0:0:0:
339,224,4391,1,2,0:2:0:0:
421,136,4563,1,8,0:0:0:0:
374,342,4734,1,2,0:2:0:0:
220,195,4906,1,8,0:0:0:0:
466,253,5077,1,2,0:2:0:0:
250,314,5248,1,8,0:0:0:0:
363,51,5420,6,0,P|299:-1|217:17,1,175,8|0,0:0|0:0,0:0:0:0:
201,103,5763,2,0,P|233:103|263:89,1,62.5,2|0,0:2|0:0,0:0:0:0:
126,49,5934,2,0,P|111:82|111:120,1,75.0000028610231,8|0,0:0|0:0,0:0:0:0:
156,242,6106,2,0,P|172:208|173:172,1,62.5,2|0,0:2|0:0,0:0:0:0:
0,131,6277,2,0,P|16:184|30:244,1,112.500004291535,8|0,0:0|0:0,0:0:0:0:
97,317,6448,5,2,2:0:0:0:
150,335,6534,1,2,2:0:0:0:
205,322,6620,2,0,P|234:315|255:301,1,50,4|0,2:1|0:0,0:0:0:0:
460,106,6791,5,0,0:0:0:0:
466,113,6877,1,0,0:0:0:0:
471,121,6963,2,0,P|481:161|472:206,1,75.0000028610231,12|2,0:2|0:2,0:0:0:0:
381,270,7220,1,2,0:2:0:0:
377,279,7306,2,0,P|384:319|403:352,1,75.0000028610231,8|2,0:2|0:2,0:0:0:0:
376,165,7648,2,0,B|343:153|334:170|299:154,1,75.0000028610231,8|2,0:2|0:2,0:0:0:0:
276,143,7906,1,2,0:2:0:0:
286,141,7991,2,0,P|283:167|272:191,1,50,8|0,0:2|0:0,0:0:0:0:
169,310,8163,2,0,P|177:271|180:231,1,75.0000028610231,2|8,0:2|0:2,0:0:0:0:
169,37,8506,6,0,P|155:45|146:57,1,31.25,2|0,0:2|0:0,0:0:0:0:
175,29,8591,2,0,P|163:18|148:12,1,31.25,2|0,0:2|0:0,0:0:0:0:
182,22,8677,2,0,P|190:75|175:124,1,100,8|2,0:2|0:2,0:0:0:0:
2,170,9020,2,0,L|12:244,1,75.0000028610231,8|2,0:2|0:2,0:0:0:0:
68,363,9277,1,2,0:2:0:0:
59,369,9363,2,0,P|74:338|113:316,1,75,8|0,0:2|0:0,0:0:0:0:
189,284,9534,2,0,L|114:270,1,75,2|0,0:2|0:0,0:0:0:0:
197,200,9706,6,0,P|230:209|260:237,1,75.0000028610231,8|2,0:2|0:2,0:0:0:0:
311,376,9963,1,2,0:2:0:0:
319,383,10048,2,0,P|335:349|338:311,1,75.0000028610231,8|2,0:2|0:2,0:0:0:0:
319,132,10391,2,0,P|326:169|355:202,1,75.0000028610231,8|2,0:2|0:2,0:0:0:0:
459,128,10648,1,2,0:2:0:0:
451,122,10734,2,0,P|430:121|409:131,1,37.5000014305115,8|0,0:2|0:0,0:0:0:0:
440,281,10906,2,0,P|461:249|465:206,1,75.0000028610231,2|8,0:2|0:2,0:0:0:0:
190,126,11248,5,2,0:2:0:0:
170,175,11333,1,2,0:2:0:0:
179,226,11420,1,8,0:2:0:0:
206,266,11505,1,2,0:2:0:0:
218,309,11591,1,2,0:2:0:0:
216,344,11676,1,2,0:2:0:0:
202,371,11763,2,0,P|173:363|149:348,1,50,8|0,0:2|0:0,0:0:0:0:
99,247,11934,2,0,P|99:276|89:303,1,50,2|0,0:2|0:0,0:0:0:0:
48,380,12106,2,0,P|7:341|-2:291,1,100,8|0,0:2|0:0,0:0:0:0:
0,43,12448,6,0,L|17:120,1,75.0000028610231,8|2,0:2|0:2,0:0:0:0:
163,170,12706,1,2,0:2:0:0:
171,175,12791,2,0,L|154:101,1,75.0000028610231,8|2,0:2|0:2,0:0:0:0:
99,247,13134,2,0,B|108:249|108:249|106:256|106:256|113:255|113:255|119:263|119:263|130:273|164:274,1,75.0000028610231,8|2,0:2|0:2,0:0:0:0:
289,272,13391,1,2,0:2:0:0:
282,266,13477,2,0,P|257:268|240:277,1,37.5000014305115,8|0,0:2|0:0,0:0:0:0:
303,361,13648,2,0,P|346:339|363:313,1,75.0000028610231,2|8,0:2|0:2,0:0:0:0:
303,167,13991,6,0,P|327:165|351:172,1,50,2|2,0:2|0:2,0:0:0:0:
472,252,14163,2,0,P|445:254|406:234,1,50,8|0,0:2|0:0,0:0:0:0:
487,71,14334,2,0,L|466:147,1,75,2|0,0:2|0:0,0:0:0:0:
451,156,14506,2,0,P|438:103|404:73,1,100,8|2,0:2|0:2,0:0:0:0:
332,49,14763,1,2,0:2:0:0:
259,77,14848,1,8,0:2:0:0:
185,54,14934,1,2,0:2:0:0:
121,8,15020,2,0,B|96:32|96:32|89:69|95:96,1,93.75,2|0,0:2|0:0,0:0:0:0:
131,187,15191,6,0,P|143:219|142:254,1,56.2500021457673,8|0,0:0|0:0,0:0:0:0:
141,274,15363,1,0,0:0:0:0:
137,265,15448,1,0,0:0:0:0:
148,265,15534,1,8,0:2:0:0:
257,364,15706,5,8,0:2:0:0:
50,376,15877,6,0,P|37:343|37:318,1,56.2500021457673,8|0,0:0|0:0,0:0:0:0:
38,289,16049,1,0,0:0:0:0:
42,298,16134,1,0,0:0:0:0:
31,298,16220,1,8,0:2:0:0:
236,278,16391,6,0,B|270:269|312:289|286:299|327:321|368:312,1,140,8|0,0:0|0:0,0:0:0:0:
385,297,16734,5,0,0:0:0:0:
392,291,16820,1,0,0:0:0:0:
398,284,16906,2,0,P|408:258|395:206,1,78.7499975967408,8|0,0:0|0:0,0:0:0:0:
321,173,17077,5,0,0:0:0:0:
299,163,17163,1,0,0:0:0:0:
283,143,17248,2,0,P|278:105|303:55,1,86.2500016450882,8|0,0:0|0:0,0:0:0:0:
315,43,17420,6,0,P|282:41|258:32,1,50,2|0,0:2|3:0,0:0:0:0:
166,0,17591,1,0,3:0:0:0:
474,0,17763,6,0,L|463:88,1,87.5,12|0,2:1|2:0,0:0:0:0:
447,101,18106,2,0,L|455:126,1,25,0|0,2:0|2:0,0:0:0:0:
507,199,18277,1,0,2:0:0:0:
512,208,18448,1,0,2:0:0:0:
404,312,18620,1,0,2:0:0:0:
378,263,18791,1,0,2:0:0:0:
417,270,18963,1,0,2:0:0:0:
289,368,19134,6,0,P|300:329|289:285,1,87.5,12|0,2:1|2:0,0:0:0:0:
272,275,19477,1,0,2:0:0:0:
261,269,19563,1,0,2:0:0:0:
253,260,19648,2,0,P|237:226|237:203,1,56.2500021457673,0|0,2:0|2:0,0:0:0:0:
252,168,19820,1,0,2:0:0:0:
81,97,19991,6,0,P|80:138|64:172,1,75,0|0,2:0|2:0,0:0:0:0:
46,186,20163,5,0,2:0:0:0:
42,191,20220,5,0,2:0:0:0:
38,196,20277,5,0,2:0:0:0:
34,201,20334,6,0,P|20:235|20:273,1,75,8|0,2:0|2:0,0:0:0:0:
107,341,20506,2,0,P|130:334|150:313,1,50,8|0,2:0|2:0,0:0:0:0:
252,168,20677,6,0,P|220:178|199:199,1,62.5,12|0,0:0|0:0,0:0:0:0:
299,308,20848,5,2,0:2:0:0:
307,314,20934,1,2,0:2:0:0:
315,318,21020,2,0,P|332:293|341:260,1,62.5,8|0,0:0|0:0,0:0:0:0:
336,63,21191,5,2,0:2:0:0:
327,66,21277,1,2,0:2:0:0:
319,70,21363,2,0,P|325:101|353:129,1,62.5,8|0,0:0|0:0,0:0:0:0:
494,171,21534,5,2,0:2:0:0:
503,166,21620,1,2,0:2:0:0:
511,161,21706,2,0,P|478:146|445:146,1,62.5,8|2,0:0|0:2,0:0:0:0:
442,307,21877,6,0,P|452:277|457:244,1,62.5,8|0,0:0|0:0,0:0:0:0:
478,27,22048,2,0,P|444:39|412:57,1,62.5
217,109,22220,5,2,0:2:0:0:
212,118,22306,1,2,0:2:0:0:
208,127,22391,2,0,P|224:153|251:167,1,62.5,8|0,0:0|0:0,0:0:0:0:
336,275,22563,5,2,0:2:0:0:
345,303,22648,1,2,0:2:0:0:
324,338,22734,1,8,0:0:0:0:
262,340,22820,1,2,0:2:0:0:
200,305,22906,1,2,0:2:0:0:
128,296,22991,1,2,0:2:0:0:
63,328,23077,2,0,P|31:330|-2:314,1,62.5,8|0,0:0|0:0,0:0:0:0:
63,142,23248,6,0,L|48:232,1,87.5,12|0,2:1|2:0,0:0:0:0:
61,241,23591,2,0,L|84:220,1,25,0|0,2:0|2:0,0:0:0:0:
172,172,23763,1,0,2:0:0:0:
179,179,23934,1,0,2:0:0:0:
118,31,24106,1,0,2:0:0:0:
169,51,24277,1,0,2:0:0:0:
147,79,24448,1,0,2:0:0:0:
293,16,24620,6,0,P|279:54|284:101,1,87.5,12|0,2:1|2:0,0:0:0:0:
302,118,24963,1,0,2:0:0:0:
309,128,25048,1,0,2:0:0:0:
314,139,25134,2,0,P|324:172|321:199,1,56.2500021457673,0|0,2:0|2:0,0:0:0:0:
295,353,25306,6,0,P|330:310|372:300,1,93.75,0|0,2:0|2:0,0:0:0:0:
465,357,25477,2,0,P|481:310|469:257,1,93.75,0|0,2:0|2:0,0:0:0:0:
459,244,25648,5,0,2:0:0:0:
453,240,25706,5,0,2:0:0:0:
448,237,25763,5,0,2:0:0:0:
442,233,25820,6,0,P|424:188|437:145,1,93.75,8|0,2:0|2:0,0:0:0:0:
512,49,25991,2,0,L|443:39,1,62.5,8|0,2:0|2:0,0:0:0:0:
293,16,26163,6,0,L|282:85,1,62.5,12|0,0:0|0:0,0:0:0:0:
203,296,26334,1,2,0:2:0:0:
194,282,26420,1,2,0:2:0:0:
191,266,26506,2,0,P|191:236|210:204,1,62.5,8|2,0:0|0:2,0:0:0:0:
363,235,26677,2,0,P|340:256|310:264,1,62.5,2|0,0:2|0:0,0:0:0:0:
60,212,26848,6,0,P|81:191|116:182,1,62.5,8|0,0:0|0:0,0:0:0:0:
295,163,27020,1,2,0:2:0:0:
296,150,27106,1,2,0:2:0:0:
291,138,27191,2,0,P|271:111|243:99,1,62.5,8|2,0:0|0:2,0:0:0:0:
77,65,27363,6,0,B|123:93|177:53|157:43|189:0|258:6,1,200,12|2,0:0|0:2,0:0:0:0:
291,138,27877,2,0,P|263:124|245:99,1,62.5,8|0,0:0|0:0,0:0:0:0:
366,86,28048,2,0,P|387:114|391:149,1,62.5,2|0,0:2|0:0,0:0:0:0:
335,236,28220,5,2,2:0:0:0:
328,242,28306,1,2,2:0:0:0:
321,248,28391,2,0,P|250:265|131:279,1,187.500007152558,4|0,2:1|0:0,0:0:0:0:
0,222,28906,6,0,P|47:202|78:197,1,75,8|0,0:2|0:0,0:0:0:0:
86,190,29077,2,0,P|63:173|51:147,1,50,2|2,0:2|0:2,0:0:0:0:
127,46,29248,1,8,0:2:0:0:
122,56,29420,2,0,P|122:83|127:107,1,50,2|0,0:2|0:0,0:0:0:0:
222,232,29591,2,0,P|222:205|215:151,1,75,8|0,0:2|0:0,0:0:0:0:
225,139,29763,2,0,P|253:132|275:115,1,50,2|2,0:2|0:2,0:0:0:0:
345,18,29934,1,8,0:2:0:0:
338,27,30106,6,0,B|333:72|372:114|382:91|419:125|414:176,1,175,2|0,0:2|0:0,0:0:0:0:
437,220,30448,2,0,P|469:197|490:192,1,50,2|2,0:2|0:2,0:0:0:0:
512,271,30620,2,0,P|480:294|440:299,1,75,8|0,0:2|0:0,0:0:0:0:
370,269,30791,2,0,P|340:284|316:317,1,75,2|0,0:2|0:0,0:0:0:0:
227,384,30963,6,0,P|235:334|217:296,1,93.75,8|0,0:2|0:0,0:0:0:0:
196,287,31133,5,2,0:2:0:0:
191,283,31190,5,2,0:2:0:0:
186,279,31248,5,2,0:2:0:0:
181,275,31306,6,0,P|162:226|183:180,1,93.75,10|0,0:2|0:0,0:0:0:0:
196,170,31477,2,0,P|159:169|133:154,1,62.5,2|0,0:2|0:0,0:0:0:0:
0,86,31648,6,0,P|28:73|63:73,1,62.5,8|0,0:0|0:0,0:0:0:0:
59,252,31820,5,2,0:2:0:0:
58,240,31906,1,2,0:2:0:0:
56,228,31991,2,0,L|47:162,1,62.5,8|0,0:0|0:0,0:0:0:0:
196,0,32163,5,2,0:2:0:0:
194,15,32249,1,2,0:2:0:0:
192,29,32334,2,0,L|183:91,1,62.5,8|0,0:0|0:0,0:0:0:0:
289,215,32506,5,2,0:2:0:0:
291,204,32592,1,2,0:2:0:0:
292,192,32677,2,0,L|305:104,1,62.5,8|0,0:0|0:0,0:0:0:0:
412,0,32848,5,2,0:2:0:0:
454,15,32934,1,2,0:2:0:0:
478,52,33020,2,0,B|492:71|492:90|492:90|482:106|481:135,1,75.0000028610231,8|0,0:0|0:0,0:0:0:0:
421,202,33191,5,2,0:2:0:0:
366,244,33277,1,2,0:2:0:0:
358,303,33363,1,8,0:0:0:0:
393,333,33448,1,2,0:2:0:0:
414,326,33534,1,2,0:2:0:0:
415,307,33620,1,2,0:2:0:0:
394,295,33706,5,8,0:0:0:0:
314,301,33791,1,2,0:2:0:0:
245,340,33877,1,2,0:2:0:0:
167,360,33963,1,2,0:2:0:0:
93,329,34048,2,0,P|73:302|70:270,1,62.5,8|0,0:0|0:0,0:0:0:0:
218,215,34220,2,0,P|204:245|178:264,1,62.5,8|0,0:0|0:0,0:0:0:0:
134,19,34391,6,0,P|126:66|130:134,1,112.500004291535,12|0,0:2|0:0,0:0:0:0:
134,159,34563,1,0,0:0:0:0:
139,149,34648,1,0,0:0:0:0:
127,153,34734,1,2,0:2:0:0:
353,72,34905,6,0,P|360:122|356:172,1,101.250000386238,12|0,0:2|0:0,0:0:0:0:
352,201,35077,1,0,0:0:0:0:
347,191,35163,1,0,0:0:0:0:
359,195,35249,1,2,0:2:0:0:
70,274,35420,6,0,P|120:267|170:271,1,89.9999972534181,12|0,0:2|0:0,0:0:0:0:
192,271,35592,1,0,0:0:0:0:
182,276,35677,1,0,0:0:0:0:
186,264,35763,1,2,0:2:0:0:
421,330,35934,6,0,P|371:337|334:334,1,78.7499975967408,12|0,0:2|0:0,0:0:0:0:
310,334,36106,1,0,0:0:0:0:
318,327,36191,1,0,0:0:0:0:
319,336,36277,1,2,0:2:0:0:
52,64,36448,5,14,0:2:0:0:
121,31,36533,1,2,0:2:0:0:
196,54,36619,1,2,0:2:0:0:
270,74,36705,1,2,0:2:0:0:
341,51,36790,1,2,0:2:0:0:
351,41,36962,6,0,P|348:108|356:176,1,131.25000500679,12|0,0:0|0:0,0:0:0:0:
380,188,37306,5,2,0:2:0:0:
385,197,37391,1,0,0:0:0:0:
388,206,37477,2,0,P|394:240|381:276,1,62.5,8|0,0:0|0:0,0:0:0:0:
275,384,37648,5,2,0:2:0:0:
273,374,37733,1,0,0:0:0:0:
274,364,37819,2,0,P|286:331|315:306,1,62.5,8|0,0:0|0:0,0:0:0:0:
457,320,37991,2,0,P|429:339|392:346,1,62.5,2|0,0:2|0:0,0:0:0:0:
244,224,38163,2,0,P|274:221|305:229,1,62.5,8|0,0:0|0:0,0:0:0:0:
476,171,38334,6,0,P|447:118|391:91,1,120,12|0,0:0|0:0,0:0:0:0:
360,86,38677,1,0,0:0:0:0:
328,89,38763,1,0,0:0:0:0:
293,108,38848,1,8,0:0:0:0:
268,155,38934,1,0,0:0:0:0:
226,219,39020,1,8,0:0:0:0:
147,230,39106,1,8,0:0:0:0:
90,173,39191,2,0,P|80:133|92:95,1,82.5000025177003,4|0,0:0|0:0,0:0:0:0:
158,31,39534,6,0,P|198:44|227:75,1,86.2500016450882
282,34,39706,2,0,P|249:48|226:78,1,71.2499980974198
194,158,39877,6,0,P|233:162|273:152,1,75.0000028610231,12|0,0:2|0:0,0:0:0:0:
437,232,40220,2,0,P|398:228|358:238,1,75.0000028610231,2|0,0:2|0:0,0:0:0:0:
376,57,40563,2,0,P|376:94|370:136,1,75.0000028610231,8|0,0:0|0:0,0:0:0:0:
213,313,40906,2,0,P|231:290|255:278,1,50,2|0,0:2|0:0,0:0:0:0:
373,334,41077,2,0,P|291:353|213:313,1,175,8|0,0:2|0:0,0:0:0:0:
138,263,41420,6,0,P|124:290|123:315,1,50
18,384,41591,2,0,P|25:359|24:334,1,50,8|0,0:2|0:0,0:0:0:0:
55,195,41763,2,0,P|45:218|43:243,1,50
141,175,41934,2,0,P|129:142|96:116,1,75.0000028610231,8|0,0:0|0:0,0:0:0:0:
25,48,42191,1,0,0:0:0:0:
30,40,42277,2,0,P|64:20|88:16,1,56.2500021457673,2|0,0:2|0:0,0:0:0:0:
110,0,42448,2,0,P|116:25|140:51,1,56.2500021457673,8|0,0:2|0:0,0:0:0:0:
255,129,42620,6,0,P|260:90|242:53,1,75.0000028610231,8|0,0:2|0:0,0:0:0:0:
207,256,42963,2,0,P|246:243|285:237,1,75.0000028610231,2|0,0:2|0:0,0:0:0:0:
490,320,43306,2,0,P|468:286|463:252,1,75.0000028610231,8|0,0:0|0:0,0:0:0:0:
512,111,43648,2,0,P|503:134|487:156,1,44.999998626709,2|0,0:2|0:0,0:0:0:0:
369,267,43820,2,0,B|387:232|377:187|361:207|350:164|370:124,1,140,8|0,0:2|0:0,0:0:0:0:
385,107,44163,5,0,0:0:0:0:
424,67,44248,1,0,0:0:0:0:
411,15,44334,1,10,0:2:0:0:
361,0,44420,1,0,0:0:0:0:
313,23,44506,1,0,0:0:0:0:
268,49,44591,1,0,0:0:0:0:
216,46,44677,2,0,P|187:42|167:31,1,50,8|0,0:0|0:0,0:0:0:0:
55,0,44848,2,0,P|67:21|75:49,1,50,2|8,0:2|0:2,0:0:0:0:
32,200,45020,2,0,P|66:162|120:150,1,100,8|8,0:2|0:2,0:0:0:0:
256,297,45363,6,0,P|223:318|182:321,1,75.0000028610231,12|0,0:2|0:0,0:0:0:0:
364,238,45706,2,0,P|397:258|414:290,1,75.0000028610231,2|0,0:2|0:0,0:0:0:0:
215,204,46048,2,0,P|228:168|247:136,1,75.0000028610231,8|0,0:0|0:0,0:0:0:0:
401,83,46391,2,0,P|413:104|419:121,1,40,2|0,0:2|0:0,0:0:0:0:
445,198,46563,2,0,P|473:129|489:41,1,157.499995193482,8|0,0:2|0:0,0:0:0:0:
502,8,46906,6,0,P|477:-1|438:1,1,62.5
260,18,47077,2,0,P|280:35|317:46,1,62.5,8|0,0:2|0:0,0:0:0:0:
401,83,47248,2,0,P|371:119|322:141,1,93.75
283,149,47420,2,0,P|334:184|364:238,1,125,8|0,0:0|0:0,0:0:0:0:
368,317,47677,1,0,0:0:0:0:
311,369,47763,1,2,0:2:0:0:
235,359,47848,1,0,0:0:0:0:
181,304,47934,2,0,P|159:256|160:208,1,93.75,8|0,0:2|0:0,0:0:0:0:
158,36,48106,6,0,P|163:62|161:104,1,63.7500012159348,8|0,0:2|0:0,0:0:0:0:
151,127,48277,1,0,0:0:0:0:
143,122,48363,1,0,0:0:0:0:
149,117,48448,1,2,0:2:0:0:
219,203,48620,6,0,P|183:214|152:215,1,62.5
0,239,48791,6,0,P|-2:208|0:183,1,56.2500021457673,8|0,0:0|0:0,0:0:0:0:
16,150,48962,1,0,0:0:0:0:
24,155,49048,1,0,0:0:0:0:
18,160,49133,1,2,0:2:0:0:
250,115,49306,6,0,P|298:153|308:227,1,131.25000500679,8|0,0:2|0:0,0:0:0:0:
311,251,49648,1,0,0:0:0:0:
332,223,49734,1,0,0:0:0:0:
376,200,49820,1,8,0:2:0:0:
434,204,49906,1,0,0:0:0:0:
487,245,49991,1,0,0:0:0:0:
502,312,50077,1,0,0:0:0:0:
474,373,50163,6,0,P|439:357|420:324,1,75.0000028610231,8|8,0:2|0:2,0:0:0:0:
402,301,50420,1,8,0:2:0:0:
408,308,50506,2,0,P|407:346|387:380,1,75.0000028610231,4|0,0:0|0:0,0:0:0:0:
58,284,50848,5,12,0:2:0:0:
69,302,50933,1,0,0:0:0:0:
87,317,51019,1,0,0:0:0:0:
108,325,51105,1,0,0:0:0:0:
130,326,51191,2,0,P|160:317|179:301,1,50,8|0,0:2|0:0,0:0:0:0:
134,162,51363,2,0,P|126:192|131:216,1,50
221,207,51534,5,8,0:2:0:0:
229,188,51620,1,0,0:0:0:0:
233,168,51705,1,0,0:0:0:0:
232,148,51791,1,0,0:0:0:0:
225,129,51877,2,0,P|222:104|231:73,1,50,8|0,0:2|0:0,0:0:0:0:
347,39,52048,5,0,0:0:0:0:
365,50,52134,1,0,0:0:0:0:
378,65,52220,2,0,P|381:90|372:121,1,50,8|0,0:2|0:0,0:0:0:0:
310,218,52391,2,0,L|367:202,1,50
512,164,52563,5,8,0:2:0:0:
477,166,52648,1,0,0:0:0:0:
455,145,52734,2,0,P|456:170|469:201,1,50
508,290,52906,5,8,0:2:0:0:
485,328,52991,1,0,0:0:0:0:
451,354,53077,2,0,L|461:376,1,25,2|0,0:3|0:0,0:0:0:0:
408,360,53163,2,0,L|398:338,1,25,2|0,0:3|0:0,0:0:0:0:
306,384,53248,5,8,0:2:0:0:
315,371,53333,1,0,0:0:0:0:
319,352,53420,1,0,0:0:0:0:
309,325,53505,1,0,0:0:0:0:
277,303,53591,1,8,0:2:0:0:
222,314,53677,1,0,0:0:0:0:
178,354,53763,1,0,0:0:0:0:
120,367,53848,1,0,0:0:0:0:
62,348,53934,2,0,P|40:330|31:309,1,50,8|0,0:2|0:0,0:0:0:0:
99,211,54106,2,0,P|113:232|119:258,1,50
9,203,54277,5,8,0:2:0:0:
27,152,54363,1,0,0:0:0:0:
75,124,54448,2,0,P|110:122|132:127,1,50
225,173,54620,5,8,0:2:0:0:
232,182,54706,2,0,P|251:197|279:204,1,50
433,273,54877,5,0,0:0:0:0:
432,262,54963,2,0,P|416:241|392:229,1,50,10|0,0:2|0:0,0:0:0:0:
441,139,55134,2,0,P|416:129|380:131,1,56.5000001724243,2|0,0:2|0:0,0:0:0:0:
379,27,55306,2,0,P|353:30|321:51,1,62.5,10|0,0:2|0:0,0:0:0:0:
101,138,55477,6,0,P|121:138|146:129,1,37.5000014305115,2|0,0:3|0:0,0:0:0:0:
112,58,55563,2,0,P|102:37|85:18,1,37.5000014305115,2|0,0:3|0:0,0:0:0:0:
39,86,55648,2,0,P|21:123|24:162,1,75.0000028610231,2|2,0:0|0:3,0:0:0:0:
105,299,55820,6,0,P|117:306|130:321,1,31.25,2|0,0:0|0:0,0:0:0:0:
84,341,55906,2,0,P|69:348|50:354,1,31.25,2|0,0:0|0:0,0:0:0:0:
56,302,55991,2,0,P|60:270|79:246,1,62.5,2|2,0:3|0:3,0:0:0:0:
215,227,56163,2,0,P|221:255|218:282,1,50,2|2,0:3|0:3,0:0:0:0:
327,384,56334,6,0,P|325:344|334:317,1,62.5,12|0,0:2|0:0,0:0:0:0:
462,223,56506,1,0,0:0:0:0:
468,232,56591,1,0,0:0:0:0:
473,242,56677,2,0,P|464:281|448:304,1,62.5,8|0,0:2|0:0,0:0:0:0:
343,230,56848,2,0,P|356:201|381:179,1,62.5
423,66,57020,5,8,0:2:0:0:
416,60,57106,2,0,P|387:61|352:79,1,62.5
207,221,57277,5,0,0:0:0:0:
215,227,57363,2,0,P|240:204|253:176,1,62.5,8|0,0:2|0:0,0:0:0:0:
259,39,57534,5,0,0:0:0:0:
246,24,57620,1,0,0:0:0:0:
228,15,57706,2,0,P|189:12|159:26,1,62.5,8|0,0:2|0:0,0:0:0:0:
109,96,57877,2,0,P|136:112|167:116,1,62.5
45,18,58048,5,8,0:2:0:0:
21,40,58134,1,0,0:0:0:0:
11,70,58220,2,0,P|9:102|24:135,1,62.5
161,235,58391,5,8,0:2:0:0:
154,297,58477,1,0,0:0:0:0:
108,338,58563,2,0,L|104:369,1,31.25,2|0,0:3|0:0,0:0:0:0:
50,354,58648,2,0,L|64:381,1,31.25,2|0,0:3|0:0,0:0:0:0:
46,271,58734,5,8,0:2:0:0:
48,252,58820,1,0,0:0:0:0:
53,227,58906,1,0,0:0:0:0:
67,192,58991,1,0,0:0:0:0:
106,147,59077,1,8,0:2:0:0:
180,137,59163,1,0,0:0:0:0:
247,176,59248,1,0,0:0:0:0:
319,213,59334,1,0,0:0:0:0:
399,201,59420,2,0,P|433:192|459:170,1,62.5,8|0,0:2|0:0,0:0:0:0:
259,19,59591,2,0,P|249:52|255:86,1,62.5
348,139,59763,5,8,0:2:0:0:
399,201,59848,1,0,0:0:0:0:
391,280,59934,2,0,P|378:318|359:341,1,62.5
250,374,60106,5,8,0:2:0:0:
186,355,60191,1,0,0:0:0:0:
154,296,60277,2,0,P|154:264|161:234,1,62.5
216,47,60448,6,0,P|183:115|88:137,1,175.00000166893,8|2,0:0|0:2,0:0:0:0:
119,46,60706,1,2,0:2:0:0:
227,38,60791,6,0,P|192:123|75:146,1,209.999993591309,8|2,0:0|0:2,0:0:0:0:
111,37,61048,1,2,0:2:0:0:
237,30,61134,6,0,P|274:54|298:111,1,100,8|0,0:2|0:0,0:0:0:0:
367,277,61306,2,0,P|360:234|380:182,1,100,8|2,0:2|0:2,0:0:0:0:
478,54,61477,2,0,B|482:59|480:64|489:72|489:72|487:85|495:95|495:95|493:107|498:118|498:118|493:129|498:141|498:141|491:152|493:167|493:167|485:179|484:191|484:191|476:199|471:214|471:214|459:221|453:234|453:234|440:240|432:252|432:252|419:255|409:265|409:265|394:267|382:276|382:276|374:275|374:275|367:277,1,300,8|0,0:2|0:0,3:0:0:0:
163,296,61820,6,0,P|189:266|225:255,1,75.0000028610231,12|0,0:0|0:0,0:0:0:0:
235,341,61991,1,2,0:2:0:0:
174,379,62077,1,2,0:2:0:0:
103,357,62163,2,0,P|80:322|77:285,1,75.0000028610231,8|0,0:1|0:0,0:0:0:0:
236,127,62334,2,0,P|211:164|181:181,1,75.0000028610231,2|0,0:2|0:0,0:0:0:0:
156,97,62506,5,8,0:1:0:0:
207,47,62591,1,2,0:2:0:0:
279,52,62677,1,0,0:0:0:0:
320,112,62763,1,2,0:2:0:0:
299,180,62848,2,0,P|298:226|321:257,1,75.0000028610231,8|0,0:1|0:0,0:0:0:0:
493,365,63020,5,2,0:2:0:0:
512,297,63106,1,2,0:2:0:0:
488,230,63191,2,0,P|464:202|430:188,1,75.0000028610231,8|0,0:1|0:0,0:0:0:0:
193,163,63363,2,0,P|188:199|211:241,1,75.0000028610231,2|0,0:2|0:0,0:0:0:0:
274,384,63534,5,8,0:1:0:0:
261,358,63620,1,0,0:0:0:0:
228,339,63706,1,2,0:2:0:0:
175,336,63791,1,2,0:2:0:0:
112,356,63877,1,8,0:1:0:0:
49,335,63963,1,0,0:0:0:0:
14,277,64048,2,0,P|5:292|-1:315,1,37.5000014305115,2|0,0:3|0:0,0:0:0:0:
32,213,64134,2,0,P|42:230|49:252,1,37.5000014305115,2|0,0:3|0:0,0:0:0:0:
129,203,64220,5,8,0:1:0:0:
193,163,64306,1,2,0:2:0:0:
210,89,64391,1,2,0:2:0:0:
169,24,64477,1,0,0:0:0:0:
94,7,64563,2,0,P|95:50|114:81,1,75.0000028610231,8|0,0:1|0:0,0:0:0:0:
266,214,64734,2,0,P|282:180|282:143,1,75.0000028610231,2|2,0:2|0:2,0:0:0:0:
405,41,64906,2,0,P|389:75|389:112,1,75.0000028610231,8|0,0:1|0:0,0:0:0:0:
512,237,65077,5,2,0:2:0:0:
460,215,65163,1,0,0:0:0:0:
416,229,65248,1,8,0:1:0:0:
430,287,65334,1,2,0:2:0:0:
403,340,65420,1,2,0:2:0:0:
348,363,65506,1,2,0:2:0:0:
270,338,65591,5,8,0:1:0:0:
264,322,65677,2,0,L|187:341,1,75.0000028610231,2|0,0:2|0:0,0:0:0:0:
0,366,65848,5,2,0:2:0:0:
6,382,65934,2,0,L|83:363,1,75.0000028610231,8|0,0:1|0:0,0:0:0:0:
343,275,66106,2,0,P|311:239|273:231,1,75.0000028610231,2|0,0:2|0:0,0:0:0:0:
50,235,66277,2,0,P|95:223|124:191,1,75.0000028610231,8|0,0:1|0:0,0:0:0:0:
195,0,66448,5,2,0:2:0:0:
126,31,66534,1,2,0:2:0:0:
115,105,66620,2,0,P|160:107|202:98,1,75.0000028610231,8|0,0:1|0:0,0:0:0:0:
354,36,66791,2,0,P|352:76|341:122,1,75.0000028610231,2|0,0:2|0:0,0:0:0:0:
343,275,66963,2,0,P|372:244|408:236,1,75.0000028610231,8|0,0:1|0:0,0:0:0:0:
508,361,67134,2,0,P|467:347|444:317,1,75.0000028610231,2|0,0:2|0:0,0:0:0:0:
510,79,67306,6,0,P|518:120|504:155,1,75.0000028610231,12|0,0:0|0:0,0:0:0:0:
403,236,67477,1,2,0:2:0:0:
343,275,67563,1,2,0:2:0:0:
274,263,67648,2,0,P|241:247|216:217,1,75.0000028610231,8|0,0:1|0:0,0:0:0:0:
354,36,67820,2,0,P|356:72|343:109,1,75.0000028610231,2|0,0:2|0:0,0:0:0:0:
115,204,67991,5,8,0:1:0:0:
93,239,68077,2,0,L|106:317,1,75.0000028610231,2|0,0:2|0:0,0:0:0:0:
264,373,68248,5,2,0:2:0:0:
286,336,68334,2,0,L|273:258,1,75.0000028610231,8|0,0:1|0:0,0:0:0:0:
211,56,68506,5,2,0:2:0:0:
227,135,68591,1,2,0:2:0:0:
295,178,68677,2,0,P|329:194|372:188,1,75.0000028610231,12|0,0:0|0:0,0:0:0:0:
510,79,68848,2,0,P|479:100|462:140,1,75.0000028610231,2|0,0:2|0:0,0:0:0:0:
475,268,69020,5,8,0:1:0:0:
437,339,69106,1,0,0:0:0:0:
361,367,69191,1,2,0:2:0:0:
286,336,69277,1,2,0:2:0:0:
237,272,69363,2,0,P|206:250|169:245,1,75.0000028610231,8|0,0:1|0:0,0:0:0:0:
17,280,69534,6,0,P|3:298|-3:318,1,37.5000014305115,2|0,0:3|0:0,0:0:0:0:
22,322,69620,2,0,P|8:338|2:360,1,37.5000014305115,2|0,0:3|0:0,0:0:0:0:
89,371,69706,5,8,0:1:0:0:
154,324,69791,1,2,0:2:0:0:
171,245,69877,1,2,0:2:0:0:
128,178,69963,1,0,0:0:0:0:
131,98,70048,2,0,P|170:80|213:88,1,87.500000834465,12|0,0:0|0:0,0:0:0:0:
269,159,70220,5,2,0:2:0:0:
213,88,70306,1,2,0:2:0:0:
253,8,70391,2,0,P|288:33|301:75,1,87.500000834465,8|0,0:1|0:0,0:0:0:0:
269,159,70563,5,2,0:2:0:0:
301,75,70649,1,0,0:0:0:0:
395,68,70734,2,0,P|387:111|359:144,1,87.500000834465,12|2,0:0|0:2,0:0:0:0:
269,159,70906,5,2,0:2:0:0:
359,144,70992,1,2,0:2:0:0:
407,220,71077,2,0,P|365:233|322:225,1,87.500000834465,8|2,0:1|0:2,0:0:0:0:
269,159,71248,5,2,0:2:0:0:
323,226,71334,1,2,0:2:0:0:
292,310,71420,2,0,L|139:344,1,150.000005722046,12|0,0:0|0:0,0:0:0:0:
0,293,71677,2,0,L|151:257,1,150.000005722046,12|0,0:0|0:0,0:0:0:0:
269,159,71934,2,0,L|170:180,1,94.9999974632264,12|0,0:0|0:0,0:0:0:0:
213,88,72106,5,12,0:0:0:0:
301,75,72191,1,12,0:2:0:0:
358,144,72277,1,8,0:2:0:0:
324,226,72363,1,8,0:2:0:0:
236,242,72448,2,0,P|196:219|176:178,1,93.9999985656739,4|0,0:0|0:0,0:0:0:0:
512,25,72791,6,0,P|508:81|501:139,1,112.500004291535,12|0,0:2|0:0,0:0:0:0:
395,309,72963,6,0,P|378:290|371:264,1,50
348,274,73048,2,0,P|355:250|374:231,1,50
456,252,73134,2,0,P|478:319|460:361,1,100,8|0,0:0|0:0,0:0:0:0:
242,383,73306,2,0,B|232:351|243:325|243:325|232:301|232:301|245:269|235:241,1,146.250000557899
144,74,73477,6,0,P|135:98|137:127,1,50,8|0,0:2|0:0,0:0:0:0:
109,118,73563,2,0,P|122:140|146:156,1,50
220,109,73648,2,0,P|226:63|194:7,1,100
0,0,73820,2,0,B|-7:29|10:62|10:62|0:83|0:83|14:114|6:140,1,146.250000557899,8|0,0:0|0:0,0:0:0:0:
32,346,73991,5,0,0:0:0:0:
51,284,74077,1,0,0:0:0:0:
107,251,74163,2,0,P|148:250|188:268,1,75.0000028610231,8|0,0:2|0:0,0:0:0:0:
316,359,74334,5,2,0:2:0:0:
292,311,74420,1,2,0:2:0:0:
292,250,74506,1,8,0:0:0:0:
323,191,74591,1,2,0:2:0:0:
362,127,74677,1,2,0:2:0:0:
347,52,74763,1,2,0:2:0:0:
289,3,74848,5,10,0:2:0:0:
263,75,74934,1,2,0:2:0:0:
283,139,75020,1,2,0:2:0:0:
329,175,75106,1,2,0:2:0:0:
385,197,75191,1,8,0:0:0:0:
429,224,75277,1,2,0:2:0:0:
454,260,75363,1,2,0:2:0:0:
460,307,75448,1,2,0:2:0:0:
445,345,75534,6,0,P|399:326|348:311,1,93.75,8|0,0:2|0:0,0:0:0:0:
179,262,75706,6,0,P|201:263|224:271,1,43.7500004172325
199,293,75791,2,0,P|208:312|213:335,1,43.7500004172325
180,326,75877,2,0,P|164:348|96:367,1,87.500000834465,8|0,0:0|0:0,0:0:0:0:
34,224,76048,2,0,B|69:182|69:182|151:161,1,131.250001251698
362,127,76220,6,0,P|340:132|318:143,1,43.7500004172325,8|0,0:2|0:0,0:0:0:0:
347,161,76305,2,0,P|340:181|340:205,1,43.7500004172325
372,190,76391,2,0,P|391:208|461:215,1,87.500000834465
511,68,76563,2,0,B|473:35|473:35|384:26,1,131.250001251698,8|0,0:0|0:0,0:0:0:0:
213,105,76734,5,0,0:0:0:0:
234,153,76820,1,0,0:0:0:0:
224,205,76906,2,0,P|207:239|178:261,1,75.0000028610231,8|0,0:2|0:0,0:0:0:0:
89,369,77077,6,0,B|96:364|97:354|97:354|106:349|109:338|109:338|120:337|123:326|123:326|134:326|138:316|138:316|149:318|156:309|156:309|166:312|172:306|172:306|181:312|191:305|191:305|201:310|212:308|212:308|219:316|228:314|228:314|234:323|245:320,1,187.5,2|0,0:0|0:0,0:0:0:0:
421,359,77248,6,0,P|430:379|446:369,1,37.5000014305115,2|0,0:3|0:0,0:0:0:0:
408,336,77334,2,0,P|410:358|428:354,1,37.5000014305115,2|0,0:3|0:0,0:0:0:0:
404,310,77420,2,0,P|398:331|416:334,1,37.5000014305115,2|0,0:3|0:0,0:0:0:0:
409,284,77506,2,0,P|396:302|412:311,1,37.5000014305115,2|0,0:3|0:0,0:0:0:0:
422,266,77591,6,0,B|426:262|426:262|427:256|427:256|423:249|429:243|429:243|422:238|427:230|427:230|420:227|418:219|418:219|408:218|403:211|403:211|394:214|386:209|386:209|379:214|369:213|369:213|363:218|355:220|355:220|351:227|342:231|342:231|340:243|331:244|331:244|330:255|322:260|322:260|321:273|315:279|315:279,1,200,10|0,0:0|0:0,0:0:0:0:
504,307,77848,6,0,B|505:297|511:295|511:295|509:284|517:276|517:276|513:266|520:255|520:255|514:245|520:232|520:232|512:224|517:213|517:213|508:206|511:195|511:195|500:187|501:176|501:176|490:173|489:160|489:160|479:157|474:146|474:146|461:139,1,200,10|0,0:0|0:0,0:0:0:0:
220,122,78106,6,0,B|217:131|217:131|218:140|218:140|224:147|222:157|222:157|231:158|231:168|231:168|240:166|246:174|246:174|254:169|262:173|262:173|269:166|279:168|279:168|283:160|292:162|292:162|294:152|305:150|305:150|307:138|316:134|316:134|319:122|325:117|325:117|325:105,1,187.5,10|0,0:0|0:0,0:0:0:0:
258,18,78277,6,0,P|197:10|146:42,1,112.500004291535,8|0,0:2|0:0,0:0:0:0:
0,118,78448,6,0,L|12:170,1,50
18,139,78534,2,0,L|30:191,1,50
36,160,78620,2,0,B|51:186|47:209|47:209|37:262,1,100,8|0,0:0|0:0,0:0:0:0:
81,357,78791,2,0,B|108:345|115:310|115:310|134:211,1,150
220,122,78963,6,0,L|232:174,1,50,8|0,0:2|0:0,0:0:0:0:
238,143,79049,2,0,L|250:195,1,50
256,164,79135,2,0,B|272:192|267:213|267:213|257:261,1,100
303,367,79306,2,0,B|330:354|337:320|337:320|357:220,1,150,8|0,0:0|0:0,0:0:0:0:
423,109,79477,5,0,0:0:0:0:
441,130,79563,1,0,0:0:0:0:
459,151,79648,2,0,B|481:183|481:183|477:218,1,75.0000028610231,8|0,0:2|0:0,0:0:0:0:
209,312,79820,2,0,B|225:276|225:276|258:261,1,75.0000028610231,2|0,0:2|0:0,0:0:0:0:
504,307,79991,5,8,0:0:0:0:
459,329,80077,1,2,0:2:0:0:
409,323,80163,2,0,P|367:287|355:234,1,112.500004291535,2|0,0:2|0:0,0:0:0:0:
423,109,80334,5,10,0:2:0:0:
356,59,80420,1,2,0:2:0:0:
273,60,80506,1,2,0:2:0:0:
220,122,80591,1,2,0:2:0:0:
139,129,80677,2,0,P|96:118|68:89,1,75.0000028610231,8|0,0:0|0:0,0:0:0:0:
14,0,80848,2,0,P|25:74|-5:153,1,150,2|0,0:2|0:0,0:0:0:0:
9,360,81020,6,0,P|-1:305|23:246,1,112.500004291535,8|0,0:2|0:0,0:0:0:0:
167,303,81191,6,0,P|148:313|117:315,1,50
128,345,81277,2,0,P|109:334|92:308,1,50
116,235,81363,2,0,P|165:218|221:237,1,100,8|0,0:0|0:0,0:0:0:0:
329,377,81534,2,0,B|300:334|300:334|303:230,1,150
349,72,81706,6,0,P|367:61|398:59,1,50,8|0,0:2|0:0,0:0:0:0:
388,30,81792,2,0,P|406:40|423:66,1,50
400,140,81877,2,0,P|354:157|292:134,1,100
189,0,82048,2,0,B|218:43|218:43|215:147,1,150,8|0,0:0|0:0,0:0:0:0:
28,201,82220,5,0,0:0:0:0:
70,133,82306,1,0,0:0:0:0:
147,115,82391,2,0,P|184:120|215:140,1,75.0000028610231,8|0,0:2|0:0,0:0:0:0:
227,313,82563,5,8,0:2:0:0:
304,288,82648,1,0,0:0:0:0:
333,214,82734,1,0,0:0:0:0:
395,169,82820,1,0,0:0:0:0:
460,169,82906,1,0,0:0:0:0:
509,204,82991,1,0,0:0:0:0:
506,215,83077,5,8,0:2:0:0:
481,112,83163,1,0,0:0:0:0:
390,66,83248,1,0,0:0:0:0:
290,88,83334,1,0,0:0:0:0:
233,167,83420,1,12,0:0:0:0:
142,199,83506,1,0,0:0:0:0:
52,165,83591,1,0,0:0:0:0:
23,74,83677,1,0,0:0:0:0:
86,0,83763,6,0,P|143:18|202:42,1,112.500004291535,12|0,0:2|0:0,0:0:0:0:
392,169,83934,6,0,P|395:198|386:221,1,50
423,217,84020,2,0,P|404:240|382:249,1,50
335,315,84106,2,0,P|311:288|307:219,1,100,8|0,0:0|0:0,0:0:0:0:
305,20,84277,2,0,P|301:91|249:151,1,150
66,245,84448,6,0,P|59:215|67:192,1,50,8|0,0:2|0:0,0:0:0:0:
30,199,84534,2,0,P|46:173|67:162,1,50
110,94,84620,2,0,P|135:118|145:186,1,100
164,384,84791,2,0,P|161:313|208:249,1,150,8|0,0:0|0:0,0:0:0:0:
475,172,84963,5,0,0:0:0:0:
425,138,85048,1,0,0:0:0:0:
365,143,85134,2,0,P|336:170|326:206,1,75.0000028610231,8|0,0:2|0:0,0:0:0:0:
292,377,85306,5,2,0:2:0:0:
338,329,85391,1,2,0:2:0:0:
356,264,85477,1,8,0:0:0:0:
328,204,85563,1,2,0:2:0:0:
279,157,85648,1,2,0:2:0:0:
257,91,85734,1,2,0:2:0:0:
290,31,85820,5,10,0:2:0:0:
275,74,85906,1,2,0:2:0:0:
225,94,85991,1,2,0:2:0:0:
177,84,86077,1,2,0:2:0:0:
142,50,86163,1,8,0:0:0:0:
102,22,86248,1,2,0:2:0:0:
53,23,86334,1,2,0:2:0:0:
16,53,86420,1,2,0:2:0:0:
8,99,86506,6,0,B|8:124|33:143|33:143|84:182,1,112.500004291535,8|0,0:2|0:0,0:0:0:0:
193,203,86677,6,0,P|183:223|173:247,1,37.5000014305115
199,218,86763,2,0,P|186:241|179:262,1,37.5000014305115
204,232,86848,2,0,P|185:267|172:303,1,75.0000028610231,8|0,0:0|0:0,0:0:0:0:
240,384,87020,2,0,P|266:338|286:279,1,112.500004291535
261,106,87191,6,0,P|267:129|278:151,1,37.5000014305115,8|0,0:2|0:0,0:0:0:0:
275,112,87277,2,0,P|281:134|292:157,1,37.5000014305115
289,118,87362,2,0,P|302:160|317:190,1,75.0000028610231
422,200,87534,2,0,P|407:148|380:93,1,112.500004291535,8|0,0:0|0:0,0:0:0:0:
225,16,87706,5,0,0:0:0:0:
172,35,87792,1,0,0:0:0:0:
146,84,87878,2,0,P|135:117|142:152,1,69.9999978637696,8|0,0:2|0:0,0:0:0:0:
184,270,88048,6,0,B|180:264|182:254|182:254|173:247|172:235|172:235|162:232|161:221|161:221|150:219|148:208|148:208|137:208|131:199|131:199|121:200|116:193|116:193|105:195|97:189|97:189|87:192|76:188|76:188|69:194|56:194|56:194|46:199,1,187.5,2|0,0:0|0:0,0:0:0:0:
87,290,88220,6,0,P|68:296|73:317,1,37.5000014305115,2|0,0:3|0:0,0:0:0:0:
96,317,88306,2,0,P|80:327|91:346,1,37.5000014305115,2|0,0:3|0:0,0:0:0:0:
112,339,88391,2,0,P|99:353|115:368,1,37.5000014305115,2|0,0:3|0:0,0:0:0:0:
134,356,88477,2,0,P|126:373|145:383,1,37.5000014305115,2|0,0:3|0:0,0:0:0:0:
160,366,88563,6,0,B|172:361|182:370|182:370|193:364|204:368|204:368|214:359|226:361|226:361|235:350|246:349|246:349|249:339|260:335|260:335|263:323|272:317|272:317|271:307|280:300|280:300|279:288|284:279|284:279|280:272|284:264|284:264|282:255,1,200,10|0,0:0|0:0,0:0:0:0:
304,57,88820,6,0,B|301:40|294:28|278:23|262:27|252:40|252:57|259:71|271:81|284:88|295:95|305:103|313:114|319:127|321:140|320:154|314:170,1,200,10|0,0:0|0:0,0:0:0:0:
437,297,89077,6,0,B|439:313|446:325|462:330|478:326|488:313|488:297|482:283|470:273|457:266|446:259|437:251|428:240|422:227|420:213|422:198,1,187.5,10|0,0:0|0:0,0:0:0:0:
456,78,89248,6,0,P|455:142|421:198,1,131.250001251698,8|0,0:2|0:0,0:0:0:0:
283,259,89420,6,0,P|270:277|249:292,1,37.5000014305115
242,250,89506,2,0,P|219:248|196:237,1,37.5000014305115
230,205,89591,2,0,P|221:169|231:134,1,75.0000028610231,8|0,0:0|0:0,0:0:0:0:
304,57,89763,2,0,P|279:107|231:134,1,112.500004291535
37,189,89934,6,0,P|14:184|-6:169,1,37.5000014305115,8|0,0:2|0:0,0:0:0:0:
29,147,90020,2,0,P|21:125|23:99,1,37.5000014305115
66,120,90105,2,0,P|96:98|133:93,1,75.0000028610231
231,133,90277,2,0,P|168:125|125:79,1,112.500004291535,8|0,0:0|0:0,0:0:0:0:
304,57,90448,5,0,0:0:0:0:
349,65,90534,1,0,0:0:0:0:
396,74,90620,2,0,L|381:154,1,75.0000028610231,8|0,0:2|0:0,0:0:0:0:
361,340,90791,5,2,0:2:0:0:
335,289,90877,1,2,0:2:0:0:
282,258,90963,1,8,0:0:0:0:
208,256,91048,1,2,0:2:0:0:
147,295,91134,1,2,0:2:0:0:
119,365,91220,1,2,0:2:0:0:
128,372,91306,5,10,0:2:0:0:
138,288,91391,1,2,0:2:0:0:
106,217,91477,1,2,0:2:0:0:
56,165,91563,1,2,0:2:0:0:
33,102,91648,1,8,0:0:0:0:
48,43,91734,1,2,0:2:0:0:
94,15,91820,1,2,0:2:0:0:
146,27,91906,1,2,0:2:0:0:
174,72,91991,6,0,P|225:105|288:99,1,112.500004291535,12|0,0:2|0:0,0:0:0:0:
465,105,92163,6,0,P|483:115|504:114,1,37.5000014305115
465,105,92248,2,0,P|464:83|453:66,1,37.5000014305115
465,105,92334,2,0,P|440:128|426:173,1,75.0000028610231,8|0,0:0|0:0,0:0:0:0:
416,258,92506,2,0,B|379:261|345:231|365:222|325:191|282:198|282:198|280:198,1,150
98,187,92677,6,0,P|79:197|58:196,1,37.5000014305115,8|0,0:2|0:0,0:0:0:0:
98,187,92763,2,0,P|98:165|110:147,1,37.5000014305115
97,186,92848,2,0,P|123:212|136:254,1,75.0000028610231
174,381,93020,2,0,P|239:358|284:289,1,150,8|0,0:0|0:0,0:0:0:0:
275,103,93191,6,0,P|268:156|289:202,1,100,8|0,0:2|0:0,0:0:0:0:
496,274,93534,2,0,P|496:249|488:225,1,50
426,165,93706,1,8,0:2:0:0:
338,160,93791,1,0,0:0:0:0:
263,217,93877,1,0,0:0:0:0:
172,235,93963,1,0,0:0:0:0:
98,187,94048,2,0,P|75:171|65:151,1,50,8|0,0:0|0:0,0:0:0:0:
151,21,94220,5,2,2:0:0:0:
191,28,94306,1,2,2:0:0:0:
224,50,94391,2,0,P|252:70|271:107,1,75,4|0,2:1|0:0,0:0:0:0:
346,244,94563,5,0,0:0:0:0:
342,234,94648,1,0,0:0:0:0:
341,224,94734,2,0,P|371:182|431:165,1,110.000003356934,12|2,0:2|0:2,0:0:0:0:
506,337,94991,1,2,0:2:0:0:
512,343,95077,2,0,P|452:337|402:321,1,110.000003356934,8|2,0:2|0:2,0:0:0:0:
139,304,95420,2,0,B|168:309|195:289|184:284|209:263|246:271,1,110.000003356934,8|2,0:2|0:2,0:0:0:0:
266,289,95677,1,2,0:2:0:0:
272,298,95763,2,0,P|270:328|264:361,1,62.5,8|0,0:2|0:0,0:0:0:0:
136,215,95934,2,0,P|126:160|121:97,1,110.000003356934,2|8,0:2|0:2,0:0:0:0:
354,74,96277,6,0,P|341:61|325:54,1,34.9999989318848,2|0,0:2|0:0,0:0:0:0:
363,77,96362,2,0,P|371:60|373:42,1,34.9999989318848,2|0,0:2|0:0,0:0:0:0:
371,83,96448,2,0,P|311:72|254:70,1,110.000003356934,8|2,0:2|0:2,0:0:0:0:
43,42,96791,2,0,P|92:57|122:110,1,110.000003356934,8|2,0:2|0:2,0:0:0:0:
41,215,97048,1,2,0:2:0:0:
34,210,97134,2,0,P|35:162|42:125,1,82.5000025177003,8|0,0:2|0:0,0:0:0:0:
136,215,97306,2,0,P|135:263|128:300,1,82.5000025177003,2|0,0:2|0:0,0:0:0:0:
30,329,97477,6,0,P|75:297|133:298,1,110.000003356934,8|2,0:2|0:2,0:0:0:0:
334,353,97734,1,2,0:2:0:0:
323,360,97820,2,0,P|266:350|223:317,1,110.000003356934,8|2,0:2|0:2,0:0:0:0:
220,188,98163,2,0,P|271:177|329:171,1,110.000003356934,8|2,0:2|0:2,0:0:0:0:
311,81,98420,1,2,0:2:0:0:
301,76,98506,2,0,P|269:78|244:89,1,55.0000016784668,8|0,0:2|0:0,0:0:0:0:
135,218,98677,2,0,P|136:156|170:111,1,110.000003356934,2|8,0:2|0:2,0:0:0:0:
396,107,99020,5,2,0:2:0:0:
415,163,99105,1,2,0:2:0:0:
403,219,99192,1,8,0:2:0:0:
370,261,99277,1,2,0:2:0:0:
354,309,99363,1,2,0:2:0:0:
354,348,99448,1,2,0:2:0:0:
368,378,99535,2,0,P|400:373|428:345,1,69.9999978637696,8|0,0:2|0:0,0:0:0:0:
328,171,99706,2,0,P|303:194|294:237,1,69.9999978637696,2|0,0:2|0:0,0:0:0:0:
511,238,99877,2,0,P|457:226|403:219,1,110.000003356934,8|0,0:2|0:0,0:0:0:0:
136,123,100220,6,0,P|170:148|183:215,1,110.000003356934,8|2,0:2|0:2,0:0:0:0:
36,298,100477,1,2,0:2:0:0:
30,289,100563,2,0,P|36:231|56:174,1,110.000003356934,8|2,0:2|0:2,0:0:0:0:
136,123,100906,2,0,B|133:112|133:112|136:115|136:115|135:108|135:108|138:110|138:110|138:97|138:97|136:105|136:105|137:80|128:56|115:36,1,110.000003356934,8|2,0:2|0:2,0:0:0:0:
13,136,101163,1,2,0:2:0:0:
21,139,101248,2,0,P|42:158|53:185,1,55.0000016784668,8|0,0:2|0:0,0:0:0:0:
139,288,101420,2,0,P|178:322|231:347,1,110.000003356934,2|8,0:2|0:2,0:0:0:0:
434,209,101763,6,0,P|405:197|370:201,1,62.5,2|2,0:2|0:2,0:0:0:0:
237,231,101934,2,0,P|261:249|296:254,1,62.5,8|0,0:2|0:0,0:0:0:0:
301,42,102106,2,0,L|312:140,1,93.75,2|0,0:2|0:0,0:0:0:0:
298,161,102277,2,0,P|255:126|184:130,1,125,8|2,0:2|0:2,0:0:0:0:
129,182,102534,1,2,0:2:0:0:
51,194,102620,1,8,0:2:0:0:
0,134,102706,1,2,0:2:0:0:
16,55,102791,2,0,P|45:67|80:126,1,93.75,2|0,0:2|0:0,0:0:0:0:
100,263,102963,6,0,P|103:292|100:324,1,60,8|0,0:0|0:0,0:0:0:0:
90,356,103134,1,0,0:0:0:0:
83,350,103220,1,0,0:0:0:0:
91,345,103306,1,8,0:2:0:0:
0,296,103477,5,8,0:2:0:0:
220,353,103648,6,0,P|217:324|220:292,1,60,8|0,0:0|0:0,0:0:0:0:
227,263,103819,1,0,0:0:0:0:
234,269,103905,1,0,0:0:0:0:
225,275,103991,1,8,0:2:0:0:
512,247,104163,6,0,B|467:235|426:262|451:273|406:301|356:286,1,166.249995560646,8|0,0:0|0:0,0:0:0:0:
340,278,104506,5,0,0:0:0:0:
333,269,104591,1,0,0:0:0:0:
329,258,104677,2,0,P|323:223|344:178,1,82.5000025177003,8|0,0:0|0:0,0:0:0:0:
436,157,104848,5,0,0:0:0:0:
455,141,104933,1,0,0:0:0:0:
462,117,105019,2,0,P|465:75|436:24,1,89.9999972534181,8|0,0:0|0:0,0:0:0:0:
436,0,105191,6,0,L|385:33,1,50,2|0,0:2|3:0,0:0:0:0:
320,85,105363,1,0,3:0:0:0:
156,25,105534,6,0,P|197:57|205:127,1,112.500004291535,12|0,0:0|0:0,0:0:0:0:
186,251,105877,1,2,0:2:0:0:
192,256,105963,1,2,0:2:0:0:
198,260,106048,2,0,B|267:275|309:212|309:212|286:216|261:208,1,175,8|0,0:0|0:0,0:0:0:0:
256,192,106391,5,12,0:2:0:0:
256,192,106434,12,0,107420,0:0:0:0:
99,282,107534,5,2,0:2:0:0:
97,289,107591,2,0,P|104:304|115:316,1,33.3333333333333,2|0,0:2|0:0,0:0:0:0:
256,192,107763,12,0,109820,0:0:0:0:
