osu file format v14

[General]
AudioFilename: audio.mp3
AudioLeadIn: 0
PreviewTime: 71377
Countdown: 0
SampleSet: Normal
StackLeniency: 0.3
Mode: 0
LetterboxInBreaks: 0
WidescreenStoryboard: 1

[Editor]
Bookmarks: 1477,6963,17763,23248,28906,34391,39534,50848,60448,71420,72791,82391,83763,91991,94734,106391
DistanceSpacing: 1.5
BeatDivisor: 16
GridSize: 8
TimelineZoom: 2.2

[Metadata]
Title:Chinese Restaurant
TitleUnicode:Chinese Restaurant
Artist:Memme
ArtistUnicode:Memme
Creator:Marioo83
Version:Hard ft. bluirre
Source:Pump It Up Prime
Tags:ParkMemme Electronic China Dance Oriental Arcade PIUP Instrumental Orange_ Delta_ bluirre
BeatmapID:3409743
BeatmapSetID:1631530

[Difficulty]
HPDrainRate:4
CircleSize:2.8
OverallDifficulty:6
ApproachRate:8
SliderMultiplier:1.6
SliderTickRate:1

[Events]
//Background and Video events
0,0,"cute wallpaper.jpg",0,0
//Break Periods
2,51048,59698
//Storyboard Layer 0 (Background)
//Storyboard Layer 1 (Fail)
//Storyboard Layer 2 (Pass)
//Storyboard Layer 3 (Foreground)
//Storyboard Layer 4 (Overlay)
//Storyboard Sound Samples

[TimingPoints]
106,342.857142857143,4,1,1,50,1,0
770,-100,4,1,1,50,0,0
1456,-100,4,1,1,80,0,0
4027,-133.333333333333,4,1,1,80,0,0
6427,-133.333333333333,4,1,2,80,0,0
6641,-133.333333333333,4,1,1,80,0,0
6770,-100,4,1,1,70,0,0
15170,-100,4,1,1,80,0,0
16370,-133.333333333333,4,1,1,80,0,0
16884,-120.481927710843,4,1,1,80,0,0
17227,-100,4,1,1,80,0,0
17398,-100,4,1,1,80,0,0
17741,-133.333333333333,4,1,1,60,0,0
19970,-120.481927710843,4,1,1,60,0,0
20656,-100,4,1,1,80,0,0
23227,-133.333333333333,4,1,1,60,0,0
25284,-117.647058823529,4,1,1,60,0,0
26141,-100,4,1,1,80,0,0
27341,-117.647058823529,4,1,1,80,0,0
28198,-133.333333333333,4,1,2,50,0,0
28413,-133.333333333333,4,1,1,50,0,0
28713,-133.333333333333,4,1,1,50,0,0
28884,-100,4,1,1,70,0,0
31627,-100,4,1,1,80,0,0
36941,-117.647058823529,4,1,1,80,0,0
39170,-117.647058823529,4,1,2,80,0,0
39213,-117.647058823529,4,1,1,80,0,0
39513,-117.647058823529,4,1,1,80,0,0
39856,-133.333333333333,4,1,1,60,0,0
40541,-133.333333333333,4,1,3,60,0,0
40584,-133.333333333333,4,1,1,60,0,0
41913,-133.333333333333,4,1,3,60,0,0
41956,-133.333333333333,4,1,1,60,0,0
43284,-133.333333333333,4,1,3,60,0,0
43327,-133.333333333333,4,1,1,60,0,0
44656,-133.333333333333,4,1,3,60,0,0
44699,-133.333333333333,4,1,1,60,0,0
46027,-133.333333333333,4,1,3,60,0,0
46070,-133.333333333333,4,1,1,60,0,0
47398,-133.333333333333,4,1,3,60,0,0
47441,-133.333333333333,4,1,1,60,0,0
47741,-117.647058823529,4,1,1,60,0,0
48084,-117.647058823529,4,1,1,60,0,0
48770,-117.647058823529,4,1,3,60,0,0
48813,-117.647058823529,4,1,1,60,0,0
50313,-117.647058823529,4,1,1,60,0,0
50484,-117.647058823529,4,1,2,60,0,0
50827,-117.647058823529,4,1,3,60,0,0
51170,-117.647058823529,4,1,1,60,0,0
60427,-100,4,1,1,70,0,0
61713,-100,4,1,1,5,0,0
61756,-100,4,1,1,80,0,0
65913,-105.263157894737,4,1,1,80,0,0
66598,-100,4,1,1,80,0,0
67284,-86.9565217391304,4,1,2,85,0,0
67327,-86.9565217391304,4,1,1,85,0,0
71398,-100,4,1,1,75,0,0
72084,-100,4,1,1,75,0,0
72427,-100,4,1,2,80,0,0
72770,-83.3333333333333,4,1,3,90,0,0
72791,-83.3333333333333,4,1,3,90,0,1
74484,-100,4,1,3,90,0,1
75513,-83.3333333333333,4,1,3,90,0,1
77056,-83.3333333333333,4,1,1,90,0,1
77227,-83.3333333333333,4,1,4,90,0,1
77270,-83.3333333333333,4,1,1,90,0,1
77570,-83.3333333333333,4,1,2,90,0,1
77827,-83.3333333333333,4,1,1,90,0,1
78084,-83.3333333333333,4,1,4,90,0,1
78256,-83.3333333333333,4,1,3,90,0,1
82541,-100,4,1,3,90,0,1
82563,-100,4,1,3,70,0,0
83398,-100,4,1,4,70,0,0
83441,-100,4,1,3,70,0,0
83741,-83.3333333333333,4,1,3,70,0,0
83763,-83.3333333333333,4,1,3,90,0,1
85456,-100,4,1,3,90,0,1
86484,-83.3333333333333,4,1,3,90,0,1
88027,-83.3333333333333,4,1,1,90,0,1
88198,-83.3333333333333,4,1,4,90,0,1
88241,-83.3333333333333,4,1,1,90,0,1
88541,-83.3333333333333,4,1,2,90,0,1
88798,-83.3333333333333,4,1,1,90,0,1
89056,-83.3333333333333,4,1,4,90,0,1
89227,-83.3333333333333,4,1,3,90,0,1
90941,-100,4,1,3,90,0,1
91970,-83.3333333333333,4,1,4,90,0,1
92013,-83.3333333333333,4,1,3,90,0,1
93148,-100,4,1,3,90,0,1
94198,-100,4,1,2,90,0,1
94412,-100,4,1,1,90,0,1
94713,-90.9090909090909,4,1,1,70,0,1
94734,-90.9090909090909,4,1,1,70,0,0
102941,-90.9090909090909,4,1,1,80,0,0
105170,-90.9090909090909,4,1,1,80,0,0
105513,-90.9090909090909,4,1,1,70,0,0
105941,-90.9090909090909,4,1,1,60,0,0
106027,-90.9090909090909,4,1,1,50,0,0
106263,-90.9090909090909,4,1,1,5,0,0
106348,-90.9090909090909,4,1,1,70,0,0
106370,-90.9090909090909,4,1,3,70,0,0
106563,-90.9090909090909,4,1,3,90,0,0
106606,-90.9090909090909,4,1,3,89,0,0
106648,-90.9090909090909,4,1,3,88,0,0
106691,-90.9090909090909,4,1,3,86,0,0
106734,-100,4,1,3,85,0,0
106777,-100,4,1,3,84,0,0
106820,-100,4,1,3,83,0,0
106863,-100,4,1,3,82,0,0
106906,-100,4,1,3,81,0,0
106948,-100,4,1,3,80,0,0
106991,-100,4,1,3,79,0,0
107034,-100,4,1,3,78,0,0
107077,-100,4,1,3,77,0,0
107115,-100,4,1,3,76,0,0
107153,-100,4,1,3,75,0,0
107191,-100,4,1,3,74,0,0
107229,-100,4,1,3,73,0,0
107267,-100,4,1,3,72,0,0
107306,-100,4,1,3,71,0,0
107344,-100,4,1,3,70,0,0
107382,-100,4,1,3,69,0,0
107420,-100,4,1,3,68,0,0
107458,-100,4,1,3,67,0,0
107496,-100,4,1,3,66,0,0
107506,-100,4,1,1,66,0,0
107534,-100,4,1,1,65,0,0
107572,-100,4,1,1,64,0,0
107610,-100,4,1,1,63,0,0
107648,-100,4,1,1,62,0,0
107686,-100,4,1,1,61,0,0
107725,-100,4,1,1,60,0,0
107763,-100,4,1,1,59,0,0
107801,-100,4,1,1,58,0,0
107839,-100,4,1,1,57,0,0
107877,-100,4,1,1,56,0,0
107915,-100,4,1,1,55,0,0
107953,-100,4,1,1,54,0,0
107991,-100,4,1,1,53,0,0
108029,-100,4,1,1,52,0,0
108067,-100,4,1,1,51,0,0
108106,-100,4,1,1,50,0,0
108144,-100,4,1,1,49,0,0
108182,-100,4,1,1,48,0,0
108220,-100,4,1,1,47,0,0
108258,-100,4,1,1,46,0,0
108296,-100,4,1,1,45,0,0
108334,-100,4,1,1,44,0,0
108372,-100,4,1,1,43,0,0
108410,-100,4,1,1,42,0,0
108448,-100,4,1,1,41,0,0
108486,-100,4,1,1,40,0,0
108525,-100,4,1,1,29,0,0
108563,-100,4,1,1,38,0,0
108601,-100,4,1,1,37,0,0
108639,-100,4,1,1,36,0,0
108677,-100,4,1,1,35,0,0
108715,-100,4,1,1,34,0,0
108753,-100,4,1,1,33,0,0
108791,-100,4,1,1,32,0,0
108829,-100,4,1,1,31,0,0
108867,-100,4,1,1,30,0,0
108906,-100,4,1,1,29,0,0
108944,-100,4,1,1,28,0,0
108982,-100,4,1,1,27,0,0
109020,-100,4,1,1,26,0,0
109058,-100,4,1,1,25,0,0
109096,-100,4,1,1,24,0,0
109134,-100,4,1,1,23,0,0
109172,-100,4,1,1,22,0,0
109210,-100,4,1,1,21,0,0
109248,-100,4,1,1,20,0,0
109286,-100,4,1,1,19,0,0
109325,-100,4,1,1,18,0,0
109363,-100,4,1,1,17,0,0
109401,-100,4,1,1,16,0,0
109439,-100,4,1,1,15,0,0
109477,-100,4,1,1,14,0,0
109515,-100,4,1,1,13,0,0
109553,-100,4,1,1,12,0,0
109591,-100,4,1,1,11,0,0
109629,-100,4,1,1,10,0,0
109667,-100,4,1,1,9,0,0
109706,-100,4,1,1,8,0,0
109744,-100,4,1,1,7,0,0
109782,-100,4,1,1,6,0,0
109820,-100,4,1,1,5,0,0

[Colours]
Combo1 : 174,21,94
Combo2 : 234,207,21
Combo3 : 198,6,26
Combo4 : 219,124,30

[HitObjects]
58,53,791,6,0,P|59:100|78:130,1,80,0|0,2:0|2:0,0:0:0:0:
107,143,1048,1,0,2:0:0:0:
111,147,1134,2,0,B|131:158|131:158|127:190|137:216,1,80,0|0,2:0|2:0,0:0:0:0:
215,271,1477,5,12,0:2:0:0:
286,187,1648,2,0,L|289:145,2,40,0|0|2,0:0|0:0|0:2,0:0:0:0:
386,218,1991,1,12,0:2:0:0:
440,129,2162,2,0,L|443:87,2,40,0|0|2,0:0|0:0|0:2,0:0:0:0:
352,71,2506,5,12,0:2:0:0:
289,148,2677,2,0,L|286:187,2,40,0|0|2,0:0|0:0|0:2,0:0:0:0:
200,92,3020,1,12,0:2:0:0:
124,154,3191,2,0,L|139:191,2,40,0|0|2,0:0|0:0|0:2,0:0:0:0:
20,133,3534,5,14,0:2:0:0:
16,129,3620,1,2,0:2:0:0:
12,125,3706,2,0,P|16:105|28:88,2,40,2|2|2,0:2|0:2|0:2,0:0:0:0:
62,234,4048,6,0,P|89:265|167:276,1,120.000004577637,12|2,0:0|0:2,0:0:0:0:
226,222,4563,1,8,0:0:0:0:
305,205,4734,1,2,0:2:0:0:
360,264,4906,1,8,0:0:0:0:
349,344,5077,1,2,0:2:0:0:
423,379,5248,1,8,0:0:0:0:
510,338,5420,6,0,P|519:288|494:222,1,120.000004577637,8|2,0:0|0:2,0:0:0:0:
413,188,5934,2,0,P|410:153|419:127,1,60.0000022888184,8|2,0:0|0:2,0:0:0:0:
483,67,6277,1,8,0:0:0:0:
405,21,6448,2,0,P|415:8|428:-4,2,30.0000011444092,2|2|4,2:0|2:0|2:1,0:0:0:0:
319,86,6791,5,0,0:0:0:0:
315,90,6877,1,0,0:0:0:0:
311,94,6963,2,0,P|276:109|232:110,1,80,12|2,0:2|0:2,0:0:0:0:
147,68,7306,2,0,P|138:114|148:153,1,80,8|2,0:2|0:2,0:0:0:0:
209,215,7648,2,0,B|193:237|193:237|133:241,1,80,8|2,0:2|0:2,0:0:0:0:
49,273,7991,1,8,0:2:0:0:
100,354,8163,2,0,B|115:331|115:331|175:327,1,80,2|8,0:2|0:2,0:0:0:0:
268,317,8506,5,2,0:2:0:0:
273,314,8591,1,2,0:2:0:0:
278,311,8677,2,0,B|303:295|303:295|311:245,1,80,8|2,0:2|0:2,0:0:0:0:
335,146,9020,2,0,P|378:167|402:197,1,80,8|2,0:2|0:2,0:0:0:0:
432,226,9277,1,2,0:2:0:0:
437,223,9363,2,0,P|459:191|460:144,1,80,8|2,0:2|0:2,0:0:0:0:
476,57,9706,6,0,P|432:60|396:82,1,80,8|2,0:2|0:2,0:0:0:0:
335,146,10048,2,0,P|292:160|253:153,1,80,8|2,0:2|0:2,0:0:0:0:
190,86,10391,2,0,P|144:81|110:101,1,80,8|2,0:2|0:2,0:0:0:0:
53,171,10734,1,8,0:2:0:0:
89,259,10906,2,0,P|124:295|153:306,1,80,2|8,0:2|0:2,0:0:0:0:
245,268,11248,5,2,0:2:0:0:
249,263,11334,1,2,0:2:0:0:
253,259,11420,2,0,P|274:252|305:257,4,40,8|2|2|2|8,0:2|0:2|0:2|0:2|0:2,0:0:0:0:
290,354,11934,1,2,0:2:0:0:
394,327,12106,2,0,P|418:290|423:249,1,80,8|0,0:2|0:0,0:0:0:0:
402,161,12448,6,0,P|412:118|438:88,1,80,8|2,0:2|0:2,0:0:0:0:
510,32,12791,2,0,P|458:38|426:27,1,80,8|2,0:2|0:2,0:0:0:0:
339,2,13134,2,0,P|304:13|273:52,1,80,8|2,0:2|0:2,0:0:0:0:
261,140,13477,1,8,0:2:0:0:
169,110,13648,2,0,L|152:197,1,80,2|8,0:2|0:2,0:0:0:0:
146,291,13991,6,0,B|130:275|109:272|109:272|88:280|66:271,2,80,2|8|2,0:2|0:2|0:2,0:0:0:0:
237,334,14506,1,8,0:2:0:0:
329,287,14677,1,2,0:2:0:0:
332,282,14763,1,2,0:2:0:0:
335,277,14848,2,0,P|329:256|318:239,2,40,8|2|2,0:2|0:2|0:2,0:0:0:0:
411,337,15191,5,8,0:0:0:0:
502,312,15363,2,0,P|511:329|517:357,2,40,0|0|8,0:0|0:0|0:2,0:0:0:0:
448,232,15706,1,8,0:2:0:0:
512,163,15877,1,8,0:0:0:0:
471,76,16048,2,0,P|475:56|485:38,2,40,0|0|8,0:0|0:0|0:2,0:0:0:0:
407,145,16391,6,0,P|352:160|292:143,1,120.000004577637,8|0,0:0|0:0,0:0:0:0:
272,116,16820,1,0,0:0:0:0:
268,112,16906,2,0,P|237:98|205:98,1,66.4000009625244,8|0,0:0|0:0,0:0:0:0:
174,121,17163,1,0,0:0:0:0:
171,127,17248,2,0,P|140:154|102:163,1,80,8|2,0:0|0:2,0:0:0:0:
1,153,17591,1,0,3:0:0:0:
18,247,17763,6,0,B|36:278|36:278|123:283,1,120.000004577637,12|0,2:1|2:0,0:0:0:0:
206,257,18277,1,0,2:0:0:0:
288,293,18448,2,0,B|272:351,2,60.0000022888184,0|0|0,2:0|2:0|2:0,0:0:0:0:
322,208,18963,1,0,2:0:0:0:
251,152,19134,6,0,P|311:119|362:128,1,120.000004577637,12|0,2:1|2:0,0:0:0:0:
350,28,19648,2,0,P|316:24|285:30,1,60.0000022888184,0|0,2:0|2:0,0:0:0:0:
200,46,19991,2,0,P|169:69|137:74,1,66.4000009625244,0|0,2:0|2:0,0:0:0:0:
92,60,20248,1,0,2:0:0:0:
88,64,20334,2,0,L|65:137,1,66.4000009625244,8|8,2:0|2:0,0:0:0:0:
4,191,20677,5,12,0:0:0:0:
48,275,20848,2,0,L|40:318,2,40,2|2|8,0:2|0:2|0:0,0:0:0:0:
139,243,21191,2,0,L|147:200,2,40,2|2|8,0:2|0:2|0:0,0:0:0:0:
219,296,21534,2,0,L|211:339,2,40,2|2|8,0:2|0:2|0:0,0:0:0:0:
262,210,21877,6,0,B|308:146|349:207|402:136,1,160,8|2,0:0|0:2,0:0:0:0:
395,96,22306,1,2,0:2:0:0:
393,90,22391,2,0,P|366:63|319:48,1,80,8|2,0:0|0:2,0:0:0:0:
285,61,22648,1,2,0:2:0:0:
281,66,22734,2,0,P|252:79|232:81,4,40,8|2|2|2|8,0:0|0:2|0:2|0:2|0:0,0:0:0:0:
145,93,23248,6,0,B|106:109|106:109|64:180,1,120.000004577637,12|0,2:1|2:0,0:0:0:0:
51,265,23763,1,0,2:0:0:0:
126,312,23934,2,0,L|104:372,2,60.0000022888184,0|0|0,2:0|2:0|2:0,0:0:0:0:
203,266,24448,1,0,2:0:0:0:
303,291,24620,6,0,B|332:274|332:274|330:232|338:188,1,120.000004577637,12|0,2:1|2:0,0:0:0:0:
334,97,25134,1,0,2:0:0:0:
379,20,25306,1,0,2:0:0:0:
467,37,25477,2,0,P|488:69|488:100,1,68.0000012969971,0|0,2:0|2:0,0:0:0:0:
462,140,25734,1,0,2:0:0:0:
458,144,25820,2,0,P|454:177|466:210,1,68.0000012969971,8|8,2:0|2:0,0:0:0:0:
404,321,26163,6,0,P|374:297|325:289,1,80,12|2,0:0|0:2,0:0:0:0:
290,308,26420,1,2,0:2:0:0:
288,314,26506,2,0,P|278:330|258:346,2,40,8|2|2,0:0|0:2|0:2,0:0:0:0:
189,282,26848,2,0,P|149:286|111:316,1,80,8|2,0:0|0:2,0:0:0:0:
82,327,27106,1,2,0:2:0:0:
77,331,27191,2,0,P|50:329|29:314,1,40,8|2,0:0|0:2,0:0:0:0:
2,279,27363,6,0,B|10:238|47:219|46:245|89:215|94:181,1,136.000002593994,12|2,0:0|0:2,0:0:0:0:
63,95,27877,2,0,P|105:92|133:100,1,68.0000012969971,8|2,0:0|0:2,0:0:0:0:
217,150,28220,1,2,2:0:0:0:
220,155,28306,1,2,2:0:0:0:
223,160,28391,2,0,P|261:192|333:193,1,120.000004577637,4|0,2:1|0:0,0:0:0:0:
459,123,28906,6,0,P|426:95|389:88,1,80,8|2,0:2|0:2,0:0:0:0:
297,110,29248,1,8,0:2:0:0:
257,16,29420,2,0,P|291:4|339:5,2,80,2|8|2,0:2|0:2|0:2,0:0:0:0:
175,78,29934,1,8,0:2:0:0:
103,13,30106,6,0,B|73:45|73:45|90:108|81:170,1,160,2|2,0:2|0:2,0:0:0:0:
8,225,30620,2,0,P|43:251|82:258,1,80,8|2,0:2|0:2,0:0:0:0:
225,249,30963,2,0,P|182:264|159:296,1,80,8|2,0:2|0:2,0:0:0:0:
170,339,31220,1,0,0:0:0:0:
173,344,31306,2,0,P|214:375|245:380,1,80,10|2,0:2|0:2,0:0:0:0:
324,334,31648,5,8,0:0:0:0:
412,280,31820,2,0,L|421:242,2,40,2|2|8,0:2|0:2|0:0,0:0:0:0:
451,152,32163,2,0,L|489:161,2,40,2|2|8,0:2|0:2|0:0,0:0:0:0:
360,122,32506,2,0,L|372:84,2,40,2|2|8,0:2|0:2|0:0,0:0:0:0:
334,215,32848,5,2,0:2:0:0:
331,220,32934,1,2,0:2:0:0:
328,225,33020,2,0,P|284:243|250:240,1,80,8|2,0:0|0:2,0:0:0:0:
208,224,33277,1,2,0:2:0:0:
204,220,33363,2,0,P|184:183|182:144,1,80,8|2,0:0|0:2,0:0:0:0:
162,56,33706,5,8,0:0:0:0:
165,50,33791,1,2,0:2:0:0:
166,44,33877,2,0,P|158:23|143:6,2,40,2|2|8,0:2|0:2|0:0,0:0:0:0:
185,149,34220,1,8,0:0:0:0:
304,128,34391,5,12,0:2:0:0:
287,217,34563,2,0,L|279:264,2,40,0|0|2,0:0|0:0|0:2,0:0:0:0:
413,146,34906,1,12,0:2:0:0:
396,235,35078,2,0,L|388:282,2,40,0|0|2,0:0|0:0|0:2,0:0:0:0:
314,346,35420,5,12,0:2:0:0:
280,256,35592,2,0,L|288:209,2,40,0|0|2,0:0|0:0|0:2,0:0:0:0:
182,291,35934,1,12,0:2:0:0:
156,193,36106,2,0,L|114:213,2,40,0|0|2,0:0|0:0|0:2,0:0:0:0:
209,111,36448,5,14,0:2:0:0:
205,107,36534,1,2,0:2:0:0:
201,103,36620,2,0,P|186:86|177:67,2,40,2|2|2,0:2|0:2|0:2,0:0:0:0:
282,42,36963,6,0,B|336:-3|407:30|429:86|408:147|359:166|359:166|340:172|323:177|282:179|220:235|263:324,1,476.00000907898,12|8,0:0|0:0,0:0:0:0:
350,275,38334,6,0,P|315:239|175:277,1,204.000003890991,12|8,0:0|0:0,0:0:0:0:
85,336,39020,1,8,0:0:0:0:
81,332,39106,1,8,0:0:0:0:
77,328,39191,2,0,P|54:272|66:187,1,136.000002593994,4|0,0:0|0:0,0:0:0:0:
133,135,39706,1,0,0:0:0:0:
163,31,39877,6,0,P|205:11|223:11,1,60.0000022888184,12|0,0:2|0:0,0:0:0:0:
303,49,40220,2,0,P|296:82|282:107,1,60.0000022888184,2|0,0:2|0:0,0:0:0:0:
287,196,40563,2,0,P|316:192|344:175,1,60.0000022888184,8|0,0:0|0:0,0:0:0:0:
390,103,40906,1,2,0:2:0:0:
400,7,41077,6,0,P|463:38|484:88,1,120.000004577637,8|0,0:2|0:0,0:0:0:0:
459,174,41591,2,0,P|473:203|498:224,1,60.0000022888184,8|0,0:2|0:0,0:0:0:0:
477,315,41934,2,0,P|448:297|419:293,1,60.0000022888184,8|0,0:0|0:0,0:0:0:0:
387,314,42191,1,0,0:0:0:0:
383,318,42277,2,0,P|359:334|323:335,1,60.0000022888184,2|8,0:2|0:2,0:0:0:0:
283,258,42620,6,0,P|255:282|243:305,1,60.0000022888184,8|0,0:2|0:0,0:0:0:0:
179,381,42963,2,0,P|172:348|156:322,1,60.0000022888184,2|0,0:2|0:0,0:0:0:0:
62,318,43306,2,0,P|69:285|86:262,1,60.0000022888184,8|0,0:0|0:0,0:0:0:0:
147,187,43648,1,2,0:2:0:0:
246,163,43820,6,0,P|190:95|103:95,1,180.000006866455,8|10,0:2|0:2,0:0:0:0:
230,11,44677,1,8,0:0:0:0:
309,55,44848,1,2,0:2:0:0:
359,131,45020,1,8,0:2:0:0:
351,142,45191,1,8,0:2:0:0:
246,163,45363,6,0,P|257:193|277:218,1,60.0000022888184,12|0,0:2|0:0,0:0:0:0:
359,244,45706,2,0,P|351:279|334:302,1,60.0000022888184,2|0,0:2|0:0,0:0:0:0:
258,334,46048,2,0,B|228:339|191:324|210:318|180:302|142:309,1,120.000004577637,8|2,0:0|0:2,0:0:0:0:
49,328,46563,6,0,P|55:269|94:224,1,120.000004577637,8|0,0:2|0:0,0:0:0:0:
185,205,47077,2,0,P|172:176|149:153,1,60.0000022888184,8|0,0:2|0:0,0:0:0:0:
85,95,47420,1,8,0:0:0:0:
157,42,47591,1,0,0:0:0:0:
161,38,47677,1,0,0:0:0:0:
165,34,47763,2,0,P|165:17|159:0,2,34.0000006484985,2|0|8,0:2|0:0|0:2,0:0:0:0:
240,106,48106,5,8,0:2:0:0:
306,183,48277,2,0,L|299:221,2,34.0000006484985,0|0|2,0:0|0:0|0:2,0:0:0:0:
403,153,48620,1,0,0:0:0:0:
468,230,48791,1,8,0:0:0:0:
377,278,48963,2,0,L|383:244,2,34.0000006484985,0|0|2,0:0|0:0|0:2,0:0:0:0:
350,362,49306,6,0,P|265:370|222:338,1,136.000002593994,8|0,0:2|0:0,0:0:0:0:
224,298,49734,1,0,0:0:0:0:
221,293,49820,2,0,P|191:266|161:260,1,68.0000012969971,8|0,0:2|0:0,0:0:0:0:
125,281,50077,1,0,0:0:0:0:
121,285,50163,1,8,0:2:0:0:
43,218,50334,2,0,P|49:201|62:186,2,34.0000006484985,8|8|4,0:2|0:2|0:0,0:0:0:0:
0,339,50848,5,12,0:2:0:0:
131,105,60448,6,0,L|119:193,1,80,8|2,0:0|0:2,0:0:0:0:
208,191,60791,2,0,L|196:279,1,80,8|2,0:0|0:2,0:0:0:0:
222,363,61134,2,0,P|255:348|282:314,1,80,8|8,0:2|0:2,0:0:0:0:
311,222,61477,6,0,B|317:216|316:207|316:207|325:203|325:192|325:192|334:188|338:177|338:177|349:174|354:166|354:166|366:165|373:158|373:158|383:159|391:154|391:154|403:157,1,120,8|0,0:2|0:0,3:0:0:0:
427,111,61820,6,0,P|385:100|346:70,1,80,12|2,0:0|0:2,0:0:0:0:
337,34,62077,1,2,0:2:0:0:
333,30,62163,2,0,P|287:23|235:47,1,80,8|2,0:1|0:2,0:0:0:0:
183,101,62506,2,0,P|161:140|159:192,1,80,8|0,0:1|0:0,0:0:0:0:
175,204,62763,1,2,0:2:0:0:
179,208,62848,2,0,P|173:248|151:287,1,80,8|2,0:1|0:2,0:0:0:0:
130,379,63191,6,0,P|171:373|229:374,1,80,8|2,0:1|0:2,0:0:0:0:
280,306,63534,2,0,P|319:306|359:312,1,80,8|2,0:1|0:2,0:0:0:0:
446,353,63877,2,0,P|455:297|447:271,1,80,8|2,0:1|0:3,0:0:0:0:
429,247,64134,1,2,0:3:0:0:
425,243,64220,2,0,P|415:200|431:158,1,80,8|2,0:1|0:2,0:0:0:0:
468,72,64563,5,8,0:1:0:0:
389,35,64734,1,2,0:2:0:0:
307,67,64906,2,0,P|287:101|284:140,1,80,8|2,0:1|0:2,0:0:0:0:
320,228,65248,2,0,P|275:234|231:219,1,80,8|2,0:1|0:2,0:0:0:0:
197,206,65506,1,2,0:2:0:0:
193,202,65591,2,0,P|154:192|115:199,1,80,8|0,0:1|0:0,0:0:0:0:
80,291,65934,5,8,0:1:0:0:
140,359,66106,1,2,0:2:0:0:
229,375,66277,1,8,0:1:0:0:
307,329,66448,1,2,0:2:0:0:
311,325,66534,1,2,0:2:0:0:
315,321,66620,2,0,P|343:306|390:303,1,80,8|2,0:1|0:2,0:0:0:0:
425,325,66877,1,0,0:0:0:0:
429,329,66963,1,8,0:1:0:0:
489,254,67134,1,2,0:2:0:0:
453,166,67306,6,0,P|406:161|362:177,1,92.0000017547608,12|2,0:0|0:2,0:0:0:0:
335,207,67563,1,2,0:2:0:0:
331,211,67648,2,0,P|291:232|246:231,1,92.0000017547608,8|2,0:1|0:2,0:0:0:0:
158,162,67991,2,0,P|190:130|236:119,1,92.0000017547608,8|0,0:1|0:0,0:0:0:0:
250,76,68248,1,2,0:2:0:0:
248,71,68334,2,0,P|225:39|170:22,1,92.0000017547608,8|2,0:1|0:2,0:0:0:0:
58,37,68677,6,0,P|40:86|34:130,1,92.0000017547608,12|2,0:0|0:2,0:0:0:0:
59,163,68934,1,0,0:0:0:0:
63,167,69020,2,0,P|81:216|87:260,1,92.0000017547608,8|2,0:1|0:2,0:0:0:0:
147,345,69363,2,0,P|191:355|239:340,1,92.0000017547608,8|2,0:1|0:3,0:0:0:0:
268,312,69620,1,2,0:3:0:0:
272,307,69706,2,0,P|299:282|356:273,1,92.0000017547608,8|2,0:1|0:2,0:0:0:0:
446,299,70048,6,0,P|449:249|429:207,1,92.0000017547608,12|2,0:0|0:2,0:0:0:0:
507,143,70391,6,0,P|465:115|418:111,1,92.0000017547608,8|2,0:1|0:2,0:0:0:0:
368,14,70734,6,0,P|325:39|301:80,1,92.0000017547608,12|2,0:0|0:2,0:0:0:0:
184,57,71077,6,0,P|181:106|201:149,1,92.0000017547608,8|2,0:1|0:2,0:0:0:0:
336,187,71420,6,0,P|380:206|422:271,2,120,12|12|12,0:0|0:0|0:0,0:0:0:0:
273,263,72106,5,12,0:0:0:0:
278,266,72191,1,12,0:2:0:0:
283,269,72277,2,0,P|302:276|322:276,2,40,8|8|4,0:2|0:2|0:0,0:0:0:0:
163,384,72791,6,0,P|166:330|158:281,1,95.9999970703126,12|0,0:2|0:0,0:0:0:0:
128,263,73048,1,0,0:0:0:0:
123,258,73134,1,8,0:0:0:0:
24,288,73306,2,0,P|21:234|29:185,1,95.9999970703126,0|8,0:0|0:2,0:0:0:0:
58,162,73563,1,0,0:0:0:0:
63,157,73649,1,0,0:0:0:0:
168,165,73820,2,0,P|149:104|115:76,1,95.9999970703126,8|0,0:0|0:0,0:0:0:0:
96,54,74077,1,0,0:0:0:0:
101,49,74163,6,0,P|144:24|198:22,1,95.9999970703126,8|2,0:2|0:2,0:0:0:0:
226,58,74420,1,2,0:2:0:0:
231,63,74506,2,0,P|261:88|305:94,1,80,8|2,0:0|0:2,0:0:0:0:
391,51,74848,1,10,0:2:0:0:
396,46,74934,1,2,0:2:0:0:
402,42,75020,2,0,L|451:40,2,40,2|2|8,0:2|0:2|0:0,0:0:0:0:
383,139,75363,1,2,0:2:0:0:
475,172,75534,6,0,P|478:226|470:275,1,95.9999970703126,8|0,0:2|0:0,0:0:0:0:
444,293,75791,1,0,0:0:0:0:
439,298,75877,1,8,0:0:0:0:
335,262,76049,2,0,P|332:316|340:365,1,95.9999970703126,0|8,0:0|0:2,0:0:0:0:
370,376,76306,1,0,0:0:0:0:
375,381,76392,1,0,0:0:0:0:
247,335,76563,2,0,P|193:332|144:340,1,95.9999970703126,8|0,0:0|0:0,0:0:0:0:
123,361,76820,1,0,0:0:0:0:
118,366,76906,5,8,0:2:0:0:
74,274,77077,2,0,B|80:245|100:234|100:234|115:213|109:188,1,95.9999970703126,2|2,0:0|0:3,0:0:0:0:
92,146,77334,1,2,0:3:0:0:
87,141,77420,2,0,P|93:109|105:94,1,47.9999985351563,2|2,0:3|0:3,0:0:0:0:
136,56,77591,2,0,B|94:63|59:42|80:30|43:3|-1:10,2,143.999995605469,10|10|10,0:0|0:0|0:0,0:0:0:0:
264,10,78277,6,0,P|261:64|269:113,1,95.9999970703126,8|0,0:2|0:0,0:0:0:0:
299,131,78534,1,0,0:0:0:0:
304,136,78620,1,8,0:0:0:0:
398,89,78792,2,0,P|395:143|403:192,1,95.9999970703126,0|8,0:0|0:2,0:0:0:0:
434,214,79049,1,0,0:0:0:0:
439,219,79135,1,0,0:0:0:0:
466,313,79306,2,0,P|412:310|363:318,1,95.9999970703126,8|0,0:0|0:0,0:0:0:0:
346,344,79563,1,0,0:0:0:0:
341,349,79648,6,0,P|284:349|244:326,1,95.9999970703126,8|2,0:2|0:2,0:0:0:0:
197,244,79991,2,0,P|182:217|160:196,2,47.9999985351563,8|2|2,0:0|0:2|0:2,0:0:0:0:
104,300,80334,1,10,0:2:0:0:
101,295,80420,1,2,0:2:0:0:
98,290,80506,2,0,P|75:268|49:257,2,47.9999985351563,2|2|8,0:2|0:2|0:0,0:0:0:0:
139,383,80848,1,2,0:2:0:0:
27,384,81020,6,0,B|15:337|15:337|27:289,1,95.9999970703126,8|0,0:2|0:0,0:0:0:0:
55,265,81277,1,0,0:0:0:0:
60,260,81363,1,8,0:0:0:0:
159,201,81534,2,0,B|171:154|171:154|159:107,1,95.9999970703126,0|8,0:0|0:2,0:0:0:0:
132,85,81791,1,0,0:0:0:0:
127,80,81877,1,0,0:0:0:0:
26,38,82048,2,0,B|14:85|14:85|26:132,1,95.9999970703126,8|0,0:0|0:0,0:0:0:0:
55,160,82306,1,0,0:0:0:0:
60,165,82391,5,8,0:2:0:0:
162,197,82563,1,8,0:2:0:0:
167,202,82648,1,0,0:0:0:0:
172,207,82734,2,0,P|190:205|210:191,2,40
233,279,83077,2,0,P|251:280|271:294,3,40,8|0|0|0,0:2|0:0|0:0|0:0,0:0:0:0:
306,274,83420,2,0,P|324:272|344:258,3,40,12|0|0|0,0:0|0:0|0:0|0:0,0:0:0:0:
364,232,83763,6,0,P|361:178|369:129,1,95.9999970703126,12|0,0:2|0:0,0:0:0:0:
393,116,84020,1,0,0:0:0:0:
398,121,84106,1,8,0:0:0:0:
469,198,84277,2,0,P|472:252|464:301,1,95.9999970703126,0|8,0:0|0:2,0:0:0:0:
436,317,84534,1,0,0:0:0:0:
431,322,84621,1,0,0:0:0:0:
341,260,84792,2,0,P|285:280|261:315,1,95.9999970703126,8|0,0:0|0:0,0:0:0:0:
237,324,85049,1,0,0:0:0:0:
232,319,85135,6,0,P|207:276|207:228,1,95.9999970703126,8|2,0:2|0:2,0:0:0:0:
226,201,85392,1,2,0:2:0:0:
231,196,85478,2,0,P|256:166|262:122,1,80,8|2,0:0|0:2,0:0:0:0:
211,30,85820,1,10,0:2:0:0:
206,27,85906,1,2,0:2:0:0:
200,25,85992,2,0,L|151:23,2,40,2|2|8,0:2|0:2|0:0,0:0:0:0:
303,39,86335,1,2,0:2:0:0:
174,118,86506,6,0,P|120:115|71:123,1,95.9999970703126,8|0,0:2|0:0,0:0:0:0:
45,147,86763,1,0,0:0:0:0:
40,152,86848,1,8,0:0:0:0:
9,237,87021,2,0,P|6:291|14:340,1,95.9999970703126,0|8,0:0|0:2,0:0:0:0:
44,362,87278,1,0,0:0:0:0:
49,367,87364,1,0,0:0:0:0:
141,379,87535,2,0,P|195:382|244:374,1,95.9999970703126,8|0,0:0|0:0,0:0:0:0:
257,350,87792,1,0,0:0:0:0:
262,345,87878,5,8,0:2:0:0:
195,265,88048,2,0,B|200:231|219:199|219:199|230:209|249:214,1,95.9999970703126,2|2,0:0|0:3,0:0:0:0:
284,242,88306,1,2,0:3:0:0:
289,247,88391,2,0,P|311:263|340:270,1,47.9999985351563,2|2,0:3|0:3,0:0:0:0:
374,237,88563,2,0,B|365:199|390:159|405:174|424:143|422:106,2,143.999995605469,10|10|10,0:0|0:0|0:0,0:0:0:0:
366,361,89249,6,0,P|312:364|263:356,1,95.9999970703126,8|0,0:2|0:0,0:0:0:0:
251,337,89506,1,0,0:0:0:0:
246,332,89591,1,8,0:0:0:0:
146,342,89764,2,0,P|92:345|43:337,1,95.9999970703126,0|8,0:0|0:2,0:0:0:0:
30,313,90021,1,0,0:0:0:0:
25,308,90107,1,0,0:0:0:0:
5,215,90278,2,0,P|49:182|97:183,1,95.9999970703126,8|0,0:0|0:0,0:0:0:0:
119,211,90535,1,0,0:0:0:0:
124,216,90620,6,0,P|181:216|221:193,1,95.9999970703126,8|2,0:2|0:2,0:0:0:0:
231,97,90963,2,0,L|268:49,2,40,8|2|2,0:0|0:2|0:2,0:0:0:0:
314,152,91306,1,10,0:2:0:0:
319,147,91392,1,2,0:2:0:0:
324,142,91478,2,0,L|363:96,2,40,2|2|8,0:2|0:2|0:0,0:0:0:0:
351,248,91820,1,2,0:2:0:0:
451,205,91992,6,0,B|460:252|460:252|446:300,1,95.9999970703126,12|0,0:2|0:0,0:0:0:0:
414,333,92249,1,0,0:0:0:0:
409,338,92335,1,8,0:0:0:0:
351,248,92506,6,0,B|319:241|319:241|256:258,1,95.9999970703126,0|8,0:0|0:2,0:0:0:0:
207,249,92763,1,0,0:0:0:0:
202,244,92848,1,0,0:0:0:0:
162,149,93020,1,8,0:0:0:0:
221,53,93191,6,0,P|279:47|347:115,1,160,8|0,0:2|0:0,0:0:0:0:
341,215,93706,5,8,0:2:0:0:
346,220,93791,1,0,0:0:0:0:
351,225,93877,2,0,L|357:270,2,40,0|0|8,0:0|0:0|0:0,0:0:0:0:
246,186,94220,2,0,L|251:146,2,40,2|2|4,2:0|2:0|2:1,0:0:0:0:
215,293,94563,1,0,0:0:0:0:
209,296,94648,1,0,0:0:0:0:
203,299,94734,6,0,P|149:276|130:253,1,88.000002685547,12|2,0:2|0:2,0:0:0:0:
28,241,95077,2,0,P|41:173|61:148,1,88.000002685547,8|2,0:2|0:2,0:0:0:0:
156,147,95420,2,0,B|177:121|177:121|172:58,1,88.000002685547,8|2,0:2|0:2,0:0:0:0:
247,7,95763,1,8,0:2:0:0:
293,86,95934,6,0,B|272:112|272:112|277:175,1,88.000002685547,2|8,0:2|0:2,0:0:0:0:
370,220,96277,1,2,0:2:0:0:
374,224,96363,1,2,0:2:0:0:
378,228,96448,2,0,B|394:254|394:254|382:324,1,88.000002685547,8|2,0:2|0:2,0:0:0:0:
289,324,96791,2,0,P|268:282|232:261,1,88.000002685547,8|2,0:2|0:2,0:0:0:0:
194,264,97048,1,2,0:2:0:0:
190,260,97134,2,0,P|165:220|162:180,1,88.000002685547,8|2,0:2|0:2,0:0:0:0:
179,86,97477,6,0,P|131:94|86:95,1,88.000002685547,8|2,0:2|0:2,0:0:0:0:
44,10,97820,2,0,P|88:2|133:1,1,88.000002685547,8|2,0:2|0:2,0:0:0:0:
228,4,98163,2,0,P|260:30|276:88,1,88.000002685547,8|2,0:2|0:2,0:0:0:0:
268,162,98506,1,8,0:2:0:0:
360,149,98677,6,0,P|401:169|423:211,1,88.000002685547,2|8,0:2|0:2,0:0:0:0:
407,296,99020,1,2,0:2:0:0:
404,302,99106,1,2,0:2:0:0:
401,308,99191,2,0,L|391:355,4,44.0000013427735,8|2|2|2|8,0:2|0:2|0:2|0:2|0:2,0:0:0:0:
314,261,99706,1,2,0:2:0:0:
235,316,99877,2,0,P|192:321|144:331,1,88.000002685547,8|0,0:2|0:0,0:0:0:0:
57,270,100220,6,0,P|43:227|52:182,1,88.000002685547,8|2,0:2|0:2,0:0:0:0:
4,99,100563,2,0,P|45:79|92:83,1,88.000002685547,8|2,0:2|0:2,0:0:0:0:
176,116,100906,2,0,B|212:119|212:119|228:110|228:110|266:114,1,88.000002685547,8|2,0:2|0:2,0:0:0:0:
323,187,101248,1,8,0:2:0:0:
277,274,101420,6,0,P|242:247|227:200,1,88.000002685547,2|8,0:2|0:2,0:0:0:0:
261,113,101763,2,0,B|254:92|261:69|261:69|258:45|241:29,2,88.000002685547,2|8|2,0:2|0:2|0:2,0:0:0:0:
323,187,102277,1,8,0:2:0:0:
382,114,102448,1,2,0:2:0:0:
386,110,102534,1,2,0:2:0:0:
390,106,102620,2,0,P|406:76|411:57,2,44.0000013427735,8|2|2,0:2|0:2|0:2,0:0:0:0:
418,216,102963,5,8,0:0:0:0:
493,155,103134,2,0,L|512:116,2,44.0000013427735,0|0|8,0:0|0:0|0:2,0:0:0:0:
511,250,103477,1,8,0:2:0:0:
448,323,103648,1,8,0:0:0:0:
351,308,103820,2,0,L|331:260,2,44.0000013427735,0|0|8,0:0|0:0|0:2,0:0:0:0:
271,379,104163,6,0,P|219:357|169:243,1,176.000005371094,8|0,0:0|0:0,0:0:0:0:
199,227,104591,1,0,0:0:0:0:
204,222,104677,2,0,P|233:190|230:137,1,88.000002685547,8|0,0:0|0:0,0:0:0:0:
202,127,104934,1,0,0:0:0:0:
197,122,105020,2,0,P|185:71|197:35,1,88.000002685547,8|2,0:0|0:2,0:0:0:0:
286,5,105363,1,0,3:0:0:0:
348,78,105534,5,12,0:0:0:0:
475,28,105877,5,2,0:2:0:0:
479,33,105963,1,2,0:2:0:0:
483,38,106048,2,0,P|487:88|470:176,1,132.00000402832,8|0,0:0|0:0,0:0:0:0:
441,201,106391,5,12,0:2:0:0:
256,192,106563,12,0,109820,0:0:0:0:
