osu file format v14

[General]
AudioFilename: Chinese Restaurant.mp3
AudioLeadIn: 2000
PreviewTime: 72372
Countdown: 0
SampleSet: Soft
StackLeniency: 0.5
Mode: 0
LetterboxInBreaks: 0
WidescreenStoryboard: 1

[Editor]
DistanceSpacing: 0.8
BeatDivisor: 4
GridSize: 32
TimelineZoom: 1.5

[Metadata]
Title:Chinese Restaurant
TitleUnicode:Chinese Restaurant
Artist:Memme
ArtistUnicode:Memme
Creator:KantoKun
Version:PAO PAO
Source:Pump It Up Prime
Tags:ParkMemme dance simulation arcade
BeatmapID:2184815
BeatmapSetID:591052

[Difficulty]
HPDrainRate:7
CircleSize:4
OverallDifficulty:7
ApproachRate:9
SliderMultiplier:1.9
SliderTickRate:1

[Events]
//Background and Video events
0,0,"BG.jpg",0,0
//Break Periods
//Storyboard Layer 0 (Background)
//Storyboard Layer 1 (Fail)
//Storyboard Layer 2 (Pass)
//Storyboard Layer 3 (Foreground)
//Storyboard Layer 4 (Overlay)
//Storyboard Sound Samples

[TimingPoints]
-308,342.857142857143,4,3,1,40,1,0
1063,-100,4,2,1,70,0,0
3463,-66.6666666666667,4,2,1,70,0,0
3563,-66.6666666666667,4,2,1,5,0,0
3634,-100,4,2,5,70,0,0
5006,-79.9999999999999,4,2,5,70,0,0
5092,-100,4,2,5,70,0,0
6206,-80,4,2,2,70,0,0
6463,-100,4,2,5,70,0,1
10663,-100,4,2,6,60,0,1
10834,-100,4,2,5,70,0,1
13406,-100,4,2,6,60,0,1
13577,-100,4,2,5,70,0,1
16834,-79.9999999999999,4,2,5,70,0,0
17349,-100,4,2,5,70,0,0
17692,-100,4,2,5,50,0,0
18549,-100,4,2,5,70,0,0
19063,-100,4,2,5,50,0,0
20263,-100,4,2,5,70,0,0
23177,-100,4,2,5,50,0,0
24034,-100,4,2,5,70,0,0
24549,-100,4,2,5,50,0,0
25406,-79.9999999999999,4,2,5,70,0,0
25749,-100,4,2,5,70,0,0
26949,-126.582278481013,4,2,5,70,0,0
27463,-100,4,2,5,70,0,0
27977,-200,4,2,2,70,0,0
28063,-200,4,2,5,5,0,0
28492,-100,4,2,5,70,0,0
32949,-100,4,2,5,50,0,0
33034,-100,4,2,5,55,0,0
33120,-100,4,2,5,60,0,0
33206,-100,4,2,5,62,0,0
33292,-100,4,2,5,64,0,0
33377,-100,4,2,5,66,0,0
33463,-100,4,2,5,68,0,0
33549,-100,4,2,5,70,0,0
33634,-100,4,2,5,72,0,0
33720,-100,4,2,5,74,0,0
33806,-100,4,2,5,76,0,0
33892,-100,4,2,5,78,0,0
33977,-100,4,2,5,80,0,0
34063,-100,4,2,5,70,0,0
38777,-100,4,2,2,70,0,0
39120,-133.333333333333,4,2,5,70,0,0
43920,-100,4,2,5,70,0,0
44349,-100,4,2,5,50,0,0
44606,-100,4,2,5,60,0,0
44949,-133.333333333333,4,2,5,70,0,0
46663,-133.333333333333,4,2,5,60,0,0
47692,-117.647058823529,4,2,5,70,0,0
49406,-100,4,2,5,70,0,0
49577,-100,4,2,5,40,0,0
49749,-100,4,2,5,70,0,0
50092,-83.3333333333333,4,2,2,70,0,0
50434,-111.111111111111,4,2,5,70,0,0
60034,-90.9090909090909,4,2,5,70,0,0
61063,-100,4,2,1,70,0,0
61406,-100,4,2,5,70,0,0
66892,-100,4,2,2,70,0,0
66977,-100,4,2,5,70,0,0
69634,-80,4,2,5,80,0,0
69677,-80,4,2,5,50,0,0
69977,-80,4,2,5,70,0,0
70020,-80,4,2,5,50,0,0
70320,-80,4,2,5,80,0,0
70363,-80,4,2,5,50,0,0
70663,-80,4,2,5,80,0,0
70706,-80,4,2,5,50,0,0
71006,-80,4,2,5,80,0,0
72034,-133.333333333333,4,2,2,70,0,0
72377,-90.9090909090909,4,2,5,80,0,1
82492,-90.9090909090909,4,2,5,70,0,0
83349,-90.9090909090909,4,2,5,80,0,1
91577,-100,4,2,5,70,0,0
93977,-79.9999999999999,4,2,2,70,0,0
94320,-100,4,2,5,70,0,1
98434,-100,4,2,6,70,0,1
98606,-100,4,2,5,70,0,1
99634,-100,4,2,7,70,0,1
99720,-100,4,2,5,70,0,1
102549,-90.9090909090909,4,2,5,80,0,1
105120,-133.333333333333,4,2,5,50,0,0
106063,-200,4,2,1,30,0,0
107263,-200,4,2,1,5,0,0

[Colours]
Combo1 : 142,199,255
Combo2 : 255,128,128
Combo3 : 128,255,255
Combo4 : 128,255,128
Combo5 : 255,187,255
Combo6 : 255,177,140

[HitObjects]
340,227,377,6,0,P|335:175|293:140,1,95
228,130,634,1,0,0:0:0:0:
244,207,720,2,0,L|274:212,7,23.75
340,227,1063,5,4,1:2:0:0:
154,177,1234,1,2,0:0:0:0:
125,182,1320,1,0,0:0:0:0:
97,186,1406,1,0,0:0:0:0:
264,289,1577,5,4,1:2:0:0:
377,148,1749,1,2,0:0:0:0:
412,154,1835,1,0,0:0:0:0:
447,160,1921,1,0,0:0:0:0:
268,311,2092,5,4,1:2:0:0:
112,102,2263,1,2,0:0:0:0:
72,109,2349,1,0,0:0:0:0:
31,117,2435,1,0,0:0:0:0:
274,334,2606,5,4,1:2:0:0:
399,64,2777,1,2,0:0:0:0:
445,74,2863,1,0,0:0:0:0:
490,83,2949,1,0,0:0:0:0:
375,258,3120,6,0,P|370:231|355:207,1,47.5,6|2,1:2|0:0,0:0:0:0:
176,180,3292,2,0,P|164:201|162:225,1,47.5,0|2,0:0|0:0,0:0:0:0:
274,334,3463,6,0,P|285:280|253:237,1,106.875004076958
238,226,3634,6,0,P|186:233|137:239,1,95,4|0,1:2|0:0,0:0:0:0:
68,76,3977,5,0,0:0:0:0:
75,63,4149,1,2,1:0:0:0:
274,334,4320,5,0,0:0:0:0:
267,321,4492,1,2,1:0:0:0:
454,100,4663,5,0,0:0:0:0:
461,87,4835,1,2,1:0:0:0:
171,194,5006,6,0,B|270:175|232:243|343:222,1,178.125,4|0,1:0|0:0,0:0:0:0:
314,92,5349,2,0,L|303:145,1,47.5,0|0,1:0|0:0,0:0:0:0:
208,321,5520,2,0,L|198:274,1,47.5,0|0,1:0|0:0,0:0:0:0:
117,57,5692,2,0,L|107:103,1,47.5,0|0,1:0|0:0,0:0:0:0:
43,272,5863,5,4,1:2:0:0:
67,276,5949,1,0,0:0:0:0:
91,273,6034,1,0,3:0:0:0:
111,263,6120,1,0,3:0:0:0:
171,194,6206,6,0,P|236:182|293:171,1,118.75,4|0,1:2|0:0,0:0:0:0:
362,134,6463,1,0,0:0:0:0:
416,74,6549,6,0,P|365:53|288:101,1,142.5,6|0,1:0|0:0,0:0:0:0:
255,167,6892,2,0,P|263:218|271:270,1,95,2|0,1:0|0:0,0:0:0:0:
462,323,7234,2,0,P|470:272|478:220,1,95,2|0,0:0|0:0,0:0:0:0:
452,129,7492,2,0,L|448:163,2,23.75,0|0|2,0:0|0:0|1:0,0:0:0:0:
269,260,7749,2,0,P|217:260|177:225,1,95,0|2,0:0|0:0,0:0:0:0:
132,79,8092,5,0,0:0:0:0:
139,64,8177,1,0,0:0:0:0:
145,49,8263,2,0,P|196:41|248:33,1,95,2|0,1:0|0:0,0:0:0:0:
428,102,8606,2,0,P|428:154|393:194,1,95,2|0,0:0|0:0,0:0:0:0:
284,251,8863,1,0,0:0:0:0:
269,260,8949,2,0,P|261:209|253:157,1,95,2|0,1:0|0:0,0:0:0:0:
62,36,9292,6,0,P|50:104|36:178,1,142.5
147,275,9634,2,0,P|147:223|112:183,1,95,2|0,1:0|0:0,0:0:0:0:
42,260,9892,2,0,L|77:254,2,23.75,0|0|2,0:0|0:0|0:0,0:0:0:0:
200,350,10149,1,0,0:0:0:0:
239,325,10234,1,0,0:0:0:0:
282,314,10320,1,2,1:0:0:0:
329,315,10406,1,0,0:0:0:0:
373,327,10492,6,0,P|442:336|515:290,1,142.5
414,194,10834,1,0,0:0:0:0:
414,194,10920,1,0,0:0:0:0:
414,194,11006,2,0,L|423:245,1,47.5,2|0,1:0|0:0,0:0:0:0:
237,200,11177,2,0,L|245:153,1,47.5
351,76,11349,1,2,0:0:0:0:
344,113,11434,1,0,0:0:0:0:
337,149,11520,2,0,L|322:221,1,71.25
321,230,11692,6,0,P|295:273|205:281,1,142.5,2|0,1:0|0:0,0:0:0:0:
125,253,12034,6,0,P|167:199|236:199,1,142.5,4|0,1:0|0:0,0:0:0:0:
321,230,12377,2,0,P|367:237|414:246,1,95,2|0,1:0|0:0,0:0:0:0:
483,127,12720,2,0,L|453:133,2,23.75,2|0|0,0:0|0:0|0:0,0:0:0:0:
387,89,12892,2,0,P|339:81|293:72,1,95,0|2,0:0|1:0,0:0:0:0:
120,29,13234,2,0,P|74:91|95:155,1,142.5
161,207,13577,6,0,L|213:195,1,47.5
296,177,13749,1,2,1:0:0:0:
314,172,13834,1,0,0:0:0:0:
331,168,13920,1,0,0:0:0:0:
463,374,14092,6,0,P|410:381|364:343,1,95,2|0,0:0|0:0,0:0:0:0:
306,303,14349,1,0,0:0:0:0:
306,303,14434,2,0,P|307:277|317:251,1,47.5,2|0,1:0|0:0,0:0:0:0:
417,173,14606,2,0,P|414:146|406:121,1,47.5
303,40,14777,6,0,P|292:89|282:136,1,95,4|0,1:2|0:0,0:0:0:0:
188,164,15034,1,0,3:0:0:0:
194,181,15120,1,10,1:2:0:0:
59,65,15292,1,2,0:0:0:0:
36,269,15463,2,0,P|82:264|139:239,1,95,6|0,1:2|3:0,0:0:0:0:
218,287,15720,1,0,3:0:0:0:
236,282,15806,1,10,1:2:0:0:
428,209,15977,6,0,P|360:223|301:168,1,142.5,6|0,1:2|0:0,0:0:0:0:
237,80,16320,1,0,0:0:0:0:
254,70,16406,2,0,L|262:22,2,47.5,0|6|0,0:0|1:2|0:0,0:0:0:0:
102,122,16663,1,0,0:0:0:0:
85,112,16749,2,0,L|77:64,2,47.5,0|6|0,0:0|1:2|0:0,0:0:0:0:
218,184,17006,5,0,0:0:0:0:
236,190,17092,1,8,0:0:0:0:
254,195,17177,2,0,L|244:260,1,59.375,0|0,3:0|0:0,0:0:0:0:
120,322,17349,6,0,B|194:300|187:366|275:338,1,142.5,6|0,1:2|0:0,0:0:0:0:
373,230,17692,2,0,L|322:239,1,47.5,8|8,0:0|0:0,0:0:0:0:
244,253,17863,1,8,0:0:0:0:
382,139,18034,5,8,0:0:0:0:
212,167,18206,1,8,0:0:0:0:
394,47,18377,5,8,0:0:0:0:
186,83,18549,1,2,0:0:0:0:
326,239,18720,6,0,P|346:188|282:107,1,142.5,6|0,1:2|0:0,0:0:0:0:
186,83,19063,2,0,L|126:94,1,47.5,8|8,0:0|0:0,0:0:0:0:
56,106,19234,1,8,0:0:0:0:
212,220,19406,5,8,0:0:0:0:
26,183,19577,1,8,0:0:0:0:
88,363,19749,5,8,0:0:0:0:
100,361,19806,1,8,0:0:0:0:
111,359,19863,1,8,0:0:0:0:
122,357,19920,2,0,L|135:307,1,47.5,2|0,1:0|0:0,0:0:0:0:
200,174,20092,2,0,L|211:219,1,47.5,2|0,1:0|0:0,0:0:0:0:
306,294,20263,6,0,P|358:297|400:267,1,95,6|0,1:0|0:0,0:0:0:0:
443,204,20520,1,0,0:0:0:0:
443,204,20606,2,0,P|445:149|414:112,1,95,2|0,1:2|0:0,0:0:0:0:
346,66,20863,1,0,0:0:0:0:
335,81,20949,2,0,P|288:89|238:96,1,95,0|0,1:0|0:0,0:0:0:0:
171,158,21206,1,0,0:0:0:0:
157,146,21292,2,0,L|108:135,1,47.5,2|0,1:2|0:0,0:0:0:0:
34,266,21463,6,0,P|104:312|161:297,1,142.5,2|0,1:0|0:0,0:0:0:0:
242,233,21806,1,0,0:0:0:0:
255,221,21892,1,0,0:0:0:0:
267,210,21977,2,0,P|261:154|255:105,1,95,2|0,1:0|0:0,0:0:0:0:
282,78,22234,1,0,0:0:0:0:
320,56,22320,1,2,0:0:0:0:
363,54,22406,1,0,0:0:0:0:
403,71,22492,1,0,0:0:0:0:
430,106,22577,1,0,0:0:0:0:
437,152,22663,2,0,L|423:203,1,47.5,10|0,1:2|0:0,0:0:0:0:
354,269,22834,6,0,P|307:230|222:254,1,142.5,4|0,1:2|0:0,0:0:0:0:
158,304,23177,2,0,L|107:293,1,47.5,8|8,0:0|0:0,0:0:0:0:
33,275,23349,1,8,0:0:0:0:
189,214,23520,5,8,0:0:0:0:
40,299,23692,1,8,0:0:0:0:
141,139,23863,5,8,0:0:0:0:
48,323,24034,1,2,0:0:0:0:
254,373,24206,6,0,P|289:336|253:230,1,142.5,6|0,1:2|0:0,0:0:0:0:
197,167,24549,2,0,L|187:220,1,47.5,8|8,0:0|0:0,0:0:0:0:
168,296,24720,1,8,0:0:0:0:
197,167,24892,6,0,L|206:130,2,23.75,8|8|8,0:0|0:0|0:0,0:0:0:0:
168,296,25063,2,0,L|154:351,1,47.5,8|0,0:0|0:0,0:0:0:0:
278,250,25234,5,8,0:0:0:0:
292,253,25292,1,8,0:0:0:0:
306,255,25349,1,8,0:0:0:0:
324,276,25406,2,0,L|382:264,1,59.375,2|0,1:0|0:0,0:0:0:0:
501,199,25577,2,0,L|438:186,1,59.375,6|0,1:2|0:0,0:0:0:0:
316,104,25749,5,6,1:0:0:0:
352,114,25834,1,0,0:0:0:0:
392,110,25920,1,0,0:0:0:0:
426,92,26006,1,0,0:0:0:0:
458,58,26092,5,2,1:0:0:0:
419,76,26177,1,0,0:0:0:0:
392,110,26263,1,0,0:0:0:0:
385,151,26349,1,0,0:0:0:0:
401,200,26434,5,2,0:0:0:0:
425,243,26520,1,0,0:0:0:0:
422,296,26606,1,0,0:0:0:0:
392,336,26692,1,0,0:0:0:0:
345,352,26777,2,0,L|287:341,1,47.5,2|0,1:0|0:0,0:0:0:0:
281,328,26949,6,0,P|349:339|434:353,1,150.100003664551,4|0,1:0|0:0,0:0:0:0:
392,163,27463,2,0,P|366:198|376:262,1,95,2|0,1:0|0:0,0:0:0:0:
145,345,27806,5,2,0:0:0:0:
162,341,27892,1,2,0:0:0:0:
180,337,27977,2,0,P|194:273|149:230,1,118.75,4|0,0:0|0:0,0:0:0:0:
102,166,28492,6,0,P|160:159|206:153,1,95,4|0,1:2|0:0,0:0:0:0:
278,144,28749,1,0,0:0:0:0:
300,142,28834,1,8,1:2:0:0:
132,69,29006,1,0,0:0:0:0:
166,258,29177,2,0,P|224:265|270:271,1,95,2|0,0:0|0:0,0:0:0:0:
342,280,29434,1,0,0:0:0:0:
364,283,29519,1,8,1:2:0:0:
482,139,29692,6,0,P|482:85|453:53,1,95,0|2,0:0|0:0,0:0:0:0:
313,15,30034,2,0,L|323:67,1,47.5
342,143,30206,1,8,1:2:0:0:
235,331,30377,2,0,L|245:279,1,47.5
264,203,30549,1,2,0:0:0:0:
115,90,30720,6,0,L|152:82,2,23.75
63,165,30892,2,0,P|98:176|124:181,1,47.5,8|0,1:2|0:0,0:0:0:0:
108,266,31063,2,0,P|131:260|153:252,1,47.5
264,203,31234,6,0,P|273:148|279:109,1,95,4|0,1:2|0:0,0:0:0:0:
375,38,31492,1,0,0:0:0:0:
391,57,31577,2,0,P|407:111|376:150,1,95,8|0,1:2|0:0,0:0:0:0:
264,203,31834,1,0,0:0:0:0:
237,198,31920,2,0,P|182:189|143:183,1,95,2|0,0:0|0:0,0:0:0:0:
63,281,32177,1,0,0:0:0:0:
77,300,32262,2,0,P|126:327|171:306,1,95,8|0,1:2|0:0,0:0:0:0:
260,230,32520,1,0,0:0:0:0:
264,203,32606,6,0,P|273:148|279:109,1,95,2|0,0:0|0:0,0:0:0:0:
167,25,32863,1,0,0:0:0:0:
167,25,32949,1,0,3:0:0:0:
128,35,33034,1,0,3:0:0:0:
102,61,33120,1,0,3:0:0:0:
88,97,33206,1,0,3:0:0:0:
93,177,33292,5,2,0:0:0:0:
132,167,33377,1,2,0:0:0:0:
158,141,33463,1,2,0:0:0:0:
172,105,33549,1,2,0:0:0:0:
237,63,33634,5,2,3:2:0:0:
268,88,33719,1,2,3:2:0:0:
304,93,33805,1,2,3:2:0:0:
342,82,33891,1,2,3:2:0:0:
409,28,33977,5,4,1:2:0:0:
284,190,34149,1,0,3:0:0:0:
284,190,34234,1,0,3:0:0:0:
284,190,34320,1,10,3:2:0:0:
395,338,34492,5,4,1:2:0:0:
204,199,34663,1,0,3:0:0:0:
204,199,34749,1,0,3:0:0:0:
204,199,34835,1,10,3:2:0:0:
330,51,35006,5,4,1:2:0:0:
123,205,35178,1,0,3:0:0:0:
123,205,35264,1,0,3:0:0:0:
123,205,35349,1,10,3:2:0:0:
311,323,35521,5,4,1:2:0:0:
42,212,35692,1,0,3:0:0:0:
42,212,35778,1,0,3:0:0:0:
42,212,35864,1,10,3:2:0:0:
248,27,36034,5,2,3:2:0:0:
286,54,36120,1,0,3:2:0:0:
301,99,36206,1,8,3:2:0:0:
295,146,36292,1,8,3:2:0:0:
260,179,36377,2,0,L|209:187,1,47.5,2|0,0:0|0:0,0:0:0:0:
164,335,36549,6,0,P|250:275|337:302,1,190,4|0,1:0|0:0,0:0:0:0:
205,156,37063,5,2,1:0:0:0:
164,335,37234,1,0,0:0:0:0:
198,125,37406,5,2,1:0:0:0:
326,295,37577,1,0,0:0:0:0:
191,95,37749,5,2,1:0:0:0:
12,249,37920,2,0,P|21:299|30:347,1,95,4|0,1:0|0:0,0:0:0:0:
116,365,38177,1,0,0:0:0:0:
116,365,38263,1,0,3:0:0:0:
154,366,38349,1,0,3:0:0:0:
189,354,38434,1,2,0:0:0:0:
216,328,38520,1,0,0:0:0:0:
228,292,38606,1,2,0:0:0:0:
228,253,38692,1,2,0:0:0:0:
214,217,38777,1,4,1:2:0:0:
74,109,39120,5,0,0:0:0:0:
119,194,39292,1,0,0:0:0:0:
214,217,39463,2,0,P|280:196|356:202,1,142.500005435944,6|0,0:0|0:0,0:0:0:0:
436,252,39977,1,0,0:0:0:0:
297,353,40149,2,0,P|294:316|291:270,1,71.2500027179719,8|0,0:0|0:0,0:0:0:0:
214,217,40492,1,0,0:0:0:0:
350,73,40663,6,0,P|377:145|349:202,1,142.500005435944,2|0,0:0|0:0,0:0:0:0:
262,300,41177,1,2,0:0:0:0:
286,138,41349,1,0,0:0:0:0:
416,252,41520,1,8,0:0:0:0:
190,358,41692,1,0,0:0:0:0:
176,356,41777,1,0,0:0:0:0:
162,355,41863,2,0,P|155:303|152:270,1,71.2500027179719,0|2,0:0|0:0,0:0:0:0:
286,138,42206,6,0,P|293:223|247:261,1,142.500005435944,2|0,0:0|0:0,0:0:0:0:
153,284,42720,1,0,0:0:0:0:
50,164,42892,2,0,P|93:160|135:154,1,71.2500027179719,8|0,0:0|0:0,0:0:0:0:
197,77,43234,1,0,0:0:0:0:
327,216,43406,6,0,P|377:227|438:183,1,106.875004076958,2|0,0:0|0:0,0:0:0:0:
476,124,43749,5,0,0:0:0:0:
465,117,43834,1,0,0:0:0:0:
454,111,43920,2,0,L|464:60,1,47.5,2|0,0:0|0:0,0:0:0:0:
354,45,44092,2,0,L|356:94,1,47.5
256,121,44263,1,8,0:0:0:0:
224,132,44349,1,0,3:0:0:0:
191,134,44434,1,0,3:0:0:0:
156,127,44520,1,0,3:0:0:0:
119,161,44606,5,0,3:0:0:0:
164,179,44692,1,0,3:0:0:0:
211,182,44777,1,0,3:0:0:0:
256,176,44863,1,0,3:0:0:0:
298,160,44949,6,0,P|363:140|441:147,1,142.500005435944,4|0,1:2|0:0,0:0:0:0:
509,229,45463,1,0,0:0:0:0:
371,317,45634,2,0,P|376:279|382:234,1,71.2500027179719,8|0,0:0|0:0,0:0:0:0:
436,145,45977,1,0,0:0:0:0:
313,54,46149,6,0,P|268:106|288:171,1,142.500005435944,2|0,0:0|0:0,0:0:0:0:
318,255,46577,1,0,3:0:0:0:
318,255,46663,2,0,P|280:250|235:244,1,71.2500027179719,2|0,0:0|0:0,0:0:0:0:
154,163,47006,1,8,0:0:0:0:
24,305,47177,1,0,3:0:0:0:
56,319,47263,1,0,3:0:0:0:
92,319,47349,1,0,3:0:0:0:
124,306,47434,1,0,3:0:0:0:
149,275,47520,1,2,0:0:0:0:
79,108,47692,6,0,P|73:150|68:187,1,80.750001540184,2|0,0:0|3:0,0:0:0:0:
149,275,47949,1,0,3:0:0:0:
149,275,48034,2,0,P|191:269|228:264,1,80.750001540184,2|0,0:0|3:0,0:0:0:0:
291,155,48292,1,0,3:0:0:0:
291,155,48377,2,0,P|249:161|212:166,1,80.750001540184,8|0,0:0|3:0,0:0:0:0:
109,114,48634,1,0,3:0:0:0:
79,108,48720,1,0,3:0:0:0:
149,275,48892,1,2,0:0:0:0:
291,155,49063,5,0,3:0:0:0:
321,135,49149,1,0,3:0:0:0:
358,126,49234,1,0,3:0:0:0:
396,126,49320,1,0,3:0:0:0:
433,135,49406,6,0,L|422:189,1,47.5,2|0,0:0|0:0,0:0:0:0:
313,235,49577,2,0,L|326:288,1,47.5,8|8,0:0|0:0,0:0:0:0:
422,356,49749,2,0,P|451:309|439:264,1,95,2|0,0:0|0:0,0:0:0:0:
391,208,50006,1,0,0:0:0:0:
313,235,50092,6,0,P|262:184|337:163,1,170.999994781494,4|0,1:2|0:0,0:0:0:0:
391,208,50434,5,4,1:0:0:0:
259,311,50606,1,0,0:0:0:0:
239,132,50777,1,2,0:0:0:0:
347,291,50949,1,0,0:0:0:0:
441,119,51120,1,2,0:0:0:0:
441,119,51206,2,0,P|397:119|345:85,1,85.4999973907472
280,39,51463,2,0,P|229:46|187:51,1,85.4999973907472,2|0,0:0|0:0,0:0:0:0:
64,143,51806,5,2,0:0:0:0:
228,193,51977,1,0,0:0:0:0:
104,317,52149,1,2,0:0:0:0:
159,113,52320,1,0,0:0:0:0:
296,256,52492,2,0,P|345:258|384:225,1,85.4999973907472,2|0,0:0|0:0,0:0:0:0:
434,176,52749,1,0,0:0:0:0:
430,212,52834,1,2,0:0:0:0:
426,248,52920,1,0,0:0:0:0:
422,284,53006,1,0,0:0:0:0:
282,340,53177,6,0,P|289:298|298:242,1,85.4999973907472,2|0,0:0|0:0,0:0:0:0:
246,178,53434,1,0,0:0:0:0:
215,156,53520,1,2,0:0:0:0:
180,149,53606,1,0,0:0:0:0:
143,154,53692,1,0,0:0:0:0:
107,172,53777,1,0,0:0:0:0:
78,201,53863,5,2,0:0:0:0:
78,201,53949,2,0,P|84:243|91:285,1,85.4999973907472
188,354,54206,1,2,0:0:0:0:
214,344,54292,2,0,P|221:301|227:259,1,85.4999973907472
311,164,54549,5,2,0:0:0:0:
202,43,54720,1,0,0:0:0:0:
180,47,54806,1,0,0:0:0:0:
158,51,54892,2,0,P|134:98|147:135,1,85.4999973907472,2|0,0:0|0:0,0:0:0:0:
182,199,55149,1,0,0:0:0:0:
263,219,55234,6,0,P|312:212|368:202,1,85.4999973907472,2|0,0:0|0:0,0:0:0:0:
402,299,55492,1,0,0:0:0:0:
402,299,55577,2,0,P|379:294|342:280,1,42.7499986953736,2|0,0:0|0:0,0:0:0:0:
265,125,55749,2,0,P|288:130|325:144,1,42.7499986953736
431,192,55920,6,0,P|382:199|326:209,1,85.4999973907472,6|0,0:0|0:0,0:0:0:0:
239,241,56263,1,2,0:0:0:0:
402,299,56434,1,0,0:0:0:0:
370,122,56606,1,2,0:0:0:0:
370,122,56692,2,0,P|356:170|345:209,1,85.4999973907472
265,255,56949,2,0,P|279:303|290:342,1,85.4999973907472,2|0,0:0|0:0,0:0:0:0:
139,293,57292,5,2,0:0:0:0:
265,166,57463,1,0,0:0:0:0:
106,114,57634,1,2,0:0:0:0:
266,254,57806,1,0,0:0:0:0:
309,54,57977,1,2,0:0:0:0:
174,198,58149,1,0,0:0:0:0:
160,210,58234,1,0,0:0:0:0:
146,222,58320,2,0,L|91:214,1,42.7499986953736,2|0,0:0|0:0,0:0:0:0:
19,200,58492,1,0,0:0:0:0:
126,343,58663,6,0,P|172:346|214:317,1,85.4999973907472,2|0,0:0|0:0,0:0:0:0:
266,254,58920,1,0,0:0:0:0:
299,233,59006,1,2,0:0:0:0:
339,225,59092,1,0,0:0:0:0:
379,229,59177,1,0,0:0:0:0:
414,247,59263,1,0,0:0:0:0:
439,279,59349,5,2,0:0:0:0:
439,279,59434,2,0,P|446:232|453:186,1,85.4999973907472
355,73,59692,1,2,0:0:0:0:
355,73,59777,2,0,P|362:120|369:166,1,85.4999973907472
266,254,60034,6,0,P|215:255|164:223,1,104.500003189087,4|0,1:0|0:0,0:0:0:0:
24,175,60292,1,0,0:0:0:0:
24,175,60377,2,0,P|75:176|126:144,1,104.500003189087,4|0,1:0|0:0,0:0:0:0:
241,57,60634,1,0,0:0:0:0:
241,57,60720,2,0,P|227:102|218:125,1,52.2500015945435,2|0,0:0|0:0,0:0:0:0:
120,150,60892,2,0,P|132:185|143:218,1,52.2500015945435,2|0,0:0|0:0,0:0:0:0:
133,342,61063,6,0,L|119:308,1,23.75,2|2,0:0|0:0,0:0:0:0:
166,322,61149,2,0,L|165:290,1,23.75,2|2,0:0|0:0,0:0:0:0:
209,311,61234,2,0,L|214:284,1,23.75,2|2,0:0|0:0,0:0:0:0:
253,313,61320,2,0,L|263:287,1,23.75,2|2,0:0|0:0,0:0:0:0:
327,330,61406,6,0,P|380:331|425:307,1,95,6|8,1:0|0:0,0:0:0:0:
480,245,61663,1,0,0:0:0:0:
480,245,61749,1,2,1:0:0:0:
372,105,61920,1,8,0:0:0:0:
372,105,62006,1,0,3:0:0:0:
372,105,62092,2,0,P|363:164|355:206,1,95,2|8,1:0|0:0,0:0:0:0:
238,340,62434,1,2,1:0:0:0:
200,135,62606,1,8,0:0:0:0:
47,281,62777,6,0,P|106:272|148:264,1,95,2|8,1:0|0:0,0:0:0:0:
238,340,63034,1,0,0:0:0:0:
238,340,63120,2,0,P|279:322|335:327,1,95,2|8,1:0|0:0,0:0:0:0:
454,363,63377,1,0,3:0:0:0:
454,363,63463,2,0,P|462:316|469:269,1,95,2|8,1:0|0:0,0:0:0:0:
399,161,63720,1,0,3:0:0:0:
399,161,63806,2,0,L|390:216,1,47.5,2|0,1:0|3:0,0:0:0:0:
328,324,63977,2,0,L|320:277,1,47.5,8|0,0:0|0:0,0:0:0:0:
210,174,64149,6,0,P|166:165|118:191,1,95,2|8,1:0|0:0,0:0:0:0:
58,309,64406,1,0,0:0:0:0:
91,304,64492,2,0,L|183:284,1,95,2|8,1:0|0:0,0:0:0:0:
281,333,64749,1,0,0:0:0:0:
281,333,64834,6,0,P|313:327|340:321,1,47.5,2|0,1:0|3:0,0:0:0:0:
389,223,65006,2,0,P|357:229|330:235,1,47.5,8|0,0:0|3:0,0:0:0:0:
408,353,65177,6,0,P|412:328|417:306,1,47.5,2|0,1:0|3:0,0:0:0:0:
264,189,65349,2,0,P|259:212|254:235,1,47.5,8|0,0:0|3:0,0:0:0:0:
91,304,65520,6,0,P|77:242|67:197,1,95,2|8,1:0|0:0,0:0:0:0:
161,128,65777,1,0,0:0:0:0:
161,128,65863,2,0,P|187:169|177:224,1,95,2|8,1:0|0:0,0:0:0:0:
91,304,66120,5,0,0:0:0:0:
91,304,66206,2,0,L|39:294,1,47.5,4|0,1:2|0:0,0:0:0:0:
182,213,66377,1,8,0:0:0:0:
182,213,66463,1,8,0:0:0:0:
182,213,66549,6,0,L|234:223,1,47.5,2|0,1:2|0:0,0:0:0:0:
330,316,66720,2,0,L|382:306,1,47.5,4|0,1:2|0:0,0:0:0:0:
502,215,66892,6,0,P|454:217|406:189,1,95,4|8,1:2|0:0,0:0:0:0:
341,133,67149,1,0,0:0:0:0:
341,133,67234,1,2,1:0:0:0:
166,299,67406,1,8,0:0:0:0:
166,299,67492,1,0,0:0:0:0:
166,299,67577,2,0,P|214:301|262:273,1,95,2|8,1:0|0:0,0:0:0:0:
327,217,67834,1,0,0:0:0:0:
327,217,67919,1,2,1:0:0:0:
173,100,68092,1,8,0:0:0:0:
173,100,68177,1,0,0:0:0:0:
173,100,68263,6,0,P|181:148|189:196,1,95,2|8,1:0|0:0,0:0:0:0:
342,309,68606,2,0,P|395:290|417:247,1,95,2|8,1:0|0:0,0:0:0:0:
319,129,68863,1,0,0:0:0:0:
319,129,68949,2,0,P|308:184|335:224,1,95,2|8,1:0|0:0,0:0:0:0:
495,205,69206,1,0,0:0:0:0:
495,205,69292,1,2,1:0:0:0:
467,173,69377,1,0,0:0:0:0:
428,161,69463,1,8,0:0:0:0:
385,167,69549,1,0,0:0:0:0:
326,216,69634,6,0,L|339:246,1,29.6875,6|0,1:2|3:0,0:0:0:0:
293,235,69720,2,0,L|298:269,1,29.6875,0|0,3:0|3:0,0:0:0:0:
252,240,69806,2,0,L|247:277,1,29.6875,0|0,3:0|3:0,0:0:0:0:
214,231,69892,2,0,L|199:261,1,29.6875,0|0,3:0|3:0,0:0:0:0:
184,206,69977,6,0,L|189:166,1,29.6875,2|0,0:0|0:0,0:0:0:0:
147,182,70063,2,0,L|138:147,1,29.6875,0|0,3:0|3:0,0:0:0:0:
105,182,70149,2,0,L|82:151,1,29.6875,0|0,3:0|3:0,0:0:0:0:
66,203,70234,2,0,L|36:190,1,29.6875,0|0,3:0|3:0,0:0:0:0:
45,245,70320,6,0,L|9:243,1,29.6875,4|0,1:2|3:0,0:0:0:0:
49,290,70406,2,0,L|17:300,1,29.6875,0|0,3:0|3:0,0:0:0:0:
74,325,70492,2,0,L|45:346,1,29.6875,0|0,3:0|3:0,0:0:0:0:
112,343,70577,2,0,L|98:375,1,29.6875,0|0,3:0|3:0,0:0:0:0:
157,337,70663,6,0,L|151:294,1,29.6875,2|0,0:0|3:0,0:0:0:0:
206,320,70749,2,0,L|210:285,1,29.6875,0|0,3:0|3:0,0:0:0:0:
258,317,70834,2,0,L|271:282,1,29.6875,0|0,3:0|3:0,0:0:0:0:
305,323,70920,2,0,L|324:297,1,29.6875,0|0,3:0|3:0,0:0:0:0:
374,356,71006,6,0,P|448:359|490:317,1,118.75,4|0,1:0|3:0,0:0:0:0:
504,172,71263,2,0,P|430:169|388:211,1,118.75,4|0,1:0|3:0,0:0:0:0:
268,289,71520,6,0,L|201:274,1,59.375,0|0,1:0|0:0,0:0:0:0:
158,111,71692,2,0,L|225:126,1,59.375,2|0,1:0|0:0,0:0:0:0:
389,163,71863,5,0,3:0:0:0:
389,163,71949,1,0,3:0:0:0:
389,163,72034,2,0,P|341:200|284:181,1,106.875004076958,4|0,1:2|0:0,0:0:0:0:
158,111,72377,6,0,L|107:122,1,52.2500015945435,6|0,1:0|0:0,0:0:0:0:
44,259,72549,1,0,0:0:0:0:
57,267,72634,1,0,0:0:0:0:
70,275,72720,2,0,L|121:264,1,52.2500015945435,10|0,1:2|0:0,0:0:0:0:
318,133,72892,6,0,L|267:144,1,52.2500015945435
204,281,73064,1,2,1:0:0:0:
217,289,73149,1,0,0:0:0:0:
230,297,73235,2,0,L|281:286,1,52.2500015945435
478,155,73406,6,0,L|427:166,1,52.2500015945435,10|0,1:2|0:0,0:0:0:0:
364,303,73578,1,0,0:0:0:0:
377,311,73663,1,0,0:0:0:0:
389,319,73749,2,0,L|440:308,1,52.2500015945435,2|0,1:0|0:0,0:0:0:0:
478,155,73920,5,0,0:0:0:0:
474,138,74006,1,0,0:0:0:0:
471,119,74092,5,10,1:2:0:0:
444,94,74177,1,0,0:0:0:0:
408,84,74263,1,0,0:0:0:0:
371,84,74349,1,0,0:0:0:0:
309,36,74434,5,2,1:0:0:0:
272,33,74520,1,0,0:0:0:0:
232,46,74606,1,0,0:0:0:0:
204,77,74692,1,0,0:0:0:0:
126,70,74777,5,10,1:2:0:0:
93,96,74863,1,0,0:0:0:0:
75,133,74949,1,0,0:0:0:0:
70,174,75034,1,0,0:0:0:0:
38,257,75120,6,0,L|92:246,1,52.2500015945435,0|0,1:0|0:0,0:0:0:0:
275,153,75292,1,0,0:0:0:0:
275,153,75377,1,0,0:0:0:0:
275,153,75463,2,0,L|221:165,1,52.2500015945435,10|0,1:2|0:0,0:0:0:0:
128,326,75634,6,0,L|158:280,1,52.2500015945435
183,83,75806,1,2,1:0:0:0:
183,83,75891,1,0,0:0:0:0:
183,83,75977,2,0,L|153:130,1,52.2500015945435
236,294,76149,6,0,L|225:240,1,52.2500015945435,10|0,1:2|0:0,0:0:0:0:
76,117,76321,1,0,0:0:0:0:
76,117,76406,1,0,0:0:0:0:
76,117,76492,2,0,L|87:171,1,52.2500015945435,2|0,1:0|0:0,0:0:0:0:
225,243,76663,6,0,L|264:233,3,26.1250007972718,0|0|0|0,0:0|0:0|0:0|0:0,1:2:0:0:
313,280,76834,1,10,1:2:0:0:
354,286,76920,1,2,0:0:0:0:
394,273,77006,1,2,0:0:0:0:
422,242,77092,1,2,0:0:0:0:
431,201,77177,6,0,P|420:151|408:94,1,104.500003189087,2|0,1:0|0:0,0:0:0:0:
289,32,77434,2,0,P|285:59|279:93,1,52.2500015945435,0|2,0:0|0:0,0:0:0:0:
180,159,77606,1,0,0:0:0:0:
140,175,77692,1,8,0:0:0:0:
99,166,77777,1,8,0:0:0:0:
64,141,77863,6,0,L|52:88,1,52.2500015945435,6|0,1:2|0:0,0:0:0:0:
130,25,78034,1,0,0:0:0:0:
130,25,78120,1,0,0:0:0:0:
130,25,78206,2,0,L|142:78,1,52.2500015945435,10|0,1:2|0:0,0:0:0:0:
180,263,78377,6,0,L|140:299,1,52.2500015945435
46,263,78548,1,2,1:0:0:0:
46,263,78634,1,0,0:0:0:0:
46,263,78720,2,0,L|85:226,1,52.2500015945435
227,103,78892,6,0,L|278:119,1,52.2500015945435,10|0,1:2|0:0,0:0:0:0:
294,218,79063,1,0,0:0:0:0:
294,218,79149,1,0,0:0:0:0:
294,218,79235,2,0,L|242:201,1,52.2500015945435,2|0,1:0|0:0,0:0:0:0:
293,32,79406,5,0,0:0:0:0:
293,32,79492,1,0,0:0:0:0:
293,32,79578,2,0,L|344:48,2,52.2500015945435,10|0|0,1:2|0:0|0:0,0:0:0:0:
117,98,79920,5,2,1:0:0:0:
86,126,80006,1,0,0:0:0:0:
75,166,80092,1,0,0:0:0:0:
81,206,80177,1,0,0:0:0:0:
105,241,80263,2,0,L|156:257,1,52.2500015945435,10|0,1:2|0:0,0:0:0:0:
218,332,80434,1,0,0:0:0:0:
385,262,80606,6,0,L|401:210,1,52.2500015945435,2|0,1:0|0:0,0:0:0:0:
440,83,80777,1,0,0:0:0:0:
440,83,80863,1,0,0:0:0:0:
440,83,80949,1,10,1:2:0:0:
295,280,81120,6,0,L|294:225,1,52.2500015945435
291,92,81291,1,2,1:0:0:0:
291,92,81377,1,0,0:0:0:0:
291,92,81463,1,0,0:0:0:0:
218,332,81634,6,0,L|200:280,1,52.2500015945435,10|0,1:2|0:0,0:0:0:0:
157,154,81805,1,0,0:0:0:0:
157,154,81891,1,0,0:0:0:0:
157,154,81977,1,0,0:0:0:0:
295,280,82149,5,2,1:0:0:0:
333,295,82234,1,0,0:0:0:0:
374,291,82320,1,0,0:0:0:0:
408,266,82406,1,0,0:0:0:0:
428,228,82492,2,0,P|427:200|415:170,1,52.2500015945435
326,54,82663,5,2,1:0:0:0:
316,91,82749,1,0,0:0:0:0:
247,109,82834,1,0,0:0:0:0:
259,140,82920,1,0,0:0:0:0:
235,207,83006,5,8,0:0:0:0:
199,189,83092,1,2,0:0:0:0:
159,182,83177,1,2,0:0:0:0:
119,185,83263,1,2,0:0:0:0:
79,199,83349,6,0,L|90:256,1,52.2500015945435,6|0,1:0|0:0,0:0:0:0:
189,359,83520,1,0,0:0:0:0:
196,347,83606,1,0,0:0:0:0:
204,336,83692,2,0,L|193:279,1,52.2500015945435,10|0,1:2|0:0,0:0:0:0:
189,137,83863,6,0,L|200:194,1,52.2500015945435
299,297,84034,1,2,1:0:0:0:
306,285,84120,1,0,0:0:0:0:
314,274,84206,2,0,L|303:217,1,52.2500015945435
299,75,84377,6,0,L|310:132,1,52.2500015945435,10|0,1:2|0:0,0:0:0:0:
409,235,84548,1,0,0:0:0:0:
416,223,84634,1,0,0:0:0:0:
424,212,84720,2,0,L|413:155,1,52.2500015945435,0|0,1:0|0:0,0:0:0:0:
299,75,84892,5,0,0:0:0:0:
274,65,84977,1,0,0:0:0:0:
248,56,85063,5,10,1:2:0:0:
207,61,85149,1,0,0:0:0:0:
175,85,85234,1,0,0:0:0:0:
158,122,85320,1,0,0:0:0:0:
100,171,85406,5,2,1:0:0:0:
124,204,85492,1,0,0:0:0:0:
161,219,85577,1,0,0:0:0:0:
202,215,85663,1,0,0:0:0:0:
273,240,85749,5,10,1:2:0:0:
289,201,85835,1,0,0:0:0:0:
284,162,85920,1,0,0:0:0:0:
260,129,86006,1,0,0:0:0:0:
175,85,86092,6,0,L|111:98,1,52.2500015945435,2|0,1:0|0:0,0:0:0:0:
46,200,86263,1,0,0:0:0:0:
59,207,86349,1,0,0:0:0:0:
72,214,86434,2,0,L|136:201,1,52.2500015945435,10|0,1:2|0:0,0:0:0:0:
232,151,86606,6,0,L|296:164,1,52.2500015945435
361,266,86777,1,2,1:0:0:0:
348,273,86863,1,0,0:0:0:0:
335,280,86948,2,0,L|271:267,1,52.2500015945435
142,217,87120,6,0,L|78:230,1,52.2500015945435,10|0,1:2|0:0,0:0:0:0:
13,332,87291,1,0,0:0:0:0:
26,339,87377,1,0,0:0:0:0:
39,346,87462,2,0,L|103:333,1,52.2500015945435,2|0,1:0|0:0,0:0:0:0:
176,360,87634,6,0,P|235:342|296:354,1,104.500003189087,0|10,0:0|1:2,0:0:0:0:
356,360,87892,1,2,0:0:0:0:
398,356,87977,1,2,0:0:0:0:
433,334,88063,1,2,0:0:0:0:
454,296,88149,6,0,P|454:254|438:225,1,52.2500015945435,0|0,1:0|0:0,0:0:0:0:
313,251,88320,5,0,0:0:0:0:
313,251,88406,2,0,P|349:272|382:272,1,52.2500015945435,0|2,1:0|0:0,0:0:0:0:
423,155,88577,5,0,0:0:0:0:
423,155,88663,2,0,P|386:175|369:204,1,52.2500015945435,8|8,0:0|0:0,0:0:0:0:
215,266,88834,6,0,L|166:249,1,52.2500015945435,6|0,1:2|0:0,0:0:0:0:
36,276,89006,1,0,0:0:0:0:
43,290,89092,1,0,0:0:0:0:
50,307,89177,2,0,L|99:324,1,52.2500015945435,10|0,1:2|0:0,0:0:0:0:
215,266,89349,6,0,L|232:217,1,52.2500015945435
205,87,89521,1,2,1:0:0:0:
191,94,89607,1,0,0:0:0:0:
174,101,89692,2,0,L|157:150,1,52.2500015945435
215,266,89863,6,0,L|264:283,1,52.2500015945435,10|0,1:2|0:0,0:0:0:0:
394,256,90035,1,0,0:0:0:0:
387,242,90121,1,0,0:0:0:0:
380,225,90206,2,0,L|331:208,1,52.2500015945435,2|0,1:0|0:0,0:0:0:0:
156,151,90377,5,0,0:0:0:0:
156,151,90463,1,0,0:0:0:0:
156,151,90549,1,10,1:2:0:0:
191,158,90634,1,0,0:0:0:0:
226,153,90720,1,0,0:0:0:0:
253,133,90806,1,0,0:0:0:0:
289,67,90892,5,2,1:0:0:0:
325,47,90977,1,0,0:0:0:0:
367,44,91063,1,0,0:0:0:0:
407,60,91149,1,0,0:0:0:0:
447,125,91234,5,10,1:2:0:0:
440,168,91320,1,0,0:0:0:0:
433,209,91406,1,0,0:0:0:0:
426,252,91492,1,0,0:0:0:0:
345,272,91577,6,0,L|358:217,1,47.5,2|0,0:0|0:0,0:0:0:0:
298,105,91749,1,0,0:0:0:0:
298,105,91834,1,0,0:0:0:0:
298,105,91920,2,0,L|311:160,1,47.5,10|0,0:0|0:0,0:0:0:0:
253,300,92092,6,0,L|266:245,1,47.5
206,84,92264,1,2,0:0:0:0:
206,84,92349,1,0,0:0:0:0:
206,84,92435,2,0,L|219:139,1,47.5
165,322,92606,6,0,L|178:267,1,47.5,10|0,0:0|0:0,0:0:0:0:
118,66,92778,1,2,0:0:0:0:
118,66,92863,1,0,0:0:0:0:
118,66,92949,6,0,L|131:121,1,47.5
232,214,93120,2,0,L|287:204,1,47.5,2|2,0:0|0:0,0:0:0:0:
351,81,93292,1,2,0:0:0:0:
324,76,93377,1,2,0:0:0:0:
299,71,93463,1,2,0:0:0:0:
273,65,93549,1,2,0:0:0:0:
198,49,93634,6,0,P|151:90|171:172,1,142.5
232,214,93977,6,0,P|298:201|350:190,1,118.75,4|0,1:2|0:0,0:0:0:0:
413,241,94234,1,0,0:0:0:0:
387,318,94320,6,0,P|338:357|244:337,1,142.5,6|0,1:0|0:0,0:0:0:0:
190,303,94663,2,0,P|200:253|209:203,1,95,2|0,1:0|0:0,0:0:0:0:
325,76,95006,2,0,P|335:126|344:176,1,95,2|0,0:0|0:0,0:0:0:0:
350,190,95263,2,0,L|390:180,2,23.75,0|0|2,0:0|0:0|1:0,0:0:0:0:
190,303,95520,2,0,P|144:330|103:321,1,95,0|2,0:0|0:0,0:0:0:0:
7,180,95863,5,0,0:0:0:0:
15,164,95949,1,0,0:0:0:0:
24,148,96034,2,0,P|70:139|117:130,1,95,2|0,1:0|0:0,0:0:0:0:
257,216,96377,2,0,P|265:262|274:309,1,95,2|0,0:0|0:0,0:0:0:0:
425,361,96634,1,0,0:0:0:0:
439,343,96720,2,0,P|445:296|419:258,1,95,2|0,1:0|0:0,0:0:0:0:
257,216,97063,6,0,P|198:227|94:245,1,142.5,2|0,0:0|0:0,0:0:0:0:
51,182,97406,2,0,P|46:136|71:95,1,95,2|0,1:0|0:0,0:0:0:0:
146,158,97663,2,0,L|114:149,2,23.75,0|0|2,0:0|0:0|0:0,0:0:0:0:
284,242,97920,1,0,0:0:0:0:
320,253,98006,1,0,0:0:0:0:
362,251,98092,1,2,1:0:0:0:
398,228,98177,1,0,0:0:0:0:
420,193,98263,2,0,B|430:166|419:142|419:142|465:155|453:227,1,142.5
396,335,98606,5,0,0:0:0:0:
396,335,98692,1,0,0:0:0:0:
396,335,98777,2,0,P|370:329|339:324,1,47.5,2|0,1:0|0:0,0:0:0:0:
257,216,98948,2,0,P|231:222|200:227,1,47.5
45,298,99119,1,2,0:0:0:0:
45,298,99205,1,0,0:0:0:0:
45,298,99292,2,0,P|88:304|120:311,1,71.25
135,314,99463,6,0,P|183:269|172:189,1,142.5,2|0,1:0|0:0,0:0:0:0:
142,119,99806,6,0,P|94:164|105:244,1,142.5,6|0,1:2|0:0,0:0:0:0:
155,318,100149,2,0,P|214:307|254:298,1,95,2|0,1:0|0:0,0:0:0:0:
377,231,100492,2,0,L|387:266,2,23.75,2|0|0,0:0|0:0|0:0,0:0:0:0:
371,209,100663,2,0,P|312:198|272:189,1,95,0|2,0:0|1:0,0:0:0:0:
142,119,101006,1,0,0:0:0:0:
278,22,101177,6,0,P|310:58|309:106,1,95,6|0,1:2|0:0,0:0:0:0:
278,192,101434,1,0,0:0:0:0:
271,207,101520,2,0,L|224:196,1,47.5,2|0,1:0|0:0,0:0:0:0:
95,130,101692,2,0,L|146:117,1,47.5
236,285,101863,6,0,P|191:285|152:256,1,95,2|0,0:0|0:0,0:0:0:0:
95,130,102120,1,0,0:0:0:0:
95,130,102206,2,0,L|108:84,1,47.5,2|0,1:0|0:0,0:0:0:0:
240,29,102377,2,0,L|253:75,1,47.5
343,187,102549,6,0,P|394:178|447:167,1,104.500003189087,6|0,1:0|0:0,0:0:0:0:
502,117,102806,1,0,3:0:0:0:
502,117,102892,1,8,1:2:0:0:
342,306,103063,1,2,0:0:0:0:
252,74,103234,1,6,1:0:0:0:
342,306,103406,2,0,L|400:295,1,52.2500015945435,0|2,0:0|0:0,0:0:0:0:
476,280,103577,1,8,1:2:0:0:
237,223,103749,6,0,P|195:282|227:364,1,156.750004783631,4|0,1:0|0:0,0:0:0:0:
325,221,104092,1,0,0:0:0:0:
338,205,104178,2,0,L|330:157,2,47.5,0|6|0,0:0|1:2|0:0,0:0:0:0:
156,182,104434,1,0,0:0:0:0:
143,166,104520,2,0,L|151:118,2,47.5,0|6|0,0:0|1:2|0:0,0:0:0:0:
225,28,104777,5,0,3:0:0:0:
241,36,104863,1,0,3:0:0:0:
259,43,104949,2,0,L|270:104,1,52.2500015945435,8|0,0:0|0:0,0:0:0:0:
338,205,105120,6,0,P|401:212|445:168,1,106.875004076958,4|0,1:0|0:0,0:0:0:0:
421,38,105463,1,0,0:0:0:0:
388,59,105549,1,0,0:0:0:0:
373,91,105634,1,4,1:0:0:0:
376,128,105720,1,0,0:0:0:0:
338,205,105806,6,0,L|351:252,1,35.625001358986
377,336,105977,1,4,1:0:0:0:
256,192,106063,12,2,107177,0:0:0:0:
256,192,107263,12,0,108977,0:0:0:0:
