osu file format v14

[General]
AudioFilename: Chinese Restaurant.mp3
AudioLeadIn: 2000
PreviewTime: 72372
Countdown: 0
SampleSet: Soft
StackLeniency: 0.5
Mode: 0
LetterboxInBreaks: 0
WidescreenStoryboard: 1

[Editor]
DistanceSpacing: 0.8
BeatDivisor: 4
GridSize: 32
TimelineZoom: 0.9000002

[Metadata]
Title:Chinese Restaurant
TitleUnicode:Chinese Restaurant
Artist:Memme
ArtistUnicode:Memme
Creator:KantoKun
Version:EXTREME
Source:Pump It Up Prime
Tags:ParkMemme dance simulation arcade
BeatmapID:1250892
BeatmapSetID:591052

[Difficulty]
HPDrainRate:7
CircleSize:4
OverallDifficulty:7
ApproachRate:9
SliderMultiplier:1.78
SliderTickRate:1

[Events]
//Background and Video events
0,0,"BG.jpg",0,0
//Break Periods
2,50634,59434
//Storyboard Layer 0 (Background)
//Storyboard Layer 1 (Fail)
//Storyboard Layer 2 (Pass)
//Storyboard Layer 3 (Foreground)
//Storyboard Layer 4 (Overlay)
//Storyboard Sound Samples

[TimingPoints]
-308,342.857142857143,4,3,1,40,1,0
1063,-100,4,2,1,70,0,0
3463,-66.6666666666667,4,2,1,70,0,0
3549,-66.6666666666667,4,2,1,5,0,0
3634,-100,4,2,5,70,0,0
5006,-79.9999999999999,4,2,5,70,0,0
5092,-100,4,2,5,70,0,0
6206,-80,4,2,2,70,0,0
6463,-100,4,2,5,70,0,1
10663,-100,4,2,6,60,0,1
10834,-100,4,2,5,70,0,1
13406,-100,4,2,6,60,0,1
13577,-100,4,2,5,70,0,1
16834,-79.9999999999999,4,2,5,70,0,0
17349,-100,4,2,5,70,0,0
17692,-100,4,2,5,50,0,0
18549,-100,4,2,5,70,0,0
19063,-100,4,2,5,50,0,0
20263,-100,4,2,5,70,0,0
23177,-100,4,2,5,50,0,0
24034,-100,4,2,5,70,0,0
24549,-100,4,2,5,50,0,0
25406,-79.9999999999999,4,2,5,70,0,0
25749,-100,4,2,5,70,0,0
26949,-126.582278481013,4,2,5,70,0,0
27463,-100,4,2,5,70,0,0
27977,-200,4,2,2,70,0,0
28063,-200,4,2,5,5,0,0
28492,-100,4,2,5,70,0,0
38777,-100,4,2,2,70,0,0
39120,-133.333333333333,4,2,5,70,0,0
43920,-100,4,2,5,70,0,0
44949,-133.333333333333,4,2,5,70,0,0
46663,-133.333333333333,4,2,5,40,0,0
49406,-100,4,2,5,70,0,0
50092,-100,4,2,2,70,0,0
50434,-111.111111111111,4,2,5,70,0,0
61063,-100,4,2,1,70,0,0
61406,-100,4,2,5,70,0,0
66892,-100,4,2,2,70,0,0
66977,-100,4,2,5,70,0,0
69634,-80,4,2,5,50,0,0
71006,-80,4,2,5,70,0,0
72034,-133.333333333333,4,2,2,70,0,0
72377,-90.9090909090909,4,2,5,80,0,1
82492,-90.9090909090909,4,2,5,70,0,0
83349,-90.9090909090909,4,2,5,80,0,1
91577,-100,4,2,5,70,0,0
93977,-133.333333333333,4,2,2,70,0,0
94320,-100,4,2,5,70,0,1
105120,-133.333333333333,4,2,5,50,0,0
106063,-200,4,2,1,30,0,0
107263,-200,4,2,5,5,0,0

[Colours]
Combo1 : 142,199,255
Combo2 : 255,128,128
Combo3 : 128,255,255
Combo4 : 128,255,128
Combo5 : 255,187,255
Combo6 : 255,177,140

[HitObjects]
34,121,377,6,0,P|79:114|126:110,1,89
149,109,634,1,0,0:0:0:0:
176,109,720,2,0,L|217:117,7,22.25,0|0|0|0|0|0|0|0,0:0|0:0|0:0|0:0|0:0|0:0|0:0|0:0,0:0:0:0:
269,87,1063,5,4,1:2:0:0:
341,230,1234,1,2,0:0:0:0:
346,202,1320,1,0,0:0:0:0:
352,175,1406,1,0,0:0:0:0:
269,87,1577,5,4,1:2:0:0:
129,196,1749,1,2,0:0:0:0:
158,192,1834,1,0,0:0:0:0:
186,188,1920,1,0,0:0:0:0:
269,87,2092,5,4,1:2:0:0:
426,293,2263,1,2,0:0:0:0:
431,265,2349,1,0,0:0:0:0:
437,238,2435,1,0,0:0:0:0:
269,87,2606,5,4,1:2:0:0:
100,293,2777,1,2,0:0:0:0:
129,289,2862,1,0,0:0:0:0:
157,285,2948,1,0,0:0:0:0:
282,343,3120,6,0,L|329:351,1,44.5,2|2,1:2|0:0,0:0:0:0:
160,192,3292,2,0,L|108:200,1,44.5,2|2,0:2|0:0,0:0:0:0:
296,219,3463,6,0,L|307:107,1,100.125003819466,0|0,1:0|0:0,0:0:0:0:
313,72,3634,6,0,P|308:127|352:217,1,133.5,4|0,1:2|0:0,0:0:0:0:
395,250,3977,1,0,0:0:0:0:
481,174,4149,1,2,1:0:0:0:
295,219,4320,1,0,0:0:0:0:
497,282,4492,1,2,1:0:0:0:
374,148,4663,5,0,0:0:0:0:
417,355,4834,1,2,1:0:0:0:
450,182,5006,6,0,P|452:120|362:68,1,166.875,4|0,1:2|0:0,0:0:0:0:
303,107,5349,1,0,1:0:0:0:
274,103,5434,1,0,0:0:0:0:
248,99,5520,2,0,P|218:105|186:112,1,44.5,0|0,1:0|0:0,0:0:0:0:
35,190,5692,2,0,P|65:196|97:203,1,44.5,2|0,0:0|0:0,0:0:0:0:
306,297,5863,5,0,1:0:0:0:
271,306,5949,1,0,0:0:0:0:
236,315,6034,1,0,3:0:0:0:
201,324,6120,1,0,3:0:0:0:
166,333,6206,6,0,P|170:287|177:206,1,111.25,4|0,1:2|0:0,0:0:0:0:
186,141,6463,1,0,0:0:0:0:
186,141,6549,6,0,P|154:102|53:88,1,133.5,6|0,1:0|0:0,0:0:0:0:
48,88,6892,2,0,P|36:42|41:0,1,89,2|0,1:0|0:0,0:0:0:0:
280,105,7234,2,0,P|284:149|272:191,1,89,2|0,0:0|0:0,0:0:0:0:
207,239,7492,2,0,L|178:243,2,22.25,0|0|2,0:0|0:0|1:0,0:0:0:0:
307,344,7749,6,0,P|352:339|398:334,1,89,0|2,0:0|0:0,0:0:0:0:
376,165,8092,1,0,0:0:0:0:
359,191,8177,1,0,0:0:0:0:
344,216,8263,2,0,P|339:171|334:125,1,89,2|0,1:0|0:0,0:0:0:0:
222,45,8606,2,0,P|185:64|119:63,1,89,2|0,0:0|0:0,0:0:0:0:
108,63,8863,1,0,0:0:0:0:
81,54,8949,2,0,P|73:103|68:147,1,89,2|0,1:0|0:0,0:0:0:0:
228,365,9292,6,0,P|236:312|194:230,1,133.5,2|0,0:0|0:0,0:0:0:0:
150,186,9634,2,0,P|156:136|165:84,1,89,2|0,1:0|0:0,0:0:0:0:
222,45,9892,2,0,L|216:5,2,22.25,0|0|2,0:0|0:0|0:0,0:0:0:0:
331,107,10149,1,0,0:0:0:0:
357,102,10234,1,0,0:0:0:0:
384,97,10320,2,0,L|438:87,1,44.5,2|0,1:0|0:0,0:0:0:0:
508,72,10492,6,0,P|423:55|349:40,1,133.5
344,40,10834,2,0,L|353:85,1,44.5
236,167,11006,2,0,L|240:122,1,44.5,2|0,1:0|0:0,0:0:0:0:
298,228,11177,5,0,0:0:0:0:
268,248,11263,1,0,0:0:0:0:
232,253,11349,1,2,0:0:0:0:
197,245,11434,1,0,0:0:0:0:
168,224,11520,1,0,0:0:0:0:
151,192,11606,1,0,0:0:0:0:
148,156,11692,2,0,P|155:101|162:42,1,89,2|0,1:0|0:0,0:0:0:0:
317,146,12034,6,0,P|383:158|451:103,1,133.5,6|0,0:0|0:0,0:0:0:0:
472,56,12377,2,0,P|441:104|451:191,1,133.5,2|0,1:0|0:0,0:0:0:0:
488,244,12720,2,0,P|493:271|495:285,2,22.25,2|0|0,0:0|0:0|0:0,0:0:0:0:
416,288,12892,2,0,P|363:282|322:278,1,89,0|2,0:0|1:0,0:0:0:0:
54,327,13234,6,0,B|107:347|123:302|187:322,1,133.5
209,336,13577,2,0,L|221:284,1,44.5
78,241,13749,2,0,L|70:197,2,44.5,2|0|0,1:0|0:0|0:0,0:0:0:0:
216,171,14092,6,0,P|269:163|310:160,1,89,2|0,0:0|0:0,0:0:0:0:
334,178,14349,1,0,0:0:0:0:
368,182,14434,1,2,1:0:0:0:
402,173,14520,1,0,0:0:0:0:
430,151,14606,2,0,P|438:126|443:113,2,22.25,0|0|0,0:0|0:0|0:0,0:0:0:0:
410,259,14777,6,0,P|419:307|431:357,1,89,6|0,1:2|0:0,0:0:0:0:
453,355,15034,1,0,0:0:0:0:
478,364,15120,1,10,1:2:0:0:
301,300,15292,1,2,0:0:0:0:
194,348,15463,2,0,P|139:340|86:332,1,89,6|0,1:2|0:0,0:0:0:0:
72,330,15720,1,0,0:0:0:0:
42,325,15806,1,10,1:2:0:0:
0,192,15977,6,0,B|41:198|98:207|98:207|150:186,1,133.5,6|0,0:0|0:0,0:0:0:0:
97,119,16320,1,0,0:0:0:0:
66,114,16406,1,0,0:0:0:0:
37,109,16492,1,2,1:0:0:0:
235,216,16663,1,0,0:0:0:0:
263,212,16749,1,0,0:0:0:0:
292,208,16834,6,0,B|347:202|347:202|402:210|402:210|461:204,1,166.875,2|2,1:0|3:0,0:0:0:0:
461,122,17177,2,0,P|421:127|388:131,1,55.625,0|0,3:0|0:0,0:0:0:0:
351,284,17349,6,0,L|281:274|204:263,1,133.5,6|0,1:2|0:0,0:0:0:0:
151,221,17692,2,0,L|96:228,1,44.5,8|8,0:0|0:0,0:0:0:0:
25,236,17863,1,8,0:0:0:0:
220,328,18034,1,8,0:0:0:0:
212,101,18205,1,8,0:0:0:0:
98,340,18377,5,8,0:0:0:0:
82,113,18549,1,2,0:0:0:0:
151,221,18720,6,0,L|221:211|298:200,1,133.5,6|0,1:2|0:0,0:0:0:0:
351,158,19063,2,0,L|406:165,1,44.5,8|8,0:0|0:0,0:0:0:0:
477,173,19234,1,8,0:0:0:0:
282,265,19405,1,8,0:0:0:0:
290,37,19576,1,8,0:0:0:0:
405,270,19749,6,0,L|404:308,2,22.25,8|8|8,0:0|0:0|0:0,0:0:0:0:
348,202,19920,2,0,L|352:154,1,44.5,10|0,1:2|0:0,0:0:0:0:
282,265,20092,2,0,L|278:313,1,44.5,10|0,0:0|0:0,0:0:0:0:
221,201,20263,6,0,P|180:176|123:173,1,89,6|0,0:0|0:0,0:0:0:0:
61,187,20520,1,0,0:0:0:0:
34,197,20606,2,0,P|30:151|25:104,1,89,2|0,1:0|0:0,0:0:0:0:
102,37,20863,1,0,0:0:0:0:
105,67,20949,2,0,P|109:115|114:160,1,89,2|0,0:0|0:0,0:0:0:0:
122,239,21206,1,0,0:0:0:0:
126,268,21292,2,0,L|131:319,1,44.5,2|0,1:0|0:0,0:0:0:0:
205,359,21463,6,0,P|271:318|350:330,1,133.5,2|0,0:0|0:0,0:0:0:0:
401,294,21806,2,0,L|451:305,1,44.5
473,310,21977,2,0,P|468:262|465:215,1,89,2|0,1:0|0:0,0:0:0:0:
409,158,22234,1,0,0:0:0:0:
409,158,22320,1,2,0:0:0:0:
411,126,22406,1,0,0:0:0:0:
415,95,22492,1,0,0:0:0:0:
418,63,22578,1,0,0:0:0:0:
421,32,22663,1,2,1:0:0:0:
324,224,22834,6,0,P|276:235|195:192,1,133.5,6|0,1:2|0:0,0:0:0:0:
138,153,23177,2,0,L|81:159,1,44.5,8|8,0:0|0:0,0:0:0:0:
13,166,23349,1,8,0:0:0:0:
160,34,23520,1,8,0:0:0:0:
197,271,23692,5,8,0:0:0:0:
234,60,23863,1,8,0:0:0:0:
407,231,24034,5,2,0:0:0:0:
312,55,24206,2,0,P|305:144|300:198,1,133.5,6|0,1:2|0:0,0:0:0:0:
258,259,24549,2,0,L|266:303,1,44.5,8|8,0:0|0:0,0:0:0:0:
283,382,24720,1,8,0:0:0:0:
155,307,24892,1,8,0:0:0:0:
0,347,25063,5,8,0:0:0:0:
149,281,25234,2,0,L|141:243,2,22.25,8|8|8,0:0|0:0|0:0,0:0:0:0:
91,193,25406,6,0,L|104:122,1,55.625,2|0,1:0|0:0,0:0:0:0:
169,79,25577,2,0,L|158:13,1,55.625,6|0,1:2|0:0,0:0:0:0:
243,128,25749,5,6,0:0:0:0:
276,140,25834,1,0,0:0:0:0:
311,138,25920,1,0,0:0:0:0:
343,123,26006,1,0,0:0:0:0:
369,99,26092,1,2,1:0:0:0:
402,88,26177,1,0,0:0:0:0:
437,89,26263,1,0,0:0:0:0:
469,104,26349,1,0,0:0:0:0:
492,130,26434,1,2,0:0:0:0:
501,164,26520,1,0,0:0:0:0:
497,199,26606,1,0,0:0:0:0:
477,228,26692,1,0,0:0:0:0:
447,247,26777,1,2,1:0:0:0:
426,276,26863,1,0,0:0:0:0:
419,311,26949,6,0,P|416:239|415:158,1,140.620003433106,2|0,0:0|0:0,0:0:0:0:
289,53,27463,1,2,1:0:0:0:
265,230,27634,1,0,0:0:0:0:
128,115,27806,1,2,1:0:0:0:
99,110,27892,1,2,1:0:0:0:
72,105,27977,6,0,P|90:59|89:-5,1,111.25,4|0,1:2|0:0,0:0:0:0:
11,167,28492,6,0,P|18:215|26:264,1,89,4|0,1:0|0:0,0:0:0:0:
33,287,28749,1,0,0:0:0:0:
40,317,28834,2,0,P|56:270|86:235,1,89,2|0,1:0|0:0,0:0:0:0:
349,373,29177,2,0,P|304:373|253:348,1,89,2|0,0:0|0:0,0:0:0:0:
230,324,29434,1,0,0:0:0:0:
230,324,29520,2,0,P|184:320|142:316,1,89,2|0,1:0|0:0,0:0:0:0:
326,274,29863,6,0,P|372:270|414:266,1,89,2|0,0:0|0:0,0:0:0:0:
446,263,30120,1,0,0:0:0:0:
446,263,30206,1,2,1:0:0:0:
353,128,30377,1,0,0:0:0:0:
506,109,30549,1,2,0:0:0:0:
353,128,30720,2,0,L|312:131,2,22.25,0|0|0,0:0|0:0|0:0,0:0:0:0:
381,139,30892,2,0,P|374:84|372:34,1,89,2|0,1:0|0:0,0:0:0:0:
216,199,31234,6,0,P|223:254|225:304,1,89,6|0,0:0|0:0,0:0:0:0:
173,356,31492,1,0,0:0:0:0:
173,356,31577,2,0,P|118:363|68:365,1,89,2|0,1:0|0:0,0:0:0:0:
27,304,31834,1,0,0:0:0:0:
27,304,31920,2,0,P|20:249|18:199,1,89,2|0,0:0|0:0,0:0:0:0:
67,146,32177,1,0,0:0:0:0:
67,146,32263,2,0,L|172:137,1,89,2|0,1:0|0:0,0:0:0:0:
216,199,32520,5,0,0:0:0:0:
234,117,32606,2,0,P|242:65|235:18,1,89,2|0,0:0|0:0,0:0:0:0:
325,68,32863,1,0,0:0:0:0:
325,68,32949,1,2,1:0:0:0:
356,83,33034,1,0,0:0:0:0:
391,86,33120,1,0,0:0:0:0:
426,79,33206,1,0,0:0:0:0:
456,60,33292,2,0,L|449:109,1,44.5,2|0,0:0|0:0,0:0:0:0:
365,157,33463,2,0,L|371:201,1,44.5
489,216,33634,2,0,L|482:260,1,44.5,2|0,1:0|0:0,0:0:0:0:
352,299,33806,2,0,L|358:343,1,44.5,2|0,1:0|1:0,0:0:0:0:
440,383,33977,5,6,1:2:0:0:
254,291,34149,1,0,3:0:0:0:
225,286,34234,1,0,3:0:0:0:
196,280,34320,1,2,1:0:0:0:
65,289,34492,5,6,1:2:0:0:
251,197,34664,1,0,3:0:0:0:
280,192,34749,1,0,3:0:0:0:
309,186,34835,1,2,1:0:0:0:
442,200,35006,5,6,1:2:0:0:
256,108,35178,1,0,3:0:0:0:
227,103,35263,1,0,3:0:0:0:
198,97,35349,1,2,1:0:0:0:
67,106,35521,5,6,1:2:0:0:
253,14,35693,1,0,3:0:0:0:
282,9,35778,1,0,3:0:0:0:
311,3,35864,1,2,0:0:0:0:
477,180,36034,5,2,1:0:0:0:
442,200,36120,1,0,0:0:0:0:
402,205,36206,1,0,1:0:0:0:
363,195,36292,1,0,0:0:0:0:
332,169,36377,2,0,P|307:165|280:162,1,44.5,2|0,0:0|0:0,0:0:0:0:
213,198,36549,6,0,P|154:192|74:185,1,133.5,6|0,0:0|0:0,0:0:0:0:
51,183,36892,1,0,0:0:0:0:
193,297,37063,2,0,P|245:295|288:271,1,89,2|0,1:0|0:0,0:0:0:0:
232,93,37406,2,0,P|180:95|137:119,1,89,2|0,1:0|0:0,0:0:0:0:
332,169,37749,1,2,1:0:0:0:
456,130,37920,6,0,P|463:79|470:31,1,89,6|0,0:0|0:0,0:0:0:0:
332,169,38263,1,2,0:0:0:0:
335,200,38349,1,0,0:0:0:0:
339,230,38434,1,2,0:0:0:0:
341,261,38520,1,0,0:0:0:0:
344,291,38606,1,2,0:0:0:0:
347,322,38692,1,2,0:0:0:0:
351,354,38777,1,4,1:2:0:0:
117,235,39120,6,0,P|71:232|38:229,1,66.7500025463105
199,182,39463,2,0,P|264:176|336:169,1,133.500005092621,6|0,0:0|0:0,0:0:0:0:
461,274,40149,1,8,1:2:0:0:
331,169,40492,1,0,0:0:0:0:
331,169,40663,6,0,P|334:117|338:32,1,133.500005092621,2|0,0:0|0:0,0:0:0:0:
431,128,41177,1,2,0:0:0:0:
244,79,41349,1,0,0:0:0:0:
295,257,41520,1,8,1:2:0:0:
367,32,41692,2,0,L|374:2,2,16.6875006365776,0|0|0,0:0|0:0|0:0,0:0:0:0:
321,103,41863,2,0,P|327:137|331:171,1,66.7500025463105,0|2,0:0|0:0,0:0:0:0:
295,257,42206,6,0,P|196:243|126:317,1,200.250007638932,2|0,0:0|0:0,0:0:0:0:
357,334,42892,2,0,P|389:289|379:200,1,133.500005092621,8|0,1:2|0:0,0:0:0:0:
306,158,43406,6,0,P|301:105|294:16,1,133.500005092621,2|0,0:0|0:0,0:0:0:0:
269,38,43834,1,0,0:0:0:0:
243,51,43920,6,0,L|194:41,1,44.5,2|0,0:0|0:0,0:0:0:0:
400,141,44092,2,0,L|449:130,1,44.5
222,134,44263,6,0,L|173:124,1,44.5,8|0,1:2|0:0,0:0:0:0:
417,221,44435,2,0,L|466:210,1,44.5
318,180,44606,5,2,0:0:0:0:
313,215,44692,1,2,0:0:0:0:
308,250,44777,1,2,0:0:0:0:
303,285,44863,1,2,0:0:0:0:
297,320,44949,6,0,P|249:292|162:297,1,133.500005092621,6|0,0:0|0:0,0:0:0:0:
387,271,45634,2,0,P|452:274|511:243,1,133.500005092621,8|0,1:2|0:0,0:0:0:0:
405,24,46149,6,0,L|421:134,1,100.125003819466,2|0,0:0|0:0,0:0:0:0:
425,154,46492,2,0,L|451:143,2,16.6875006365776,2|0|0,0:0|0:0|0:0,0:0:0:0:
348,179,46663,1,8,0:0:0:0:
321,176,46749,1,8,0:0:0:0:
294,173,46834,1,8,0:0:0:0:
267,169,46920,1,8,0:0:0:0:
233,193,47006,5,8,1:2:0:0:
206,190,47092,1,8,0:0:0:0:
179,187,47177,1,8,0:0:0:0:
152,183,47263,1,8,0:0:0:0:
120,209,47348,5,8,0:0:0:0:
93,206,47434,1,8,0:0:0:0:
66,203,47519,1,10,0:0:0:0:
39,199,47605,1,8,0:0:0:0:
71,120,47692,6,0,L|66:72,3,33.3750012731553,10|8|8|8,0:0|0:0|0:0|0:0,0:0:0:0:
120,209,48034,2,0,L|115:257,3,33.3750012731553,8|8|8|8,0:0|0:0|0:0|0:0,0:0:0:0:
174,61,48377,6,0,L|169:13,3,33.3750012731553,8|8|8|8,1:2|0:0|0:0|0:0,0:0:0:0:
232,250,48719,2,0,L|227:298,1,33.3750012731553,8|0,0:0|0:0,0:0:0:0:
225,313,48892,5,2,0:0:0:0:
245,296,48977,1,0,0:0:0:0:
270,286,49063,1,8,0:0:0:0:
296,283,49149,1,8,0:0:0:0:
322,285,49234,1,8,0:0:0:0:
346,296,49320,1,8,0:0:0:0:
366,312,49406,6,0,L|416:305,1,44.5,8|0,1:2|0:0,0:0:0:0:
508,222,49577,2,0,L|460:215,1,44.5,8|8,0:0|0:0,0:0:0:0:
296,153,49749,2,0,P|342:147|391:141,1,89,2|2,0:0|0:0,0:0:0:0:
445,86,50006,1,2,0:0:0:0:
445,86,50092,1,4,1:2:0:0:
213,208,50263,1,0,0:0:0:0:
182,205,50349,1,0,0:0:0:0:
152,202,50434,1,4,1:2:0:0:
400,303,60034,6,0,P|421:265|449:228,1,80.0999975555421,4|0,1:0|0:0,0:0:0:0:
275,248,60292,5,0,0:0:0:0:
275,248,60377,2,0,P|297:285|315:327,1,80.0999975555421,4|0,1:0|0:0,0:0:0:0:
385,167,60635,5,0,0:0:0:0:
385,167,60720,2,0,P|341:167|295:162,1,80.0999975555421,4|0,1:0|0:0,0:0:0:0:
279,148,60977,1,2,0:0:0:0:
252,137,61063,6,0,L|263:97,1,22.25,2|2,0:0|0:0,0:0:0:0:
223,133,61149,2,0,L|224:99,1,22.25,2|2,0:0|0:0,0:0:0:0:
193,135,61234,2,0,L|189:109,1,22.25,2|2,0:0|0:0,0:0:0:0:
163,145,61320,2,0,L|154:116,1,22.25,2|2,0:0|0:0,0:0:0:0:
136,162,61406,6,0,P|86:157|41:153,1,89,6|8,1:2|0:0,0:0:0:0:
13,151,61663,1,0,0:0:0:0:
13,151,61749,1,2,1:0:0:0:
222,278,61920,1,8,0:0:0:0:
222,278,62006,1,0,0:0:0:0:
222,278,62092,2,0,P|272:273|317:269,1,89,2|8,1:0|0:0,0:0:0:0:
464,304,62434,2,0,P|446:264|443:215,1,89,2|8,1:0|0:0,0:0:0:0:
326,81,62777,6,0,P|322:125|304:165,1,89,2|8,1:0|0:0,0:0:0:0:
235,211,63034,1,0,0:0:0:0:
235,211,63120,2,0,P|185:206|140:202,1,89,2|8,1:0|0:0,0:0:0:0:
400,203,63463,6,0,P|396:247|378:287,1,89,2|8,1:0|0:0,0:0:0:0:
309,333,63720,1,0,3:0:0:0:
309,333,63806,2,0,P|259:328|236:325,1,44.5,2|0,1:0|3:0,0:0:0:0:
190,362,63977,2,0,P|140:367|117:370,1,44.5,8|0,1:2|0:0,0:0:0:0:
65,374,64149,6,0,P|61:319|54:269,1,89,2|8,1:0|0:0,0:0:0:0:
188,57,64492,2,0,P|182:101|179:145,1,89,2|8,1:0|0:0,0:0:0:0:
235,211,64749,1,0,3:0:0:0:
235,211,64834,2,0,L|290:205,1,44.5,2|0,1:0|0:0,0:0:0:0:
363,119,65006,2,0,L|308:125,1,44.5,8|0,3:2|3:0,0:0:0:0:
149,229,65177,2,0,L|153:273,1,44.5,2|0,1:0|3:0,0:0:0:0:
245,345,65348,2,0,L|241:301,1,44.5,8|0,3:2|3:0,0:0:0:0:
235,211,65520,6,0,P|231:155|229:114,1,89,2|8,1:0|0:0,0:0:0:0:
263,57,65734,2,0,L|267:20,3,22.25,2|2|2|2,0:0|0:0|0:0|1:0,0:0:0:0:
391,115,66034,1,8,0:0:0:0:
419,112,66120,1,0,0:0:0:0:
446,109,66206,1,6,1:2:0:0:
289,219,66377,1,8,0:0:0:0:
262,215,66463,1,0,0:0:0:0:
235,211,66549,1,0,1:0:0:0:
148,133,66720,1,12,0:0:0:0:
12,265,66892,5,4,1:2:0:0:
41,260,66977,1,0,0:0:0:0:
69,256,67063,1,8,0:0:0:0:
97,252,67149,1,0,0:0:0:0:
125,249,67234,2,0,P|133:295|140:338,1,89,2|8,1:0|0:0,0:0:0:0:
225,325,67492,1,0,0:0:0:0:
253,320,67577,2,0,P|296:312|340:305,1,89,2|8,1:0|0:0,0:0:0:0:
442,366,67920,1,0,1:0:0:0:
445,245,68092,1,8,0:0:0:0:
445,245,68177,1,0,3:0:0:0:
445,245,68263,6,0,P|433:199|436:149,1,89,2|8,1:0|0:0,0:0:0:0:
299,51,68606,2,0,P|299:95|288:138,1,89,0|8,1:0|0:0,0:0:0:0:
273,163,68863,1,0,3:0:0:0:
254,184,68949,2,0,L|221:192,2,22.25,2|0|0,1:0|3:0|3:0,0:0:0:0:
157,231,69120,1,8,3:2:0:0:
157,231,69206,1,0,3:0:0:0:
157,231,69292,2,0,P|112:226|60:220,1,89,2|8,1:0|0:0,0:0:0:0:
31,149,69549,1,0,0:0:0:0:
31,149,69634,6,0,L|36:116,15,27.8125,10|8|8|8|8|8|8|8|10|8|8|8|8|8|8|8,1:2|0:0|0:0|0:0|0:0|0:0|0:0|0:0|1:2|0:0|0:0|0:0|0:0|0:0|0:0|0:0,0:0:0:0:
46,105,70320,2,0,L|41:54,15,27.8125,10|8|8|8|8|8|8|8|10|8|8|8|8|8|8|8,1:2|0:0|0:0|0:0|0:0|0:0|0:0|0:0|1:2|0:0|0:0|0:0|0:0|0:0|0:0|0:0,0:0:0:0:
42,59,71006,6,0,P|106:55|168:52,1,111.25,6|0,1:0|0:0,0:0:0:0:
236,136,71263,2,0,P|172:140|110:143,1,111.25,6|0,1:0|0:0,0:0:0:0:
48,234,71520,2,0,P|80:233|117:231,1,55.625,6|0,1:0|0:0,0:0:0:0:
191,226,71692,2,0,P|194:281|197:345,1,111.25,2|0,1:0|1:0,0:0:0:0:
225,324,71949,1,0,1:0:0:0:
258,318,72034,6,0,P|309:315|359:340,1,100.125003819466,4|0,1:2|0:0,0:0:0:0:
431,364,72377,5,6,1:0:0:0:
402,229,72549,1,0,0:0:0:0:
395,199,72634,1,0,0:0:0:0:
388,171,72720,1,2,1:0:0:0:
191,226,72892,5,0,0:0:0:0:
220,91,73064,1,2,0:0:0:0:
227,61,73149,1,0,0:0:0:0:
234,33,73235,1,0,0:0:0:0:
283,178,73406,5,2,1:0:0:0:
111,142,73577,1,0,0:0:0:0:
82,135,73663,1,0,0:0:0:0:
54,128,73749,6,0,P|62:174|70:234,1,97.900002987671,2|0,0:0|0:0,0:0:0:0:
60,250,74006,1,0,0:0:0:0:
49,275,74092,1,2,1:0:0:0:
86,266,74177,1,0,0:0:0:0:
125,268,74263,1,0,0:0:0:0:
160,284,74349,1,0,0:0:0:0:
188,310,74434,1,2,0:0:0:0:
217,336,74520,1,0,0:0:0:0:
254,348,74606,1,0,0:0:0:0:
293,348,74692,1,0,0:0:0:0:
328,331,74777,2,0,L|339:273,1,48.9500014938355,2|0,1:0|0:0,0:0:0:0:
397,198,74949,2,0,L|386:140,1,48.9500014938355
366,38,75120,5,2,0:0:0:0:
489,235,75292,1,0,0:0:0:0:
481,265,75377,1,0,0:0:0:0:
473,295,75463,1,2,1:0:0:0:
276,30,75634,5,0,0:0:0:0:
397,198,75806,1,2,0:0:0:0:
389,228,75891,1,0,0:0:0:0:
381,258,75977,1,0,0:0:0:0:
187,21,76149,5,2,1:0:0:0:
306,158,76321,1,0,0:0:0:0:
298,188,76406,1,0,0:0:0:0:
290,218,76492,1,2,0:0:0:0:
247,357,76663,6,0,L|279:353,2,24.4750007469177,0|0|0,0:0|0:0|0:0,0:0:0:0:
216,360,76834,2,0,L|201:298,1,48.9500014938355,2|2,1:0|0:0,0:0:0:0:
105,314,77006,2,0,L|120:252,1,48.9500014938355,2|2,0:0|0:0,0:0:0:0:
25,218,77177,2,0,P|65:188|108:160,1,97.900002987671,2|0,0:0|0:0,0:0:0:0:
131,144,77434,2,0,L|194:139,1,48.9500014938355,0|2,0:0|1:0,0:0:0:0:
313,128,77606,1,0,0:0:0:0:
301,99,77692,1,8,0:0:0:0:
290,73,77777,1,8,0:0:0:0:
277,46,77863,6,0,P|266:98|257:150,1,97.900002987671,6|0,0:0|0:0,0:0:0:0:
258,142,78120,1,0,0:0:0:0:
258,142,78206,1,2,1:0:0:0:
362,327,78377,6,0,P|322:291|281:257,1,97.900002987671,0|2,0:0|0:0,0:0:0:0:
288,262,78634,1,0,0:0:0:0:
288,262,78720,1,0,0:0:0:0:
74,260,78892,6,0,P|124:243|174:225,1,97.900002987671,2|0,1:0|0:0,0:0:0:0:
168,228,79149,1,0,0:0:0:0:
168,228,79235,1,2,0:0:0:0:
382,175,79406,5,0,0:0:0:0:
139,101,79577,1,2,1:0:0:0:
109,92,79663,1,0,0:0:0:0:
82,84,79749,1,0,0:0:0:0:
55,76,79834,1,0,0:0:0:0:
28,67,79920,2,0,L|83:52,1,48.9500014938355,2|0,0:0|0:0,0:0:0:0:
167,13,80092,2,0,L|219:26,1,48.9500014938355
296,79,80263,2,0,P|350:69|406:62,1,97.900002987671,2|0,1:0|0:0,0:0:0:0:
259,251,80606,6,0,P|210:244|162:235,1,97.900002987671,2|0,0:0|0:0,0:0:0:0:
132,229,80863,1,0,0:0:0:0:
101,221,80949,1,2,1:0:0:0:
334,178,81120,6,0,P|352:223|368:269,1,97.900002987671,0|2,0:0|0:0,0:0:0:0:
378,298,81377,1,0,0:0:0:0:
387,329,81463,1,0,0:0:0:0:
234,155,81634,6,0,P|263:116|295:79,1,97.900002987671,2|0,1:0|0:0,0:0:0:0:
316,56,81891,1,0,0:0:0:0:
338,33,81977,1,2,0:0:0:0:
259,251,82149,5,2,0:0:0:0:
220,253,82234,1,0,0:0:0:0:
182,242,82320,1,2,1:0:0:0:
152,215,82406,1,0,0:0:0:0:
136,178,82492,5,0,0:0:0:0:
131,156,82577,1,0,0:0:0:0:
127,137,82663,2,0,L|136:87,1,48.9500014938355,2|0,0:0|0:0,0:0:0:0:
23,163,82834,2,0,L|32:212,1,48.9500014938355,2|0,0:0|0:0,0:0:0:0:
52,310,83006,2,0,L|102:319,1,48.9500014938355,2|2,1:0|0:0,0:0:0:0:
182,242,83177,2,0,L|230:233,1,48.9500014938355,2|2,0:0|0:0,0:0:0:0:
342,213,83349,5,6,1:2:0:0:
306,351,83520,1,0,0:0:0:0:
306,351,83606,1,0,0:0:0:0:
306,351,83692,1,2,1:0:0:0:
332,187,83863,5,0,0:0:0:0:
446,289,84034,1,2,0:0:0:0:
446,289,84120,1,0,0:0:0:0:
446,289,84205,1,0,0:0:0:0:
322,163,84377,5,2,1:0:0:0:
471,130,84549,1,0,0:0:0:0:
471,130,84634,1,0,0:0:0:0:
471,130,84720,1,2,0:0:0:0:
277,61,84892,1,0,0:0:0:0:
251,66,84977,1,0,0:0:0:0:
226,71,85063,1,2,1:0:0:0:
201,76,85149,1,0,0:0:0:0:
176,82,85234,1,0,0:0:0:0:
150,87,85320,1,0,0:0:0:0:
124,93,85406,6,0,L|72:83,1,48.9500014938355,2|0,0:0|0:0,0:0:0:0:
56,165,85577,2,0,L|105:175,1,48.9500014938355
197,201,85749,6,0,L|187:149,1,48.9500014938355,2|0,1:0|0:0,0:0:0:0:
269,133,85920,2,0,L|279:182,1,48.9500014938355
297,262,86092,5,2,0:0:0:0:
448,288,86263,1,0,0:0:0:0:
475,292,86349,1,0,0:0:0:0:
501,296,86434,1,2,1:0:0:0:
398,132,86606,5,0,0:0:0:0:
297,262,86777,1,2,0:0:0:0:
277,285,86863,1,0,0:0:0:0:
256,308,86949,1,0,0:0:0:0:
448,288,87120,5,2,1:0:0:0:
398,132,87292,1,0,0:0:0:0:
388,99,87377,1,0,0:0:0:0:
379,68,87463,1,2,0:0:0:0:
221,145,87634,6,0,L|161:136,1,48.9500014938355,0|0,0:0|0:0,0:0:0:0:
90,126,87806,1,2,1:0:0:0:
82,158,87892,1,2,0:0:0:0:
74,189,87977,1,2,0:0:0:0:
66,220,88063,1,2,0:0:0:0:
56,251,88149,2,0,P|64:303|70:357,1,97.900002987671,2|0,0:0|0:0,0:0:0:0:
165,376,88406,2,0,P|157:324|151:270,1,97.900002987671,0|0,0:0|0:0,0:0:0:0:
233,221,88663,1,8,0:0:0:0:
233,221,88749,1,8,0:0:0:0:
233,221,88834,6,0,P|241:273|247:327,1,97.900002987671,6|0,0:0|0:0,0:0:0:0:
275,324,89092,1,0,0:0:0:0:
305,330,89177,1,2,1:0:0:0:
310,95,89349,6,0,P|260:75|211:54,1,97.900002987671,0|2,0:0|0:0,0:0:0:0:
199,80,89607,1,0,0:0:0:0:
179,103,89692,1,0,0:0:0:0:
369,237,89863,6,0,P|410:204|453:171,1,97.900002987671,2|0,1:0|0:0,0:0:0:0:
437,149,90121,1,0,0:0:0:0:
427,120,90206,1,2,0:0:0:0:
342,12,90377,5,0,0:0:0:0:
302,8,90463,1,0,0:0:0:0:
264,18,90549,1,2,1:0:0:0:
236,44,90634,1,0,0:0:0:0:
222,80,90720,1,0,0:0:0:0:
223,119,90806,1,0,0:0:0:0:
241,153,90892,1,2,0:0:0:0:
263,184,90977,1,0,0:0:0:0:
273,221,91063,1,0,0:0:0:0:
265,259,91149,1,0,0:0:0:0:
239,287,91234,1,2,1:0:0:0:
202,301,91320,1,0,0:0:0:0:
162,299,91406,1,0,0:0:0:0:
127,279,91492,1,0,0:0:0:0:
107,245,91577,5,2,0:0:0:0:
263,184,91749,2,0,L|311:163,2,44.5,0|0|2,0:0|0:0|1:0,0:0:0:0:
107,245,92092,5,0,0:0:0:0:
176,97,92263,2,0,L|196:51,2,44.5,2|0|0,0:0|0:0|0:0,0:0:0:0:
107,245,92606,5,2,1:0:0:0:
43,101,92777,2,0,L|26:56,2,44.5,2|0|2,0:0|0:0|0:0,0:0:0:0:
75,178,93034,5,2,0:0:0:0:
85,200,93120,1,2,0:0:0:0:
96,222,93206,1,2,0:0:0:0:
107,245,93291,1,2,1:0:0:0:
117,267,93377,1,2,0:0:0:0:
128,290,93463,1,2,0:0:0:0:
140,313,93548,1,2,0:0:0:0:
151,336,93634,2,0,P|214:343|271:284,1,133.5,0|0,0:0|3:0,0:0:0:0:
297,225,93977,6,0,P|352:229|376:232,1,66.7500025463105,4|0,1:2|0:0,0:0:0:0:
391,231,94234,1,0,0:0:0:0:
417,232,94320,6,0,P|435:188|435:134,1,89,6|0,1:0|0:0,0:0:0:0:
199,202,94663,2,0,P|201:246|219:286,1,89,2|0,1:0|0:0,0:0:0:0:
347,343,95006,1,2,0:0:0:0:
417,232,95177,2,0,L|446:226,2,22.25,0|0|0,0:0|0:0|0:0,0:0:0:0:
383,240,95349,2,0,P|377:190|373:144,1,89,2|0,1:0|0:0,0:0:0:0:
404,34,95692,5,2,0:0:0:0:
291,68,95863,1,0,0:0:0:0:
261,72,95949,1,0,0:0:0:0:
233,77,96034,2,0,P|185:67|136:59,1,89,2|0,1:0|0:0,0:0:0:0:
0,240,96377,2,0,P|43:230|87:223,1,89,2|0,0:0|0:0,0:0:0:0:
116,217,96634,1,0,0:0:0:0:
144,212,96720,2,0,P|131:258|140:322,1,89,2|0,1:0|0:0,0:0:0:0:
423,294,97063,6,0,P|369:269|284:279,1,133.5,2|0,0:0|0:0,0:0:0:0:
216,308,97406,2,0,P|214:263|226:221,1,89,2|0,1:0|0:0,0:0:0:0:
276,152,97663,2,0,L|316:146,2,22.25,0|0|2,0:0|0:0|0:0,0:0:0:0:
125,43,97920,1,0,0:0:0:0:
125,43,98006,1,0,0:0:0:0:
125,43,98092,2,0,P|137:85|135:129,1,89,2|0,1:0|0:0,0:0:0:0:
85,261,98434,5,2,0:0:0:0:
216,308,98606,1,0,0:0:0:0:
242,297,98692,1,0,0:0:0:0:
271,292,98777,2,0,P|298:292|322:301,1,44.5,2|0,1:0|0:0,0:0:0:0:
360,224,98949,2,0,P|380:241|393:263,1,44.5
471,222,99120,2,0,P|475:248|461:311,1,89,2|0,0:0|0:0,0:0:0:0:
242,127,99463,2,0,P|307:122|379:115,1,133.5,2|0,1:0|0:0,0:0:0:0:
451,142,99806,6,0,P|458:89|463:50,1,89,6|0,0:0|0:0,0:0:0:0:
329,224,100149,2,0,P|334:268|340:312,1,89,2|0,1:0|0:0,0:0:0:0:
453,353,100492,1,2,0:0:0:0:
227,271,100663,1,0,0:0:0:0:
199,268,100749,1,0,0:0:0:0:
171,264,100834,1,2,1:0:0:0:
56,325,101006,2,0,P|37:273|41:235,1,89,0|6,0:0|0:0,0:0:0:0:
134,99,101349,6,0,L|141:64,2,22.25,0|0|0,0:0|0:0|0:0,0:0:0:0:
129,134,101520,2,0,P|178:129|225:126,1,89,2|0,1:0|0:0,0:0:0:0:
322,208,101863,1,2,0:0:0:0:
446,158,102034,1,0,0:0:0:0:
446,158,102120,1,0,0:0:0:0:
446,158,102206,1,2,1:0:0:0:
473,135,102292,1,0,0:0:0:0:
488,103,102378,1,0,0:0:0:0:
489,67,102464,1,0,0:0:0:0:
478,33,102549,5,6,1:2:0:0:
311,71,102720,1,0,0:0:0:0:
339,75,102806,1,0,0:0:0:0:
367,79,102892,1,10,1:2:0:0:
427,263,103063,1,2,0:0:0:0:
209,160,103234,1,6,1:2:0:0:
283,354,103406,1,0,3:0:0:0:
289,326,103492,1,2,0:0:0:0:
295,299,103577,1,10,1:2:0:0:
76,173,103749,6,0,P|132:169|224:157,1,133.5,6|0,1:2|0:0,0:0:0:0:
295,148,104091,2,0,L|301:98,1,44.5
311,20,104263,1,6,1:2:0:0:
443,135,104434,2,0,L|437:185,1,44.5
427,263,104606,1,6,1:2:0:0:
283,354,104777,1,0,0:0:0:0:
277,325,104863,1,2,3:0:0:0:
272,297,104949,2,0,L|260:241,1,44.5,2|0,0:0|0:0,0:0:0:0:
204,187,105120,6,0,P|160:168|70:175,1,133.500005092621,6|0,1:0|0:0,0:0:0:0:
49,180,105549,1,0,0:0:0:0:
49,180,105634,2,0,L|40:139,1,33.3750012731553,2|0,1:0|0:0,0:0:0:0:
120,295,105806,2,0,L|129:254,1,33.3750012731553
175,73,105977,1,6,1:0:0:0:
256,192,106063,12,2,107177,0:0:0:0:
256,192,107263,12,0,108977,0:0:0:0:
