osu file format v14

[General]
AudioFilename: audio.mp3
AudioLeadIn: 0
PreviewTime: 60439
Countdown: 1
SampleSet: Normal
StackLeniency: 0.7
Mode: 3
LetterboxInBreaks: 0
SpecialStyle: 0
WidescreenStoryboard: 0

[Editor]
DistanceSpacing: 0.8
BeatDivisor: 4
GridSize: 4
TimelineZoom: 1.6

[Metadata]
Title:China Dress
TitleUnicode:China Dress
Artist:Memme
ArtistUnicode:Memme
Creator:juankristal
Version:Stage 3: Armony
Source:O2Jam U
Tags:oriental core ausnz australia new zealand qualifier LN
BeatmapID:1882949
BeatmapSetID:901835

[Difficulty]
HPDrainRate:8
CircleSize:4
OverallDifficulty:7
ApproachRate:5
SliderMultiplier:1.4
SliderTickRate:1

[Events]
//Background and Video events
0,0,"bg.jpg",0,0
//Break Periods
//Storyboard Layer 0 (Background)
//Storyboard Layer 1 (Fail)
//Storyboard Layer 2 (Pass)
//Storyboard Layer 3 (Foreground)
//Storyboard Layer 4 (Overlay)
//Storyboard Sound Samples

[TimingPoints]
97,342.857142857143,4,1,0,100,1,0
61811,-100,4,1,0,100,0,1
72782,-100,4,1,0,100,0,0
89239,-100,4,1,0,100,0,1
100211,-100,4,1,0,100,0,0
100554,-100,4,1,0,100,0,1
111182,-100,4,1,0,100,0,0

[HitObjects]
64,192,1468,128,0,1639:0:0:0:0:
320,192,1468,128,0,1982:0:0:0:0:
192,192,1639,128,0,1811:0:0:0:0:
448,192,1811,128,0,1982:0:0:0:0:
64,192,1811,1,0,0:0:0:0:
64,192,1982,128,0,2239:0:0:0:0:
192,192,1982,128,0,2239:0:0:0:0:
448,192,2154,128,0,2325:0:0:0:0:
192,192,2325,128,0,2497:0:0:0:0:
320,192,2325,128,0,2497:0:0:0:0:
448,192,2497,128,0,2839:0:0:0:0:
64,192,2497,128,0,2839:0:0:0:0:
192,192,2668,128,0,3011:0:0:0:0:
320,192,2668,128,0,3182:0:0:0:0:
64,192,3011,128,0,3097:0:0:0:0:
448,192,3182,128,0,3525:0:0:0:0:
64,192,3182,128,0,3354:0:0:0:0:
192,192,3354,128,0,3525:0:0:0:0:
64,192,3525,128,0,3868:0:0:0:0:
320,192,3525,128,0,3611:0:0:0:0:
320,192,3697,128,0,3868:0:0:0:0:
192,192,3868,128,0,3954:0:0:0:0:
448,192,3868,128,0,3954:0:0:0:0:
192,192,4039,128,0,4211:0:0:0:0:
448,192,4039,128,0,4211:0:0:0:0:
64,192,4211,128,0,4554:0:0:0:0:
320,192,4211,128,0,4468:0:0:0:0:
192,192,4382,128,0,4554:0:0:0:0:
320,192,4554,128,0,4725:0:0:0:0:
448,192,4554,1,0,0:0:0:0:
192,192,4725,128,0,4897:0:0:0:0:
64,192,4725,128,0,4897:0:0:0:0:
448,192,4897,1,0,0:0:0:0:
192,192,5068,128,0,5239:0:0:0:0:
64,192,5068,128,0,5239:0:0:0:0:
320,192,5239,128,0,5411:0:0:0:0:
448,192,5239,128,0,5411:0:0:0:0:
192,192,5411,128,0,5754:0:0:0:0:
64,192,5411,128,0,6268:0:0:0:0:
448,192,5582,128,0,5754:0:0:0:0:
320,192,5754,128,0,5925:0:0:0:0:
192,192,5925,128,0,6097:0:0:0:0:
448,192,5925,1,0,0:0:0:0:
320,192,6097,128,0,6268:0:0:0:0:
192,192,6268,128,0,6954:0:0:0:0:
448,192,6268,128,0,6354:0:0:0:0:
448,192,6439,128,0,6611:0:0:0:0:
64,192,6611,128,0,6697:0:0:0:0:
320,192,6611,128,0,6697:0:0:0:0:
64,192,6782,128,0,6954:0:0:0:0:
448,192,6782,128,0,6868:0:0:0:0:
448,192,6954,128,0,7125:0:0:0:0:
320,192,6954,128,0,7639:0:0:0:0:
192,192,7125,128,0,7297:0:0:0:0:
64,192,7297,128,0,7468:0:0:0:0:
448,192,7297,1,0,0:0:0:0:
192,192,7468,128,0,7639:0:0:0:0:
448,192,7639,128,0,7811:0:0:0:0:
320,192,7811,128,0,7982:0:0:0:0:
64,192,7982,128,0,8154:0:0:0:0:
192,192,7982,128,0,8154:0:0:0:0:
320,192,8154,128,0,9011:0:0:0:0:
192,192,8325,128,0,8497:0:0:0:0:
448,192,8325,128,0,8668:0:0:0:0:
64,192,8497,128,0,8668:0:0:0:0:
192,192,8668,128,0,8839:0:0:0:0:
448,192,8839,128,0,9182:0:0:0:0:
64,192,9011,128,0,9182:0:0:0:0:
192,192,9011,128,0,9354:0:0:0:0:
320,192,9182,128,0,9354:0:0:0:0:
64,192,9354,128,0,9439:0:0:0:0:
448,192,9354,128,0,9439:0:0:0:0:
64,192,9525,128,0,9697:0:0:0:0:
448,192,9525,128,0,9697:0:0:0:0:
192,192,9697,1,0,0:0:0:0:
320,192,9697,128,0,9868:0:0:0:0:
448,192,9868,1,0,0:0:0:0:
64,192,9868,128,0,10039:0:0:0:0:
192,192,10039,128,0,10211:0:0:0:0:
320,192,10039,1,0,0:0:0:0:
448,192,10211,128,0,10382:0:0:0:0:
64,192,10211,1,0,0:0:0:0:
64,192,10382,128,0,10725:0:0:0:0:
320,192,10382,1,0,0:0:0:0:
320,192,10554,128,0,10897:0:0:0:0:
192,192,10554,1,0,0:0:0:0:
192,192,10725,128,0,11068:0:0:0:0:
448,192,10725,1,0,0:0:0:0:
448,192,10897,128,0,11068:0:0:0:0:
64,192,10897,1,0,0:0:0:0:
320,192,11068,128,0,11411:0:0:0:0:
64,192,11239,128,0,11325:0:0:0:0:
192,192,11325,128,0,11411:0:0:0:0:
448,192,11411,128,0,11668:0:0:0:0:
64,192,11411,128,0,11668:0:0:0:0:
320,192,11582,128,0,11754:0:0:0:0:
192,192,11668,128,0,11754:0:0:0:0:
64,192,11754,128,0,12439:0:0:0:0:
448,192,11839,128,0,12011:0:0:0:0:
192,192,11925,128,0,12097:0:0:0:0:
320,192,12011,128,0,12097:0:0:0:0:
448,192,12097,128,0,12268:0:0:0:0:
320,192,12182,128,0,12268:0:0:0:0:
192,192,12268,128,0,12439:0:0:0:0:
320,192,12354,128,0,12439:0:0:0:0:
448,192,12439,128,0,12525:0:0:0:0:
448,192,12611,128,0,12697:0:0:0:0:
192,192,12697,1,0,0:0:0:0:
448,192,12782,128,0,12868:0:0:0:0:
64,192,12782,1,0,0:0:0:0:
192,192,12954,128,0,13039:0:0:0:0:
320,192,12954,128,0,13125:0:0:0:0:
192,192,13125,128,0,13211:0:0:0:0:
448,192,13125,1,0,0:0:0:0:
192,192,13297,128,0,13382:0:0:0:0:
320,192,13382,1,0,0:0:0:0:
192,192,13468,128,0,13554:0:0:0:0:
448,192,13468,1,0,0:0:0:0:
320,192,13639,128,0,13725:0:0:0:0:
64,192,13639,128,0,13811:0:0:0:0:
320,192,13811,128,0,13897:0:0:0:0:
448,192,13811,1,0,0:0:0:0:
320,192,13982,128,0,14068:0:0:0:0:
192,192,14068,128,0,14154:0:0:0:0:
320,192,14154,128,0,14239:0:0:0:0:
448,192,14154,128,0,14239:0:0:0:0:
64,192,14325,128,0,14411:0:0:0:0:
192,192,14325,128,0,14411:0:0:0:0:
64,192,14497,128,0,14582:0:0:0:0:
320,192,14582,128,0,14668:0:0:0:0:
64,192,14668,128,0,14754:0:0:0:0:
320,192,14754,128,0,14839:0:0:0:0:
64,192,14839,128,0,14925:0:0:0:0:
192,192,14839,128,0,14925:0:0:0:0:
64,192,15011,128,0,15097:0:0:0:0:
320,192,15011,128,0,15097:0:0:0:0:
448,192,15182,128,0,15268:0:0:0:0:
192,192,15182,128,0,15354:0:0:0:0:
448,192,15354,128,0,15439:0:0:0:0:
64,192,15439,1,0,0:0:0:0:
448,192,15525,128,0,15611:0:0:0:0:
192,192,15525,1,0,0:0:0:0:
448,192,15697,128,0,15782:0:0:0:0:
64,192,15697,128,0,15868:0:0:0:0:
192,192,15868,128,0,15954:0:0:0:0:
320,192,15868,128,0,15954:0:0:0:0:
192,192,16039,128,0,16125:0:0:0:0:
448,192,16125,1,0,0:0:0:0:
192,192,16211,128,0,16297:0:0:0:0:
320,192,16211,128,0,16297:0:0:0:0:
64,192,16297,1,0,0:0:0:0:
448,192,16382,1,0,0:0:0:0:
192,192,16439,1,0,0:0:0:0:
320,192,16497,1,0,0:0:0:0:
64,192,16554,128,0,16668:0:0:0:0:
448,192,16554,128,0,16668:0:0:0:0:
448,192,16725,128,0,16839:0:0:0:0:
64,192,16725,128,0,16839:0:0:0:0:
64,192,16897,128,0,17068:0:0:0:0:
448,192,16897,128,0,17068:0:0:0:0:
448,192,17239,128,0,17411:0:0:0:0:
320,192,17239,128,0,17411:0:0:0:0:
192,192,17325,128,0,17411:0:0:0:0:
64,192,17411,128,0,17582:0:0:0:0:
448,192,17497,128,0,17582:0:0:0:0:
192,192,17582,128,0,17754:0:0:0:0:
320,192,17668,128,0,17754:0:0:0:0:
64,192,17754,128,0,17925:0:0:0:0:
192,192,17839,128,0,17925:0:0:0:0:
320,192,17925,128,0,18011:0:0:0:0:
448,192,17925,128,0,18011:0:0:0:0:
320,192,18097,128,0,18182:0:0:0:0:
64,192,18097,128,0,18182:0:0:0:0:
192,192,18182,128,0,18268:0:0:0:0:
320,192,18268,128,0,18439:0:0:0:0:
448,192,18268,128,0,18354:0:0:0:0:
64,192,18439,128,0,18611:0:0:0:0:
192,192,18439,128,0,18525:0:0:0:0:
448,192,18611,128,0,18782:0:0:0:0:
320,192,18611,128,0,18697:0:0:0:0:
192,192,18782,128,0,18954:0:0:0:0:
64,192,18782,128,0,18868:0:0:0:0:
320,192,18954,128,0,19039:0:0:0:0:
448,192,18954,128,0,19039:0:0:0:0:
320,192,19125,128,0,19211:0:0:0:0:
64,192,19125,128,0,19211:0:0:0:0:
448,192,19297,128,0,19554:0:0:0:0:
192,192,19297,128,0,19468:0:0:0:0:
64,192,19468,128,0,19639:0:0:0:0:
192,192,19554,128,0,19725:0:0:0:0:
320,192,19639,128,0,19725:0:0:0:0:
448,192,19639,128,0,19725:0:0:0:0:
64,192,19725,128,0,19811:0:0:0:0:
448,192,19811,128,0,19982:0:0:0:0:
192,192,19811,128,0,20154:0:0:0:0:
320,192,19982,128,0,20154:0:0:0:0:
64,192,20068,128,0,20154:0:0:0:0:
448,192,20154,128,0,20325:0:0:0:0:
64,192,20239,128,0,20325:0:0:0:0:
192,192,20325,128,0,20411:0:0:0:0:
320,192,20325,128,0,20411:0:0:0:0:
192,192,20497,128,0,20668:0:0:0:0:
320,192,20497,128,0,20582:0:0:0:0:
64,192,20668,128,0,20754:0:0:0:0:
448,192,20668,128,0,20754:0:0:0:0:
192,192,20839,128,0,20925:0:0:0:0:
320,192,20839,128,0,20925:0:0:0:0:
64,192,20925,128,0,21011:0:0:0:0:
192,192,21011,128,0,21182:0:0:0:0:
448,192,21011,128,0,21097:0:0:0:0:
64,192,21182,128,0,21354:0:0:0:0:
320,192,21182,128,0,21268:0:0:0:0:
448,192,21354,128,0,21525:0:0:0:0:
192,192,21354,128,0,21439:0:0:0:0:
320,192,21525,128,0,21697:0:0:0:0:
64,192,21525,128,0,21611:0:0:0:0:
192,192,21697,128,0,21782:0:0:0:0:
448,192,21697,128,0,21782:0:0:0:0:
320,192,21868,128,0,21954:0:0:0:0:
192,192,21868,128,0,21954:0:0:0:0:
320,192,22039,128,0,22297:0:0:0:0:
64,192,22039,128,0,22211:0:0:0:0:
448,192,22211,128,0,22382:0:0:0:0:
64,192,22297,128,0,22468:0:0:0:0:
320,192,22382,128,0,22468:0:0:0:0:
192,192,22382,128,0,22554:0:0:0:0:
448,192,22468,128,0,22554:0:0:0:0:
320,192,22554,128,0,22725:0:0:0:0:
192,192,22639,128,0,22725:0:0:0:0:
448,192,22725,128,0,22897:0:0:0:0:
64,192,22725,128,0,22897:0:0:0:0:
192,192,22811,128,0,22897:0:0:0:0:
320,192,22897,128,0,22982:0:0:0:0:
64,192,22982,128,0,23068:0:0:0:0:
192,192,22982,128,0,23068:0:0:0:0:
320,192,23068,128,0,23154:0:0:0:0:
448,192,23068,128,0,23154:0:0:0:0:
448,192,23239,128,0,23411:0:0:0:0:
320,192,23239,128,0,23325:0:0:0:0:
64,192,23411,128,0,23497:0:0:0:0:
192,192,23411,128,0,23497:0:0:0:0:
320,192,23582,128,0,23668:0:0:0:0:
448,192,23582,128,0,23668:0:0:0:0:
192,192,23668,128,0,23754:0:0:0:0:
320,192,23754,128,0,23925:0:0:0:0:
64,192,23754,128,0,23839:0:0:0:0:
448,192,23925,128,0,24097:0:0:0:0:
192,192,23925,128,0,24011:0:0:0:0:
64,192,24097,128,0,24268:0:0:0:0:
320,192,24097,128,0,24182:0:0:0:0:
192,192,24268,128,0,24439:0:0:0:0:
448,192,24268,128,0,24354:0:0:0:0:
320,192,24439,128,0,24525:0:0:0:0:
64,192,24439,128,0,24525:0:0:0:0:
320,192,24611,128,0,24697:0:0:0:0:
64,192,24611,128,0,24697:0:0:0:0:
448,192,24782,128,0,25039:0:0:0:0:
192,192,24782,128,0,24954:0:0:0:0:
320,192,24954,128,0,25125:0:0:0:0:
192,192,25039,128,0,25211:0:0:0:0:
64,192,25125,128,0,25211:0:0:0:0:
448,192,25125,128,0,25211:0:0:0:0:
320,192,25211,128,0,25297:0:0:0:0:
64,192,25297,128,0,25468:0:0:0:0:
192,192,25297,128,0,25639:0:0:0:0:
320,192,25468,128,0,25639:0:0:0:0:
448,192,25554,128,0,25639:0:0:0:0:
64,192,25639,128,0,25811:0:0:0:0:
448,192,25725,128,0,25811:0:0:0:0:
192,192,25811,128,0,25897:0:0:0:0:
320,192,25811,128,0,25897:0:0:0:0:
192,192,25982,128,0,26154:0:0:0:0:
320,192,25982,128,0,26068:0:0:0:0:
64,192,26154,128,0,26239:0:0:0:0:
448,192,26154,128,0,26325:0:0:0:0:
64,192,26325,128,0,26411:0:0:0:0:
320,192,26325,128,0,26411:0:0:0:0:
192,192,26411,128,0,26497:0:0:0:0:
64,192,26497,128,0,26668:0:0:0:0:
448,192,26497,128,0,26582:0:0:0:0:
192,192,26668,128,0,26839:0:0:0:0:
320,192,26668,128,0,26754:0:0:0:0:
448,192,26839,128,0,27011:0:0:0:0:
64,192,26839,128,0,26925:0:0:0:0:
64,192,27011,128,0,27182:0:0:0:0:
192,192,27011,128,0,27097:0:0:0:0:
320,192,27182,128,0,27354:0:0:0:0:
448,192,27182,128,0,27268:0:0:0:0:
192,192,27354,128,0,27525:0:0:0:0:
64,192,27354,128,0,27439:0:0:0:0:
448,192,27525,128,0,27868:0:0:0:0:
320,192,27525,128,0,27697:0:0:0:0:
64,192,27697,128,0,27782:0:0:0:0:
320,192,27782,128,0,27868:0:0:0:0:
192,192,27868,128,0,28039:0:0:0:0:
64,192,27868,128,0,27954:0:0:0:0:
320,192,27954,128,0,28039:0:0:0:0:
448,192,28039,128,0,28125:0:0:0:0:
64,192,28039,128,0,28211:0:0:0:0:
320,192,28125,128,0,28211:0:0:0:0:
192,192,28211,128,0,28297:0:0:0:0:
448,192,28211,128,0,28382:0:0:0:0:
192,192,28382,128,0,28554:0:0:0:0:
320,192,28382,128,0,28468:0:0:0:0:
64,192,28554,128,0,28639:0:0:0:0:
448,192,28554,128,0,28725:0:0:0:0:
320,192,28639,128,0,28725:0:0:0:0:
192,192,28725,128,0,28811:0:0:0:0:
64,192,28811,128,0,28897:0:0:0:0:
192,192,28897,128,0,29068:0:0:0:0:
448,192,28897,128,0,29239:0:0:0:0:
320,192,28897,128,0,29154:0:0:0:0:
64,192,29239,128,0,29582:0:0:0:0:
192,192,29239,128,0,29497:0:0:0:0:
320,192,29239,128,0,29411:0:0:0:0:
448,192,29582,128,0,29754:0:0:0:0:
320,192,29582,128,0,29839:0:0:0:0:
192,192,29582,128,0,29754:0:0:0:0:
64,192,29754,1,0,0:0:0:0:
192,192,29839,1,0,0:0:0:0:
64,192,29925,1,0,0:0:0:0:
448,192,29925,1,0,0:0:0:0:
320,192,30097,128,0,30439:0:0:0:0:
448,192,30097,128,0,30611:0:0:0:0:
64,192,30439,1,0,0:0:0:0:
192,192,30497,1,0,0:0:0:0:
320,192,30554,1,0,0:0:0:0:
64,192,30611,128,0,30954:0:0:0:0:
192,192,30782,128,0,30954:0:0:0:0:
320,192,30868,128,0,30954:0:0:0:0:
448,192,30954,128,0,31039:0:0:0:0:
448,192,31125,128,0,31297:0:0:0:0:
64,192,31297,128,0,31468:0:0:0:0:
192,192,31297,1,0,0:0:0:0:
320,192,31382,128,0,31468:0:0:0:0:
448,192,31468,128,0,31554:0:0:0:0:
192,192,31554,128,0,31639:0:0:0:0:
64,192,31639,128,0,31725:0:0:0:0:
448,192,31639,128,0,31982:0:0:0:0:
320,192,31639,128,0,31897:0:0:0:0:
64,192,31982,128,0,32325:0:0:0:0:
192,192,31982,128,0,32239:0:0:0:0:
320,192,31982,128,0,32068:0:0:0:0:
320,192,32325,128,0,32411:0:0:0:0:
448,192,32325,128,0,32497:0:0:0:0:
192,192,32497,1,0,0:0:0:0:
320,192,32582,1,0,0:0:0:0:
64,192,32668,1,0,0:0:0:0:
448,192,32668,1,0,0:0:0:0:
64,192,32839,128,0,33354:0:0:0:0:
192,192,32839,128,0,33182:0:0:0:0:
448,192,33182,1,0,0:0:0:0:
320,192,33239,1,0,0:0:0:0:
192,192,33297,1,0,0:0:0:0:
448,192,33354,128,0,33611:0:0:0:0:
320,192,33439,128,0,33611:0:0:0:0:
192,192,33525,128,0,33697:0:0:0:0:
64,192,33611,128,0,33697:0:0:0:0:
320,192,33697,1,0,0:0:0:0:
448,192,33697,1,0,0:0:0:0:
320,192,33868,1,0,0:0:0:0:
448,192,33868,1,0,0:0:0:0:
448,192,34039,1,0,0:0:0:0:
320,192,34039,1,0,0:0:0:0:
64,192,34125,128,0,34211:0:0:0:0:
192,192,34211,128,0,34297:0:0:0:0:
320,192,34297,128,0,34382:0:0:0:0:
64,192,34382,128,0,34554:0:0:0:0:
192,192,34382,128,0,34639:0:0:0:0:
448,192,34382,128,0,34554:0:0:0:0:
320,192,34554,128,0,34725:0:0:0:0:
64,192,34725,128,0,34982:0:0:0:0:
192,192,34725,128,0,34897:0:0:0:0:
448,192,34725,128,0,34897:0:0:0:0:
320,192,34897,128,0,35068:0:0:0:0:
64,192,35068,128,0,35325:0:0:0:0:
192,192,35068,128,0,35239:0:0:0:0:
448,192,35068,128,0,35411:0:0:0:0:
320,192,35239,128,0,35411:0:0:0:0:
64,192,35411,128,0,35582:0:0:0:0:
192,192,35411,128,0,35582:0:0:0:0:
448,192,35582,128,0,36182:0:0:0:0:
320,192,35582,128,0,35925:0:0:0:0:
64,192,35925,128,0,36011:0:0:0:0:
320,192,36011,128,0,36097:0:0:0:0:
64,192,36097,128,0,36182:0:0:0:0:
320,192,36182,128,0,36268:0:0:0:0:
192,192,36268,128,0,36354:0:0:0:0:
64,192,36354,128,0,36439:0:0:0:0:
448,192,36439,1,0,0:0:0:0:
320,192,36439,1,0,0:0:0:0:
320,192,36611,1,0,0:0:0:0:
448,192,36611,1,0,0:0:0:0:
448,192,36782,1,0,0:0:0:0:
64,192,36782,128,0,36868:0:0:0:0:
192,192,36868,128,0,36954:0:0:0:0:
320,192,36954,128,0,37039:0:0:0:0:
448,192,37039,128,0,37125:0:0:0:0:
64,192,37125,128,0,37468:0:0:0:0:
192,192,37125,128,0,37297:0:0:0:0:
320,192,37125,128,0,37382:0:0:0:0:
448,192,37468,128,0,37811:0:0:0:0:
192,192,37468,128,0,37554:0:0:0:0:
320,192,37468,128,0,37639:0:0:0:0:
192,192,37639,128,0,37811:0:0:0:0:
64,192,37811,128,0,38068:0:0:0:0:
320,192,37811,128,0,37982:0:0:0:0:
192,192,37982,128,0,38154:0:0:0:0:
64,192,38154,128,0,38325:0:0:0:0:
448,192,38154,128,0,38325:0:0:0:0:
192,192,38325,128,0,38497:0:0:0:0:
320,192,38325,128,0,38668:0:0:0:0:
64,192,38668,128,0,38839:0:0:0:0:
192,192,38754,128,0,38925:0:0:0:0:
448,192,38839,128,0,39011:0:0:0:0:
320,192,38925,128,0,39097:0:0:0:0:
64,192,39011,128,0,39182:0:0:0:0:
192,192,39097,128,0,39182:0:0:0:0:
448,192,39182,128,0,39268:0:0:0:0:
64,192,39268,128,0,39354:0:0:0:0:
448,192,39354,128,0,39439:0:0:0:0:
64,192,39439,128,0,39525:0:0:0:0:
320,192,39525,128,0,39611:0:0:0:0:
192,192,39611,128,0,39697:0:0:0:0:
320,192,39697,128,0,39782:0:0:0:0:
192,192,39782,128,0,39868:0:0:0:0:
64,192,39868,128,0,40211:0:0:0:0:
448,192,39868,128,0,40211:0:0:0:0:
320,192,40211,128,0,40382:0:0:0:0:
192,192,40211,128,0,40297:0:0:0:0:
448,192,40382,128,0,40554:0:0:0:0:
64,192,40382,128,0,40468:0:0:0:0:
192,192,40554,128,0,40639:0:0:0:0:
64,192,40554,128,0,40639:0:0:0:0:
320,192,40639,128,0,40725:0:0:0:0:
192,192,40725,128,0,40811:0:0:0:0:
448,192,40725,128,0,40811:0:0:0:0:
320,192,40811,128,0,40897:0:0:0:0:
192,192,40897,128,0,41068:0:0:0:0:
64,192,40897,1,0,0:0:0:0:
64,192,41068,128,0,41411:0:0:0:0:
448,192,41068,128,0,41411:0:0:0:0:
192,192,41411,128,0,41582:0:0:0:0:
448,192,41497,128,0,41582:0:0:0:0:
320,192,41582,128,0,41668:0:0:0:0:
64,192,41582,1,0,0:0:0:0:
192,192,41668,128,0,41925:0:0:0:0:
320,192,41754,128,0,41925:0:0:0:0:
448,192,41839,128,0,41925:0:0:0:0:
64,192,41925,128,0,42268:0:0:0:0:
192,192,42097,1,0,0:0:0:0:
448,192,42268,128,0,42439:0:0:0:0:
192,192,42354,128,0,42439:0:0:0:0:
320,192,42439,128,0,42611:0:0:0:0:
448,192,42525,128,0,42611:0:0:0:0:
64,192,42611,128,0,42954:0:0:0:0:
192,192,42611,128,0,42954:0:0:0:0:
320,192,42954,128,0,43039:0:0:0:0:
448,192,42954,128,0,43125:0:0:0:0:
192,192,43125,128,0,43211:0:0:0:0:
64,192,43125,128,0,43297:0:0:0:0:
320,192,43297,128,0,43382:0:0:0:0:
448,192,43297,128,0,43382:0:0:0:0:
64,192,43382,128,0,43468:0:0:0:0:
448,192,43468,128,0,43639:0:0:0:0:
192,192,43468,128,0,43554:0:0:0:0:
64,192,43554,128,0,43639:0:0:0:0:
320,192,43639,128,0,43811:0:0:0:0:
192,192,43639,1,0,0:0:0:0:
448,192,43811,128,0,44154:0:0:0:0:
192,192,43811,128,0,44154:0:0:0:0:
64,192,44154,128,0,44325:0:0:0:0:
320,192,44239,128,0,44325:0:0:0:0:
192,192,44325,128,0,44411:0:0:0:0:
448,192,44325,1,0,0:0:0:0:
64,192,44411,128,0,44497:0:0:0:0:
192,192,44497,128,0,44668:0:0:0:0:
320,192,44582,128,0,44668:0:0:0:0:
64,192,44668,128,0,45011:0:0:0:0:
448,192,44668,128,0,45011:0:0:0:0:
320,192,44839,1,0,0:0:0:0:
192,192,45011,128,0,45182:0:0:0:0:
448,192,45097,128,0,45182:0:0:0:0:
320,192,45182,128,0,45354:0:0:0:0:
448,192,45268,128,0,45354:0:0:0:0:
64,192,45354,128,0,45697:0:0:0:0:
192,192,45354,128,0,45697:0:0:0:0:
320,192,45697,128,0,45868:0:0:0:0:
192,192,45782,128,0,45868:0:0:0:0:
64,192,45868,128,0,46039:0:0:0:0:
448,192,45954,128,0,46039:0:0:0:0:
192,192,46039,128,0,46125:0:0:0:0:
320,192,46039,128,0,46125:0:0:0:0:
448,192,46125,128,0,46211:0:0:0:0:
192,192,46211,128,0,46382:0:0:0:0:
64,192,46211,128,0,46297:0:0:0:0:
320,192,46297,128,0,46382:0:0:0:0:
64,192,46382,128,0,46468:0:0:0:0:
448,192,46382,128,0,46468:0:0:0:0:
64,192,46554,128,0,46897:0:0:0:0:
448,192,46554,128,0,46897:0:0:0:0:
192,192,46897,128,0,47068:0:0:0:0:
320,192,46982,128,0,47068:0:0:0:0:
448,192,47068,128,0,47239:0:0:0:0:
192,192,47154,128,0,47239:0:0:0:0:
320,192,47239,128,0,47411:0:0:0:0:
192,192,47325,128,0,47411:0:0:0:0:
448,192,47411,128,0,47582:0:0:0:0:
64,192,47411,128,0,47668:0:0:0:0:
192,192,47582,128,0,47754:0:0:0:0:
320,192,47582,128,0,47839:0:0:0:0:
448,192,47754,128,0,48011:0:0:0:0:
64,192,47754,128,0,47925:0:0:0:0:
192,192,47925,128,0,48097:0:0:0:0:
320,192,47925,128,0,48011:0:0:0:0:
64,192,48011,128,0,48097:0:0:0:0:
448,192,48097,128,0,48439:0:0:0:0:
320,192,48097,128,0,48268:0:0:0:0:
64,192,48268,128,0,48354:0:0:0:0:
192,192,48354,128,0,48439:0:0:0:0:
320,192,48439,128,0,48611:0:0:0:0:
64,192,48439,128,0,48611:0:0:0:0:
448,192,48525,128,0,48611:0:0:0:0:
192,192,48611,128,0,48782:0:0:0:0:
64,192,48697,128,0,48782:0:0:0:0:
448,192,48782,128,0,48954:0:0:0:0:
320,192,48782,128,0,48868:0:0:0:0:
192,192,48868,128,0,48954:0:0:0:0:
64,192,48954,128,0,49297:0:0:0:0:
320,192,48954,128,0,49039:0:0:0:0:
448,192,49039,128,0,49125:0:0:0:0:
192,192,49125,128,0,49297:0:0:0:0:
448,192,49211,128,0,49297:0:0:0:0:
320,192,49297,128,0,49468:0:0:0:0:
192,192,49382,128,0,49468:0:0:0:0:
64,192,49468,128,0,49639:0:0:0:0:
448,192,49468,128,0,49639:0:0:0:0:
320,192,49639,128,0,49725:0:0:0:0:
448,192,49725,128,0,49897:0:0:0:0:
64,192,49725,128,0,49897:0:0:0:0:
192,192,49897,128,0,49982:0:0:0:0:
64,192,49982,128,0,50239:0:0:0:0:
448,192,49982,128,0,50239:0:0:0:0:
192,192,50325,128,0,50839:0:0:0:0:
320,192,50325,128,0,50839:0:0:0:0:
64,192,50839,128,0,51011:0:0:0:0:
448,192,50839,1,0,0:0:0:0:
192,192,51011,128,0,51182:0:0:0:0:
320,192,51011,1,0,0:0:0:0:
448,192,51182,1,0,0:0:0:0:
320,192,51354,1,0,0:0:0:0:
448,192,51525,128,0,51697:0:0:0:0:
192,192,51525,1,0,0:0:0:0:
320,192,51697,128,0,51868:0:0:0:0:
64,192,51697,1,0,0:0:0:0:
448,192,51868,128,0,51954:0:0:0:0:
192,192,51868,1,0,0:0:0:0:
320,192,52039,128,0,52211:0:0:0:0:
64,192,52039,1,0,0:0:0:0:
192,192,52211,128,0,52297:0:0:0:0:
448,192,52211,1,0,0:0:0:0:
320,192,52382,1,0,0:0:0:0:
192,192,52468,128,0,52554:0:0:0:0:
64,192,52554,1,0,0:0:0:0:
192,192,52725,128,0,52811:0:0:0:0:
320,192,52725,1,0,0:0:0:0:
448,192,52897,128,0,53068:0:0:0:0:
64,192,52897,1,0,0:0:0:0:
320,192,53068,1,0,0:0:0:0:
192,192,53239,128,0,53411:0:0:0:0:
64,192,53239,1,0,0:0:0:0:
320,192,53411,128,0,53582:0:0:0:0:
448,192,53411,1,0,0:0:0:0:
64,192,53582,128,0,53754:0:0:0:0:
192,192,53582,1,0,0:0:0:0:
320,192,53754,128,0,53839:0:0:0:0:
448,192,53754,1,0,0:0:0:0:
64,192,53839,128,0,53925:0:0:0:0:
192,192,53925,128,0,54097:0:0:0:0:
320,192,53925,1,0,0:0:0:0:
64,192,54097,128,0,54268:0:0:0:0:
448,192,54097,1,0,0:0:0:0:
448,192,54268,128,0,54611:0:0:0:0:
192,192,54268,1,0,0:0:0:0:
320,192,54439,128,0,54525:0:0:0:0:
64,192,54439,1,0,0:0:0:0:
64,192,54611,128,0,54697:0:0:0:0:
192,192,54611,1,0,0:0:0:0:
320,192,54782,128,0,54954:0:0:0:0:
448,192,54782,1,0,0:0:0:0:
192,192,54954,128,0,55039:0:0:0:0:
64,192,54954,1,0,0:0:0:0:
320,192,55125,1,0,0:0:0:0:
192,192,55211,128,0,55297:0:0:0:0:
448,192,55297,1,0,0:0:0:0:
192,192,55468,128,0,55554:0:0:0:0:
320,192,55468,1,0,0:0:0:0:
448,192,55639,128,0,55811:0:0:0:0:
64,192,55639,1,0,0:0:0:0:
64,192,55811,128,0,55982:0:0:0:0:
192,192,55811,1,0,0:0:0:0:
448,192,55982,1,0,0:0:0:0:
320,192,56068,128,0,56154:0:0:0:0:
64,192,56154,1,0,0:0:0:0:
192,192,56239,128,0,56325:0:0:0:0:
448,192,56325,128,0,59068:0:0:0:0:
320,192,56325,128,0,56497:0:0:0:0:
64,192,56497,128,0,56668:0:0:0:0:
192,192,56497,1,0,0:0:0:0:
320,192,56668,1,0,0:0:0:0:
64,192,56839,1,0,0:0:0:0:
320,192,57011,128,0,57182:0:0:0:0:
192,192,57011,1,0,0:0:0:0:
64,192,57182,1,0,0:0:0:0:
192,192,57354,128,0,57439:0:0:0:0:
320,192,57354,1,0,0:0:0:0:
64,192,57525,128,0,57611:0:0:0:0:
320,192,57525,1,0,0:0:0:0:
192,192,57697,128,0,57782:0:0:0:0:
64,192,57697,1,0,0:0:0:0:
320,192,57868,1,0,0:0:0:0:
192,192,57954,128,0,58039:0:0:0:0:
64,192,58039,1,0,0:0:0:0:
320,192,58211,1,0,0:0:0:0:
192,192,58211,128,0,58297:0:0:0:0:
64,192,58382,128,0,58554:0:0:0:0:
192,192,58382,1,0,0:0:0:0:
320,192,58554,1,0,0:0:0:0:
192,192,58725,128,0,58897:0:0:0:0:
64,192,58725,1,0,0:0:0:0:
320,192,58897,1,0,0:0:0:0:
320,192,59068,128,0,59239:0:0:0:0:
64,192,59068,128,0,59154:0:0:0:0:
64,192,59239,128,0,59325:0:0:0:0:
448,192,59239,1,0,0:0:0:0:
64,192,59411,128,0,59582:0:0:0:0:
320,192,59411,1,0,0:0:0:0:
448,192,59582,128,0,59668:0:0:0:0:
192,192,59582,1,0,0:0:0:0:
448,192,59754,128,0,59839:0:0:0:0:
64,192,59754,1,0,0:0:0:0:
448,192,59925,128,0,60097:0:0:0:0:
320,192,59925,1,0,0:0:0:0:
192,192,60097,128,0,60354:0:0:0:0:
64,192,60097,1,0,0:0:0:0:
448,192,60268,128,0,60439:0:0:0:0:
320,192,60268,1,0,0:0:0:0:
320,192,60439,128,0,60697:0:0:0:0:
64,192,60439,128,0,60868:0:0:0:0:
192,192,60439,128,0,60868:0:0:0:0:
320,192,60782,128,0,61125:0:0:0:0:
448,192,60782,128,0,61125:0:0:0:0:
64,192,60954,128,0,61125:0:0:0:0:
192,192,60954,128,0,61125:0:0:0:0:
448,192,61297,1,0,0:0:0:0:
320,192,61297,1,0,0:0:0:0:
64,192,61382,1,0,0:0:0:0:
192,192,61382,1,0,0:0:0:0:
320,192,61468,1,0,0:0:0:0:
448,192,61468,128,0,61639:0:0:0:0:
192,192,61554,128,0,61811:0:0:0:0:
64,192,61639,128,0,61725:0:0:0:0:
320,192,61725,128,0,61811:0:0:0:0:
448,192,61811,128,0,62154:0:0:0:0:
64,192,61811,128,0,61982:0:0:0:0:
64,192,62068,128,0,62154:0:0:0:0:
192,192,62154,128,0,62325:0:0:0:0:
320,192,62154,128,0,62239:0:0:0:0:
448,192,62325,128,0,62497:0:0:0:0:
320,192,62325,128,0,62497:0:0:0:0:
64,192,62497,128,0,62754:0:0:0:0:
192,192,62497,128,0,62582:0:0:0:0:
320,192,62582,128,0,62668:0:0:0:0:
448,192,62668,128,0,62839:0:0:0:0:
192,192,62668,128,0,62754:0:0:0:0:
320,192,62754,128,0,62839:0:0:0:0:
64,192,62839,128,0,63011:0:0:0:0:
192,192,62839,128,0,62925:0:0:0:0:
320,192,63011,128,0,63182:0:0:0:0:
448,192,63011,128,0,63182:0:0:0:0:
192,192,63182,128,0,63525:0:0:0:0:
64,192,63182,128,0,63354:0:0:0:0:
448,192,63354,128,0,63525:0:0:0:0:
320,192,63439,128,0,63525:0:0:0:0:
64,192,63525,128,0,63697:0:0:0:0:
192,192,63611,128,0,63697:0:0:0:0:
448,192,63697,128,0,63868:0:0:0:0:
320,192,63782,128,0,63868:0:0:0:0:
192,192,63868,128,0,63954:0:0:0:0:
320,192,63954,128,0,64039:0:0:0:0:
192,192,64039,128,0,64125:0:0:0:0:
320,192,64125,128,0,64211:0:0:0:0:
64,192,64211,128,0,64297:0:0:0:0:
448,192,64211,128,0,64297:0:0:0:0:
192,192,64382,128,0,64468:0:0:0:0:
320,192,64382,128,0,64468:0:0:0:0:
64,192,64554,128,0,64811:0:0:0:0:
192,192,64554,128,0,64811:0:0:0:0:
448,192,64554,128,0,64811:0:0:0:0:
320,192,64811,128,0,64897:0:0:0:0:
64,192,64897,128,0,65068:0:0:0:0:
192,192,64897,128,0,64982:0:0:0:0:
448,192,65068,128,0,65239:0:0:0:0:
320,192,65068,128,0,65154:0:0:0:0:
64,192,65239,128,0,65497:0:0:0:0:
192,192,65239,128,0,65497:0:0:0:0:
320,192,65239,128,0,65497:0:0:0:0:
448,192,65497,128,0,65582:0:0:0:0:
64,192,65582,128,0,65668:0:0:0:0:
320,192,65582,128,0,65754:0:0:0:0:
192,192,65754,128,0,65925:0:0:0:0:
448,192,65754,128,0,65839:0:0:0:0:
64,192,65925,128,0,66097:0:0:0:0:
320,192,65925,128,0,66097:0:0:0:0:
448,192,65925,128,0,66611:0:0:0:0:
192,192,66097,128,0,66182:0:0:0:0:
64,192,66182,128,0,66268:0:0:0:0:
320,192,66268,128,0,66354:0:0:0:0:
64,192,66354,128,0,66439:0:0:0:0:
192,192,66439,128,0,66525:0:0:0:0:
320,192,66525,128,0,66611:0:0:0:0:
64,192,66611,128,0,66697:0:0:0:0:
192,192,66611,1,0,0:0:0:0:
448,192,66697,128,0,66782:0:0:0:0:
320,192,66697,1,0,0:0:0:0:
64,192,66782,128,0,66868:0:0:0:0:
192,192,66782,1,0,0:0:0:0:
448,192,66868,128,0,66954:0:0:0:0:
320,192,66868,1,0,0:0:0:0:
192,192,66954,128,0,67039:0:0:0:0:
64,192,66954,128,0,67039:0:0:0:0:
64,192,67125,128,0,67297:0:0:0:0:
192,192,67125,128,0,67297:0:0:0:0:
448,192,67297,128,0,67639:0:0:0:0:
320,192,67297,128,0,67554:0:0:0:0:
64,192,67554,128,0,67639:0:0:0:0:
192,192,67639,128,0,67811:0:0:0:0:
320,192,67639,128,0,67725:0:0:0:0:
64,192,67811,128,0,67982:0:0:0:0:
320,192,67811,128,0,67982:0:0:0:0:
448,192,67982,128,0,68068:0:0:0:0:
192,192,67982,128,0,68068:0:0:0:0:
64,192,68068,128,0,68154:0:0:0:0:
448,192,68154,128,0,68239:0:0:0:0:
320,192,68154,128,0,68239:0:0:0:0:
192,192,68239,128,0,68325:0:0:0:0:
64,192,68325,128,0,68411:0:0:0:0:
448,192,68325,128,0,68497:0:0:0:0:
64,192,68497,128,0,68668:0:0:0:0:
192,192,68497,128,0,68582:0:0:0:0:
320,192,68668,128,0,69011:0:0:0:0:
448,192,68668,128,0,68925:0:0:0:0:
192,192,68925,128,0,69011:0:0:0:0:
64,192,69011,128,0,69097:0:0:0:0:
448,192,69011,128,0,69097:0:0:0:0:
320,192,69097,128,0,69182:0:0:0:0:
64,192,69182,128,0,69354:0:0:0:0:
448,192,69268,128,0,69354:0:0:0:0:
192,192,69354,128,0,69525:0:0:0:0:
320,192,69439,128,0,69525:0:0:0:0:
64,192,69525,128,0,69697:0:0:0:0:
448,192,69611,128,0,69697:0:0:0:0:
320,192,69697,128,0,69782:0:0:0:0:
192,192,69697,128,0,69782:0:0:0:0:
320,192,69868,128,0,69954:0:0:0:0:
192,192,69868,128,0,69954:0:0:0:0:
448,192,70039,128,0,70297:0:0:0:0:
320,192,70039,128,0,70211:0:0:0:0:
192,192,70039,128,0,70211:0:0:0:0:
64,192,70211,128,0,70382:0:0:0:0:
192,192,70297,128,0,70382:0:0:0:0:
320,192,70382,128,0,70468:0:0:0:0:
448,192,70382,128,0,70554:0:0:0:0:
64,192,70554,128,0,70811:0:0:0:0:
192,192,70554,128,0,70725:0:0:0:0:
320,192,70554,128,0,70725:0:0:0:0:
448,192,70725,128,0,70897:0:0:0:0:
192,192,70811,128,0,70897:0:0:0:0:
64,192,70897,128,0,70982:0:0:0:0:
320,192,70897,128,0,71068:0:0:0:0:
192,192,71068,128,0,71239:0:0:0:0:
64,192,71068,128,0,71325:0:0:0:0:
448,192,71068,128,0,71239:0:0:0:0:
320,192,71239,128,0,71411:0:0:0:0:
448,192,71325,128,0,71411:0:0:0:0:
64,192,71411,128,0,71497:0:0:0:0:
192,192,71411,128,0,71582:0:0:0:0:
64,192,71582,128,0,71839:0:0:0:0:
448,192,71582,128,0,71754:0:0:0:0:
320,192,71582,128,0,71668:0:0:0:0:
192,192,71668,128,0,71839:0:0:0:0:
320,192,71754,128,0,71839:0:0:0:0:
448,192,71839,128,0,71925:0:0:0:0:
64,192,71925,128,0,72011:0:0:0:0:
192,192,72011,128,0,72097:0:0:0:0:
448,192,72097,128,0,72182:0:0:0:0:
320,192,72097,128,0,72182:0:0:0:0:
320,192,72268,128,0,72354:0:0:0:0:
448,192,72268,128,0,72354:0:0:0:0:
448,192,72439,128,0,72782:0:0:0:0:
320,192,72439,128,0,72782:0:0:0:0:
64,192,72782,1,0,0:0:0:0:
192,192,72782,128,0,72954:0:0:0:0:
320,192,72954,1,0,0:0:0:0:
448,192,72954,128,0,73125:0:0:0:0:
64,192,73125,1,0,0:0:0:0:
192,192,73125,1,0,0:0:0:0:
320,192,73297,1,0,0:0:0:0:
448,192,73297,128,0,73468:0:0:0:0:
64,192,73468,1,0,0:0:0:0:
192,192,73468,1,0,0:0:0:0:
320,192,73639,1,0,0:0:0:0:
448,192,73725,128,0,73811:0:0:0:0:
64,192,73811,1,0,0:0:0:0:
192,192,73811,1,0,0:0:0:0:
320,192,73982,1,0,0:0:0:0:
192,192,74068,128,0,74154:0:0:0:0:
448,192,74154,1,0,0:0:0:0:
64,192,74154,1,0,0:0:0:0:
320,192,74325,1,0,0:0:0:0:
64,192,74411,128,0,74497:0:0:0:0:
192,192,74497,1,0,0:0:0:0:
448,192,74497,1,0,0:0:0:0:
320,192,74668,1,0,0:0:0:0:
64,192,74668,128,0,74754:0:0:0:0:
192,192,74839,1,0,0:0:0:0:
320,192,74839,1,0,0:0:0:0:
64,192,75011,128,0,75097:0:0:0:0:
448,192,75011,1,0,0:0:0:0:
320,192,75182,1,0,0:0:0:0:
192,192,75182,128,0,75268:0:0:0:0:
320,192,75354,1,0,0:0:0:0:
64,192,75354,128,0,75439:0:0:0:0:
448,192,75525,1,0,0:0:0:0:
192,192,75525,128,0,75697:0:0:0:0:
448,192,75697,1,0,0:0:0:0:
64,192,75697,128,0,75782:0:0:0:0:
192,192,75782,128,0,75868:0:0:0:0:
448,192,75868,1,0,0:0:0:0:
320,192,75868,128,0,76039:0:0:0:0:
64,192,76039,1,0,0:0:0:0:
192,192,76039,128,0,76125:0:0:0:0:
64,192,76211,1,0,0:0:0:0:
448,192,76211,1,0,0:0:0:0:
320,192,76297,128,0,76382:0:0:0:0:
192,192,76382,1,0,0:0:0:0:
448,192,76554,1,0,0:0:0:0:
320,192,76554,128,0,76639:0:0:0:0:
64,192,76725,1,0,0:0:0:0:
320,192,76725,128,0,76811:0:0:0:0:
448,192,76897,128,0,77068:0:0:0:0:
64,192,76897,1,0,0:0:0:0:
192,192,76982,128,0,77068:0:0:0:0:
320,192,77068,128,0,77239:0:0:0:0:
64,192,77154,128,0,77239:0:0:0:0:
192,192,77239,128,0,77411:0:0:0:0:
448,192,77239,1,0,0:0:0:0:
320,192,77325,128,0,77411:0:0:0:0:
64,192,77411,128,0,77582:0:0:0:0:
448,192,77497,128,0,77582:0:0:0:0:
192,192,77582,128,0,77754:0:0:0:0:
320,192,77582,1,0,0:0:0:0:
64,192,77668,128,0,77754:0:0:0:0:
320,192,77754,128,0,77925:0:0:0:0:
448,192,77839,128,0,77925:0:0:0:0:
192,192,77925,128,0,78097:0:0:0:0:
64,192,77925,1,0,0:0:0:0:
320,192,78011,128,0,78097:0:0:0:0:
64,192,78097,128,0,78268:0:0:0:0:
448,192,78182,128,0,78268:0:0:0:0:
320,192,78268,128,0,78439:0:0:0:0:
192,192,78268,1,0,0:0:0:0:
64,192,78439,128,0,78525:0:0:0:0:
320,192,78611,1,0,0:0:0:0:
448,192,78611,1,0,0:0:0:0:
64,192,78782,1,0,0:0:0:0:
192,192,78954,1,0,0:0:0:0:
448,192,78954,128,0,79039:0:0:0:0:
192,192,79125,1,0,0:0:0:0:
448,192,79125,128,0,79211:0:0:0:0:
64,192,79297,1,0,0:0:0:0:
448,192,79297,128,0,79382:0:0:0:0:
192,192,79468,128,0,79554:0:0:0:0:
320,192,79468,1,0,0:0:0:0:
192,192,79639,128,0,79725:0:0:0:0:
320,192,79639,1,0,0:0:0:0:
192,192,79811,128,0,79897:0:0:0:0:
320,192,79811,1,0,0:0:0:0:
320,192,79982,1,0,0:0:0:0:
192,192,79982,128,0,80068:0:0:0:0:
448,192,80154,128,0,80239:0:0:0:0:
64,192,80154,1,0,0:0:0:0:
192,192,80325,1,0,0:0:0:0:
64,192,80325,128,0,80497:0:0:0:0:
448,192,80497,128,0,80668:0:0:0:0:
320,192,80582,128,0,80668:0:0:0:0:
64,192,80668,1,0,0:0:0:0:
192,192,80668,1,0,0:0:0:0:
64,192,80839,1,0,0:0:0:0:
192,192,80839,1,0,0:0:0:0:
320,192,81011,1,0,0:0:0:0:
448,192,81011,128,0,81182:0:0:0:0:
192,192,81182,128,0,81354:0:0:0:0:
64,192,81268,128,0,81354:0:0:0:0:
320,192,81354,1,0,0:0:0:0:
448,192,81354,1,0,0:0:0:0:
448,192,81525,1,0,0:0:0:0:
64,192,81525,128,0,81697:0:0:0:0:
320,192,81697,1,0,0:0:0:0:
192,192,81697,128,0,81782:0:0:0:0:
192,192,81868,128,0,81954:0:0:0:0:
192,192,82039,128,0,82125:0:0:0:0:
448,192,82039,1,0,0:0:0:0:
320,192,82211,5,0,0:0:0:0:
192,192,82211,128,0,82382:0:0:0:0:
192,192,82554,1,0,0:0:0:0:
448,192,82554,1,0,0:0:0:0:
448,192,82725,1,0,0:0:0:0:
192,192,82725,1,0,0:0:0:0:
448,192,82897,1,0,0:0:0:0:
192,192,82897,1,0,0:0:0:0:
64,192,83068,1,0,0:0:0:0:
320,192,83068,1,0,0:0:0:0:
448,192,83239,5,0,0:0:0:0:
320,192,83297,1,0,0:0:0:0:
192,192,83354,1,0,0:0:0:0:
64,192,83411,1,0,0:0:0:0:
64,192,83582,1,0,0:0:0:0:
192,192,83639,1,0,0:0:0:0:
320,192,83697,1,0,0:0:0:0:
448,192,83754,128,0,83839:0:0:0:0:
448,192,83925,128,0,84011:0:0:0:0:
64,192,84011,1,0,0:0:0:0:
192,192,84097,1,0,0:0:0:0:
448,192,84097,128,0,84182:0:0:0:0:
64,192,84268,128,0,84354:0:0:0:0:
320,192,84268,128,0,84439:0:0:0:0:
64,192,84439,128,0,84525:0:0:0:0:
448,192,84439,1,0,0:0:0:0:
64,192,84611,128,0,84697:0:0:0:0:
320,192,84697,1,0,0:0:0:0:
64,192,84782,128,0,84868:0:0:0:0:
448,192,84782,1,0,0:0:0:0:
320,192,84954,128,0,85039:0:0:0:0:
192,192,84954,128,0,85125:0:0:0:0:
320,192,85125,128,0,85211:0:0:0:0:
64,192,85125,1,0,0:0:0:0:
320,192,85297,128,0,85382:0:0:0:0:
192,192,85382,128,0,85468:0:0:0:0:
320,192,85468,128,0,85554:0:0:0:0:
448,192,85468,128,0,85554:0:0:0:0:
192,192,85639,128,0,85725:0:0:0:0:
64,192,85639,128,0,85725:0:0:0:0:
192,192,85811,128,0,85897:0:0:0:0:
320,192,85897,128,0,85982:0:0:0:0:
192,192,85982,128,0,86068:0:0:0:0:
320,192,86068,128,0,86154:0:0:0:0:
192,192,86154,128,0,86239:0:0:0:0:
448,192,86154,128,0,86239:0:0:0:0:
192,192,86325,128,0,86411:0:0:0:0:
320,192,86325,128,0,86411:0:0:0:0:
448,192,86497,128,0,86582:0:0:0:0:
192,192,86497,128,0,86668:0:0:0:0:
448,192,86668,128,0,86754:0:0:0:0:
64,192,86754,1,0,0:0:0:0:
448,192,86839,128,0,86925:0:0:0:0:
192,192,86839,1,0,0:0:0:0:
448,192,87011,128,0,87097:0:0:0:0:
64,192,87011,128,0,87182:0:0:0:0:
192,192,87182,128,0,87268:0:0:0:0:
320,192,87182,128,0,87268:0:0:0:0:
192,192,87354,128,0,87439:0:0:0:0:
448,192,87439,1,0,0:0:0:0:
192,192,87525,128,0,87611:0:0:0:0:
320,192,87525,128,0,87611:0:0:0:0:
64,192,87611,1,0,0:0:0:0:
448,192,87697,1,0,0:0:0:0:
192,192,87754,1,0,0:0:0:0:
320,192,87811,1,0,0:0:0:0:
64,192,87868,128,0,87982:0:0:0:0:
448,192,87868,128,0,87982:0:0:0:0:
448,192,88039,128,0,88154:0:0:0:0:
64,192,88039,128,0,88154:0:0:0:0:
64,192,88211,128,0,88382:0:0:0:0:
448,192,88211,128,0,88382:0:0:0:0:
320,192,88554,128,0,88725:0:0:0:0:
448,192,88554,128,0,88725:0:0:0:0:
192,192,88639,128,0,88725:0:0:0:0:
64,192,88725,128,0,88897:0:0:0:0:
448,192,88811,128,0,88897:0:0:0:0:
320,192,88897,128,0,89068:0:0:0:0:
64,192,88982,128,0,89068:0:0:0:0:
192,192,89068,128,0,89239:0:0:0:0:
320,192,89154,128,0,89239:0:0:0:0:
64,192,89239,128,0,89582:0:0:0:0:
448,192,89239,128,0,89411:0:0:0:0:
448,192,89497,128,0,89582:0:0:0:0:
320,192,89582,128,0,89754:0:0:0:0:
192,192,89582,128,0,89668:0:0:0:0:
64,192,89754,128,0,89925:0:0:0:0:
192,192,89754,128,0,89925:0:0:0:0:
448,192,89925,128,0,90182:0:0:0:0:
320,192,89925,128,0,90011:0:0:0:0:
192,192,90011,128,0,90097:0:0:0:0:
64,192,90097,128,0,90268:0:0:0:0:
320,192,90097,128,0,90182:0:0:0:0:
192,192,90182,128,0,90268:0:0:0:0:
448,192,90268,128,0,90439:0:0:0:0:
320,192,90268,128,0,90354:0:0:0:0:
320,192,90439,128,0,90611:0:0:0:0:
192,192,90439,128,0,90611:0:0:0:0:
64,192,90611,128,0,90954:0:0:0:0:
448,192,90611,128,0,90782:0:0:0:0:
320,192,90782,128,0,90954:0:0:0:0:
448,192,90868,128,0,90954:0:0:0:0:
192,192,90954,128,0,91125:0:0:0:0:
64,192,91039,128,0,91125:0:0:0:0:
448,192,91125,128,0,91297:0:0:0:0:
192,192,91211,128,0,91297:0:0:0:0:
320,192,91297,128,0,91382:0:0:0:0:
192,192,91382,128,0,91468:0:0:0:0:
320,192,91468,128,0,91554:0:0:0:0:
192,192,91554,128,0,91639:0:0:0:0:
64,192,91639,128,0,91725:0:0:0:0:
448,192,91639,128,0,91725:0:0:0:0:
192,192,91811,128,0,91897:0:0:0:0:
320,192,91811,128,0,91897:0:0:0:0:
64,192,91982,128,0,92239:0:0:0:0:
320,192,91982,128,0,92239:0:0:0:0:
448,192,91982,128,0,92239:0:0:0:0:
192,192,92239,128,0,92325:0:0:0:0:
64,192,92325,128,0,92497:0:0:0:0:
320,192,92325,128,0,92411:0:0:0:0:
448,192,92497,128,0,92668:0:0:0:0:
192,192,92497,128,0,92582:0:0:0:0:
64,192,92668,128,0,92925:0:0:0:0:
192,192,92668,128,0,92925:0:0:0:0:
320,192,92668,128,0,92925:0:0:0:0:
448,192,92925,128,0,93011:0:0:0:0:
192,192,93011,128,0,93097:0:0:0:0:
320,192,93011,128,0,93182:0:0:0:0:
448,192,93182,128,0,93354:0:0:0:0:
64,192,93182,128,0,93268:0:0:0:0:
192,192,93354,128,0,93525:0:0:0:0:
320,192,93354,128,0,93525:0:0:0:0:
64,192,93354,128,0,94039:0:0:0:0:
448,192,93525,128,0,93611:0:0:0:0:
320,192,93611,128,0,93697:0:0:0:0:
192,192,93697,128,0,93782:0:0:0:0:
448,192,93782,128,0,93868:0:0:0:0:
320,192,93868,128,0,93954:0:0:0:0:
192,192,93954,128,0,94039:0:0:0:0:
448,192,94039,128,0,94125:0:0:0:0:
320,192,94039,1,0,0:0:0:0:
64,192,94125,128,0,94211:0:0:0:0:
192,192,94125,1,0,0:0:0:0:
448,192,94211,128,0,94297:0:0:0:0:
320,192,94211,1,0,0:0:0:0:
64,192,94297,128,0,94382:0:0:0:0:
192,192,94297,1,0,0:0:0:0:
320,192,94382,128,0,94468:0:0:0:0:
448,192,94382,128,0,94468:0:0:0:0:
320,192,94554,128,0,94725:0:0:0:0:
448,192,94554,128,0,94725:0:0:0:0:
192,192,94725,128,0,94897:0:0:0:0:
64,192,94725,128,0,95068:0:0:0:0:
448,192,94982,128,0,95068:0:0:0:0:
320,192,95068,128,0,95239:0:0:0:0:
192,192,95068,128,0,95154:0:0:0:0:
448,192,95239,128,0,95411:0:0:0:0:
64,192,95239,128,0,95411:0:0:0:0:
192,192,95411,128,0,95497:0:0:0:0:
320,192,95411,128,0,95497:0:0:0:0:
448,192,95497,128,0,95582:0:0:0:0:
64,192,95582,128,0,95668:0:0:0:0:
192,192,95582,128,0,95668:0:0:0:0:
320,192,95668,128,0,95754:0:0:0:0:
448,192,95754,128,0,95839:0:0:0:0:
64,192,95754,128,0,95925:0:0:0:0:
448,192,95925,128,0,96097:0:0:0:0:
320,192,95925,128,0,96011:0:0:0:0:
192,192,96097,128,0,96439:0:0:0:0:
64,192,96097,128,0,96354:0:0:0:0:
320,192,96354,128,0,96439:0:0:0:0:
448,192,96439,128,0,96525:0:0:0:0:
64,192,96439,128,0,96525:0:0:0:0:
192,192,96525,128,0,96611:0:0:0:0:
448,192,96611,128,0,96782:0:0:0:0:
64,192,96697,128,0,96782:0:0:0:0:
192,192,96782,128,0,96954:0:0:0:0:
320,192,96868,128,0,96954:0:0:0:0:
64,192,96954,128,0,97125:0:0:0:0:
448,192,97039,128,0,97125:0:0:0:0:
192,192,97125,128,0,97211:0:0:0:0:
320,192,97125,128,0,97211:0:0:0:0:
192,192,97297,128,0,97382:0:0:0:0:
320,192,97297,128,0,97382:0:0:0:0:
64,192,97468,128,0,97725:0:0:0:0:
192,192,97468,128,0,97639:0:0:0:0:
320,192,97468,128,0,97639:0:0:0:0:
448,192,97639,128,0,97811:0:0:0:0:
320,192,97725,128,0,97811:0:0:0:0:
192,192,97811,128,0,97897:0:0:0:0:
64,192,97811,128,0,97982:0:0:0:0:
448,192,97982,128,0,98239:0:0:0:0:
320,192,97982,128,0,98154:0:0:0:0:
192,192,97982,128,0,98154:0:0:0:0:
64,192,98154,128,0,98325:0:0:0:0:
320,192,98239,128,0,98325:0:0:0:0:
448,192,98325,128,0,98411:0:0:0:0:
192,192,98325,128,0,98497:0:0:0:0:
320,192,98497,128,0,98668:0:0:0:0:
448,192,98497,128,0,98754:0:0:0:0:
64,192,98497,128,0,98668:0:0:0:0:
192,192,98668,128,0,98839:0:0:0:0:
64,192,98754,128,0,98839:0:0:0:0:
448,192,98839,128,0,98925:0:0:0:0:
320,192,98839,128,0,99011:0:0:0:0:
448,192,99011,128,0,99268:0:0:0:0:
64,192,99011,128,0,99182:0:0:0:0:
192,192,99011,128,0,99097:0:0:0:0:
320,192,99097,128,0,99268:0:0:0:0:
192,192,99182,128,0,99268:0:0:0:0:
64,192,99268,128,0,99439:0:0:0:0:
320,192,99354,128,0,99439:0:0:0:0:
192,192,99439,128,0,99525:0:0:0:0:
448,192,99525,128,0,99611:0:0:0:0:
64,192,99525,128,0,99611:0:0:0:0:
64,192,99697,128,0,99782:0:0:0:0:
448,192,99697,128,0,99782:0:0:0:0:
64,192,99868,128,0,100039:0:0:0:0:
448,192,99868,128,0,100039:0:0:0:0:
192,192,99954,128,0,100039:0:0:0:0:
320,192,100039,128,0,100211:0:0:0:0:
64,192,100125,128,0,100211:0:0:0:0:
192,192,100211,128,0,100468:0:0:0:0:
448,192,100211,128,0,100468:0:0:0:0:
320,192,100468,128,0,100554:0:0:0:0:
192,192,100554,128,0,100725:0:0:0:0:
64,192,100554,128,0,100725:0:0:0:0:
448,192,100554,128,0,100639:0:0:0:0:
320,192,100725,128,0,100897:0:0:0:0:
448,192,100725,128,0,100897:0:0:0:0:
64,192,100897,128,0,101154:0:0:0:0:
192,192,100897,128,0,100982:0:0:0:0:
320,192,100982,128,0,101068:0:0:0:0:
448,192,101068,128,0,101154:0:0:0:0:
192,192,101068,128,0,101154:0:0:0:0:
320,192,101154,128,0,101239:0:0:0:0:
64,192,101239,128,0,101411:0:0:0:0:
192,192,101239,128,0,101325:0:0:0:0:
320,192,101411,128,0,101582:0:0:0:0:
448,192,101411,128,0,101582:0:0:0:0:
64,192,101582,128,0,101925:0:0:0:0:
192,192,101582,128,0,101754:0:0:0:0:
448,192,101754,128,0,101925:0:0:0:0:
320,192,101839,128,0,102011:0:0:0:0:
192,192,101925,128,0,102097:0:0:0:0:
64,192,102011,128,0,102182:0:0:0:0:
320,192,102097,128,0,102268:0:0:0:0:
192,192,102182,128,0,102268:0:0:0:0:
448,192,102268,128,0,102354:0:0:0:0:
192,192,102354,128,0,102439:0:0:0:0:
448,192,102439,128,0,102525:0:0:0:0:
192,192,102525,128,0,102611:0:0:0:0:
64,192,102611,128,0,102697:0:0:0:0:
448,192,102611,128,0,102697:0:0:0:0:
192,192,102782,128,0,102868:0:0:0:0:
320,192,102782,128,0,102868:0:0:0:0:
64,192,102954,128,0,103211:0:0:0:0:
192,192,102954,128,0,103211:0:0:0:0:
448,192,102954,128,0,103211:0:0:0:0:
320,192,103211,128,0,103297:0:0:0:0:
64,192,103297,128,0,103468:0:0:0:0:
448,192,103297,128,0,103382:0:0:0:0:
448,192,103468,128,0,103639:0:0:0:0:
192,192,103468,128,0,103554:0:0:0:0:
64,192,103639,128,0,103897:0:0:0:0:
192,192,103639,128,0,103897:0:0:0:0:
320,192,103639,128,0,103897:0:0:0:0:
448,192,103897,128,0,103982:0:0:0:0:
320,192,103982,128,0,104068:0:0:0:0:
64,192,103982,128,0,104154:0:0:0:0:
448,192,104154,128,0,104325:0:0:0:0:
192,192,104154,128,0,104239:0:0:0:0:
192,192,104325,128,0,104497:0:0:0:0:
320,192,104325,128,0,104497:0:0:0:0:
64,192,104325,128,0,105011:0:0:0:0:
448,192,104497,128,0,104582:0:0:0:0:
320,192,104582,128,0,104668:0:0:0:0:
192,192,104668,128,0,104754:0:0:0:0:
320,192,104754,128,0,104839:0:0:0:0:
448,192,104839,128,0,104925:0:0:0:0:
192,192,104925,128,0,105011:0:0:0:0:
320,192,105011,128,0,105097:0:0:0:0:
448,192,105011,1,0,0:0:0:0:
192,192,105097,128,0,105182:0:0:0:0:
64,192,105097,1,0,0:0:0:0:
320,192,105182,128,0,105268:0:0:0:0:
448,192,105182,1,0,0:0:0:0:
192,192,105268,128,0,105354:0:0:0:0:
64,192,105268,1,0,0:0:0:0:
320,192,105354,128,0,105439:0:0:0:0:
448,192,105354,128,0,105439:0:0:0:0:
320,192,105525,128,0,105697:0:0:0:0:
448,192,105525,128,0,105697:0:0:0:0:
64,192,105697,128,0,105868:0:0:0:0:
192,192,105697,128,0,106039:0:0:0:0:
448,192,105954,128,0,106039:0:0:0:0:
320,192,106039,128,0,106211:0:0:0:0:
64,192,106039,128,0,106125:0:0:0:0:
192,192,106211,128,0,106382:0:0:0:0:
64,192,106211,128,0,106382:0:0:0:0:
448,192,106382,128,0,106468:0:0:0:0:
320,192,106382,128,0,106468:0:0:0:0:
192,192,106468,128,0,106554:0:0:0:0:
64,192,106554,128,0,106639:0:0:0:0:
448,192,106554,128,0,106639:0:0:0:0:
192,192,106639,128,0,106725:0:0:0:0:
320,192,106725,128,0,106811:0:0:0:0:
64,192,106725,128,0,106897:0:0:0:0:
448,192,106897,128,0,107068:0:0:0:0:
320,192,106897,128,0,106982:0:0:0:0:
192,192,107068,128,0,107411:0:0:0:0:
64,192,107068,128,0,107325:0:0:0:0:
448,192,107325,128,0,107497:0:0:0:0:
320,192,107411,128,0,107497:0:0:0:0:
64,192,107411,128,0,107582:0:0:0:0:
192,192,107497,128,0,107582:0:0:0:0:
320,192,107582,128,0,107754:0:0:0:0:
64,192,107668,128,0,107754:0:0:0:0:
448,192,107754,128,0,107925:0:0:0:0:
192,192,107839,128,0,107925:0:0:0:0:
64,192,107925,128,0,108097:0:0:0:0:
448,192,108011,128,0,108097:0:0:0:0:
192,192,108097,128,0,108182:0:0:0:0:
320,192,108097,128,0,108182:0:0:0:0:
192,192,108268,128,0,108354:0:0:0:0:
320,192,108268,128,0,108354:0:0:0:0:
64,192,108439,128,0,108697:0:0:0:0:
192,192,108439,128,0,108611:0:0:0:0:
448,192,108439,128,0,108611:0:0:0:0:
320,192,108611,128,0,108782:0:0:0:0:
192,192,108697,128,0,108782:0:0:0:0:
448,192,108782,128,0,108868:0:0:0:0:
64,192,108782,128,0,108954:0:0:0:0:
448,192,108954,128,0,109211:0:0:0:0:
320,192,108954,128,0,109125:0:0:0:0:
192,192,108954,128,0,109125:0:0:0:0:
64,192,109125,128,0,109297:0:0:0:0:
192,192,109211,128,0,109297:0:0:0:0:
448,192,109297,128,0,109382:0:0:0:0:
320,192,109297,128,0,109468:0:0:0:0:
192,192,109468,128,0,109639:0:0:0:0:
448,192,109468,128,0,109725:0:0:0:0:
64,192,109468,128,0,109639:0:0:0:0:
320,192,109639,128,0,109811:0:0:0:0:
64,192,109725,128,0,109811:0:0:0:0:
448,192,109811,128,0,109897:0:0:0:0:
192,192,109811,128,0,109982:0:0:0:0:
64,192,109982,128,0,110154:0:0:0:0:
320,192,109982,128,0,110068:0:0:0:0:
448,192,109982,128,0,110239:0:0:0:0:
192,192,110068,128,0,110239:0:0:0:0:
320,192,110154,128,0,110239:0:0:0:0:
64,192,110239,128,0,110411:0:0:0:0:
192,192,110325,128,0,110411:0:0:0:0:
320,192,110411,128,0,110497:0:0:0:0:
448,192,110497,128,0,110582:0:0:0:0:
64,192,110497,128,0,110582:0:0:0:0:
64,192,110668,128,0,110754:0:0:0:0:
448,192,110668,128,0,110754:0:0:0:0:
448,192,110839,128,0,111097:0:0:0:0:
64,192,110839,128,0,111097:0:0:0:0:
448,192,111182,128,0,111354:0:0:0:0:
64,192,111182,128,0,111697:0:0:0:0:
320,192,111354,128,0,111525:0:0:0:0:
448,192,111525,128,0,111697:0:0:0:0:
192,192,111525,1,0,0:0:0:0:
320,192,111697,128,0,111782:0:0:0:0:
192,192,111697,128,0,111868:0:0:0:0:
64,192,111868,128,0,112039:0:0:0:0:
448,192,111868,128,0,111954:0:0:0:0:
192,192,112039,128,0,112211:0:0:0:0:
320,192,112039,128,0,112211:0:0:0:0:
448,192,112211,128,0,112554:0:0:0:0:
64,192,112211,128,0,112297:0:0:0:0:
64,192,112382,128,0,112725:0:0:0:0:
320,192,112382,128,0,112554:0:0:0:0:
448,192,112725,128,0,112811:0:0:0:0:
320,192,112725,128,0,112811:0:0:0:0:
448,192,112897,128,0,113068:0:0:0:0:
64,192,112897,128,0,113068:0:0:0:0:
192,192,113068,128,0,113239:0:0:0:0:
320,192,113068,1,0,0:0:0:0:
64,192,113239,128,0,113582:0:0:0:0:
448,192,113239,128,0,113411:0:0:0:0:
320,192,113411,128,0,113582:0:0:0:0:
192,192,113582,128,0,113754:0:0:0:0:
448,192,113582,128,0,113754:0:0:0:0:
64,192,113754,128,0,113925:0:0:0:0:
320,192,113754,128,0,113925:0:0:0:0:
192,192,113925,128,0,114268:0:0:0:0:
448,192,113925,128,0,114182:0:0:0:0:
64,192,114097,128,0,114268:0:0:0:0:
448,192,114268,128,0,114439:0:0:0:0:
320,192,114268,1,0,0:0:0:0:
192,192,114439,128,0,114611:0:0:0:0:
64,192,114439,128,0,114611:0:0:0:0:
320,192,114611,1,0,0:0:0:0:
448,192,114782,128,0,114954:0:0:0:0:
64,192,114782,128,0,114954:0:0:0:0:
320,192,114954,128,0,115125:0:0:0:0:
192,192,114954,128,0,115125:0:0:0:0:
448,192,115125,128,0,115468:0:0:0:0:
64,192,115125,128,0,115297:0:0:0:0:
192,192,115297,128,0,115468:0:0:0:0:
320,192,115468,128,0,115639:0:0:0:0:
448,192,115639,128,0,115811:0:0:0:0:
64,192,115639,128,0,115982:0:0:0:0:
320,192,115811,128,0,115982:0:0:0:0:
192,192,115982,128,0,116154:0:0:0:0:
448,192,115982,128,0,116154:0:0:0:0:
320,192,116154,128,0,116325:0:0:0:0:
448,192,116325,128,0,116497:0:0:0:0:
64,192,116325,128,0,116411:0:0:0:0:
64,192,116497,128,0,116668:0:0:0:0:
192,192,116497,128,0,116668:0:0:0:0:
448,192,116668,128,0,116839:0:0:0:0:
320,192,116668,128,0,117354:0:0:0:0:
192,192,116839,128,0,117011:0:0:0:0:
448,192,117011,128,0,117182:0:0:0:0:
64,192,117011,1,0,0:0:0:0:
64,192,117182,128,0,117354:0:0:0:0:
448,192,117354,128,0,117525:0:0:0:0:
192,192,117354,1,0,0:0:0:0:
320,192,117525,128,0,117697:0:0:0:0:
192,192,117525,1,0,0:0:0:0:
64,192,117697,128,0,117868:0:0:0:0:
192,192,117697,128,0,117868:0:0:0:0:
448,192,117868,128,0,118725:0:0:0:0:
320,192,117868,1,0,0:0:0:0:
192,192,118039,128,0,118211:0:0:0:0:
64,192,118039,128,0,118382:0:0:0:0:
320,192,118211,128,0,118382:0:0:0:0:
192,192,118382,128,0,118554:0:0:0:0:
320,192,118554,128,0,118725:0:0:0:0:
64,192,118725,128,0,118897:0:0:0:0:
192,192,118725,128,0,119068:0:0:0:0:
448,192,118897,128,0,119068:0:0:0:0:
64,192,119068,128,0,119154:0:0:0:0:
320,192,119068,128,0,119154:0:0:0:0:
64,192,119239,128,0,119411:0:0:0:0:
320,192,119239,128,0,119411:0:0:0:0:
192,192,119411,1,0,0:0:0:0:
448,192,119411,128,0,119582:0:0:0:0:
320,192,119582,1,0,0:0:0:0:
64,192,119582,128,0,119754:0:0:0:0:
192,192,119754,128,0,119925:0:0:0:0:
448,192,119754,1,0,0:0:0:0:
448,192,119925,128,0,120097:0:0:0:0:
64,192,119925,1,0,0:0:0:0:
64,192,120097,128,0,120439:0:0:0:0:
320,192,120097,1,0,0:0:0:0:
320,192,120268,128,0,120611:0:0:0:0:
192,192,120268,1,0,0:0:0:0:
192,192,120439,128,0,120782:0:0:0:0:
448,192,120439,1,0,0:0:0:0:
448,192,120611,128,0,120782:0:0:0:0:
64,192,120611,1,0,0:0:0:0:
64,192,120782,128,0,121039:0:0:0:0:
320,192,120782,128,0,120954:0:0:0:0:
192,192,120954,128,0,121039:0:0:0:0:
448,192,121039,128,0,121297:0:0:0:0:
320,192,121039,128,0,121211:0:0:0:0:
64,192,121211,128,0,121297:0:0:0:0:
192,192,121297,128,0,121639:0:0:0:0:
320,192,121297,128,0,121554:0:0:0:0:
64,192,121639,1,0,0:0:0:0:
320,192,121639,1,0,0:0:0:0:
448,192,121639,1,0,0:0:0:0:
