osu file format v14

[General]
AudioFilename: audio.mp3
AudioLeadIn: 0
PreviewTime: 61811
Countdown: 0
SampleSet: None
StackLeniency: 0.2
Mode: 0
LetterboxInBreaks: 0
WidescreenStoryboard: 0

[Editor]
DistanceSpacing: 0.8
BeatDivisor: 4
GridSize: 4
TimelineZoom: 3.399999

[Metadata]
Title:China Dress
TitleUnicode:China Dress
Artist:Memme
ArtistUnicode:Memme
Creator:Duck Wings
Version:SHD
Source:
Tags:
BeatmapID:2070002
BeatmapSetID:989542

[Difficulty]
HPDrainRate:8
CircleSize:4
OverallDifficulty:8
ApproachRate:9.5
SliderMultiplier:2
SliderTickRate:1

[Events]
//Background and Video events
0,0,"ada.jpg",0,0
//Break Periods
2,83954,87868
//Storyboard Layer 0 (Background)
//Storyboard Layer 1 (Fail)
//Storyboard Layer 2 (Pass)
//Storyboard Layer 3 (Foreground)
//Storyboard Sound Samples

[TimingPoints]
97,342.857142857143,4,2,1,80,1,0
1125,-50,4,2,1,80,0,0
1468,-100,4,2,1,80,0,0
1982,-200,4,2,1,80,0,0
2325,-50,4,2,1,80,0,0
2668,-100,4,2,1,80,0,0
3182,-66.6666666666667,4,2,1,80,0,0
3525,-200,4,2,1,80,0,0
3868,-50,4,2,1,80,0,0
4211,-100,4,2,1,80,0,0
5239,-200,4,2,1,80,0,0
5925,-100,4,2,1,80,0,0
6611,-50,4,2,1,80,0,0
9011,-100,4,2,1,80,0,0
9868,-83.3333333333333,4,2,1,80,0,0
10039,-71.4285714285714,4,2,1,80,0,0
10039,-76.9230769230769,4,2,1,80,0,0
10211,-66.6666666666667,4,2,1,80,0,0
10382,-62.5,4,2,1,80,0,0
10554,-58.8235294117647,4,2,1,80,0,0
10725,-55.5555555555556,4,2,1,80,0,0
10896,-52.6315789473684,4,2,1,80,0,0
11068,-100,4,2,1,80,0,0
11582,-66.6666666666667,4,2,1,80,0,0
11925,-50,4,2,1,80,0,0
12525,-50,4,2,1,50,0,0
15182,-50,4,2,1,40,0,0
15525,-50,4,2,1,45,0,0
15868,-50,4,2,1,50,0,0
16211,-50,4,2,1,55,0,0
16554,-50,4,2,1,80,0,0
17925,-71.4285714285714,4,2,1,80,0,0
28897,-133.333333333333,4,2,1,80,0,0
34725,-71.4285714285714,4,2,1,80,0,0
37125,-133.333333333333,4,2,1,80,0,0
37468,-71.4285714285714,4,2,1,80,0,0
50839,-100,4,2,1,80,0,0
61811,-100,4,2,1,80,0,1
72525,-50,4,2,1,80,0,1
72782,-133.333333333333,4,2,1,80,0,0
78268,-71.4285714285714,4,2,1,80,0,0
89239,-100,4,2,1,80,0,1
100211,-100,4,2,1,30,0,0
100554,-66.6666666666667,4,2,1,80,0,1
108439,-66.6666666666667,4,2,1,40,0,1
108954,-66.6666666666667,4,2,1,55,0,1
109468,-66.6666666666667,4,2,1,70,0,1
109982,-66.6666666666667,4,2,1,85,0,1
110497,-66.6666666666667,4,2,1,85,0,1
110925,-50,4,2,1,100,0,1
111182,-100,4,2,1,80,0,0
121554,-66.6666666666667,4,2,1,80,0,0
121811,-100,4,2,1,80,0,0
124897,-100,4,2,1,5,0,0

[Colours]
Combo1 : 0,255,128
Combo2 : 255,0,0
Combo3 : 0,128,255
Combo4 : 255,255,0

[HitObjects]
177,214,868,5,2,0:0:0:0:
177,214,954,2,0,L|197:123,1,50,8|0,0:0|0:0,0:0:0:0:
300,294,1125,6,0,B|261:300|242:287|242:287|228:297|199:296|178:250|175:214|175:214|149:265|130:276|130:276|108:273|108:273|75:280,1,300,4|0,1:0|0:0,0:0:0:0:
162,342,1468,5,6,0:0:0:0:
216,30,1639,1,0,0:0:0:0:
405,267,1811,2,0,L|414:354,1,50,2|0,0:0|0:0,0:0:0:0:
396,192,1982,6,0,L|407:286,1,75,2|0,0:0|0:0,0:0:0:0:
410,316,2325,6,0,P|309:291|321:100,1,300,2|0,0:0|0:0,0:0:0:0:
402,72,2668,6,0,B|434:61|485:60|485:60|449:31|403:41,1,150,4|0,0:0|0:0,0:0:0:0:
323,41,3011,1,0,0:0:0:0:
283,47,3097,1,0,0:0:0:0:
243,37,3182,6,0,B|212:47|161:48|161:48|197:77|221:70,1,150,8|0,0:0|0:0,0:0:0:0:
76,266,3525,6,0,L|23:220,1,50,2|0,0:0|0:0,0:0:0:0:
86,285,3868,6,0,P|128:294|208:272,1,100,8|0,0:0|0:0,0:0:0:0:
380,315,4039,2,0,P|448:280|469:252,1,100,8|0,0:0|0:0,0:0:0:0:
296,342,4211,6,0,L|172:354,1,100,6|0,0:0|0:0,0:0:0:0:
76,266,4554,1,2,0:0:0:0:
380,315,4725,1,2,0:0:0:0:
442,195,4896,5,2,0:0:0:0:
447,156,4982,1,2,0:0:0:0:
442,116,5068,1,2,0:0:0:0:
380,315,5239,1,2,0:0:0:0:
442,116,5411,6,0,B|443:73|437:50|437:50|419:79|416:87,1,100,4|0,0:0|0:0,0:0:0:0:
380,315,5925,6,0,B|400:352|417:369|417:369|418:335|417:327,1,100,8|0,0:0|0:0,0:0:0:0:
263,130,6268,2,0,B|222:115|198:114|198:114|220:140|227:145,1,100,2|0,0:0|0:0,0:0:0:0:
433,194,6611,6,0,B|474:183|495:171|495:171|462:161|453:161,1,100,8|0,0:0|0:0,0:0:0:0:
204,239,6782,2,0,B|162:249|141:261|141:261|174:271|183:271,1,100,8|0,0:0|0:0,0:0:0:0:
130,119,6954,5,2,0:0:0:0:
44,230,7125,1,0,0:0:0:0:
125,347,7296,1,2,0:0:0:0:
143,110,7468,5,0,0:0:0:0:
57,221,7639,1,2,0:0:0:0:
138,338,7811,1,0,0:0:0:0:
46,90,7982,6,0,P|107:109|164:107,1,100,8|0,0:0|0:0,0:0:0:0:
143,110,8154,2,0,P|218:93|255:65,1,100,8|0,0:0|0:0,0:0:0:0:
236,81,8325,6,0,B|251:113|251:113|232:139|232:139|255:166|255:166|243:182|243:182|252:208|252:208|278:225|278:225|255:245|242:277|250:301|250:301|246:324|255:343,1,300,4|0,0:0|0:0,0:0:0:0:
324,287,8668,1,8,0:0:0:0:
449,202,8839,1,0,0:0:0:0:
341,19,9011,6,0,P|319:77|339:134,1,100,2|0,0:0|0:0,0:0:0:0:
324,287,9354,2,0,P|342:291|350:257,1,50,10|0,0:0|0:0,0:0:0:0:
449,202,9525,2,0,P|431:198|423:232,1,50,2|0,0:0|0:0,0:0:0:0:
229,59,9696,6,0,P|232:73|241:47,1,50,2|0,0:0|0:0,0:0:0:0:
223,63,9868,6,0,P|228:77|267:68,1,59.9999981689454,2|0,0:0|0:0,0:0:0:0:
217,66,10039,6,0,P|222:80|272:72,1,69.9999978637696,2|0,0:0|0:0,0:0:0:0:
211,71,10211,6,0,P|216:85|272:86,1,75.0000028610231,2|0,0:0|0:0,0:0:0:0:
205,77,10382,6,0,P|210:91|277:91,1,80,2|0,0:0|0:0,0:0:0:0:
198,83,10554,6,0,P|203:97|284:94,1,85.0000016212464,2|0,0:0|0:0,0:0:0:0:
190,89,10725,6,0,P|195:103|287:106,1,89.9999972534181,2|0,0:0|0:0,0:0:0:0:
181,94,10896,6,0,P|186:108|282:128,1,94.9999974632264,2|0,0:0|0:0,0:0:0:0:
386,190,11068,5,2,1:3:0:0:
444,107,11239,2,0,P|414:118|391:117,1,50,2|2,0:0|0:0,0:0:0:0:
184,245,11411,5,2,1:3:0:0:
107,142,11582,2,0,P|147:166|186:173,1,75.0000028610231,2|2,0:0|0:0,0:0:0:0:
352,325,11754,5,2,1:3:0:0:
441,201,11925,2,0,P|406:237|354:252,1,100,2|2,0:0|0:0,0:0:0:0:
75,361,12096,5,2,1:3:0:0:
102,336,12182,1,0,1:0:0:0:
160,356,12268,5,0,1:0:0:0:
187,331,12354,1,0,1:0:0:0:
237,365,12439,5,6,0:0:0:0:
342,260,12611,1,0,0:0:0:0:
464,343,12782,1,2,0:0:0:0:
464,343,12954,1,0,0:0:0:0:
185,309,13125,5,2,0:0:0:0:
290,204,13297,1,0,0:0:0:0:
412,287,13468,1,2,0:0:0:0:
412,287,13639,1,0,0:0:0:0:
134,251,13811,5,2,0:0:0:0:
239,146,13982,1,0,0:0:0:0:
361,229,14154,1,2,0:0:0:0:
361,229,14325,1,0,0:0:0:0:
82,195,14497,5,2,0:0:0:0:
187,90,14668,1,2,0:0:0:0:
187,90,14754,1,2,0:0:0:0:
187,90,14839,1,2,0:0:0:0:
309,173,15011,1,2,0:0:0:0:
146,162,15182,5,2,1:2:0:0:
115,175,15268,1,0,1:0:0:0:
87,189,15354,2,0,P|126:220|184:216,1,100,0|0,1:0|1:0,1:0:0:0:
146,162,15525,5,2,1:2:0:0:
133,131,15611,1,0,1:0:0:0:
119,103,15697,2,0,P|88:142|92:200,1,100,0|0,1:0|1:0,1:0:0:0:
146,162,15868,5,2,1:2:0:0:
177,149,15954,1,0,1:0:0:0:
205,135,16040,2,0,P|166:103|108:107,1,100,0|0,1:0|1:0,1:0:0:0:
146,162,16211,5,2,1:2:0:0:
159,193,16297,1,0,1:0:0:0:
173,221,16383,2,0,P|204:182|200:124,1,100,0|0,1:0|1:0,1:0:0:0:
87,189,16554,6,0,P|126:220|184:216,1,100,2|0,0:0|0:0,0:0:0:0:
119,103,16725,6,0,P|88:142|92:200,1,100,2|0,0:0|0:0,0:0:0:0:
203,133,16897,6,0,P|164:101|106:105,1,100,2|0,0:0|0:0,0:0:0:0:
325,224,17239,6,0,L|316:112,1,100,4|0,0:0|0:0,0:0:0:0:
431,359,17411,2,0,L|419:247,1,100
420,259,17582,5,8,0:3:0:0:
373,242,17668,1,0,0:0:0:0:
325,224,17754,1,0,0:0:0:0:
320,174,17839,1,0,0:0:0:0:
316,124,17925,5,6,0:0:0:0:
102,297,18097,5,0,0:0:0:0:
55,291,18182,1,0,0:0:0:0:
8,286,18268,1,2,0:0:0:0:
287,317,18439,1,0,0:0:0:0:
148,302,18611,6,0,L|0:285,1,139.999995727539,2|0,0:0|0:0,0:0:0:0:
148,302,18954,2,0,L|296:319,1,139.999995727539,2|0,0:0|0:0,0:0:0:0:
482,268,19297,6,0,L|473:198,1,69.9999978637696,6|0,0:0|0:0,0:0:0:0:
410,128,19468,2,0,L|401:58,1,69.9999978637696,2|0,0:0|0:0,0:0:0:0:
303,28,19639,1,2,0:0:0:0:
482,268,19811,1,4,0:0:0:0:
482,268,19982,6,0,L|471:173,1,69.9999978637696,2|0,0:0|0:0,0:0:0:0:
410,128,20154,2,0,L|399:33,1,69.9999978637696,2|0,0:0|0:0,0:0:0:0:
303,28,20325,1,2,0:0:0:0:
303,28,20497,1,2,0:0:0:0:
353,253,20668,5,6,0:0:0:0:
204,115,20839,5,0,0:0:0:0:
251,109,20925,1,0,0:0:0:0:
298,104,21011,1,2,0:0:0:0:
19,135,21182,1,0,0:0:0:0:
158,120,21354,6,0,L|306:103,1,139.999995727539,2|0,0:0|0:0,0:0:0:0:
158,120,21697,2,0,L|10:137,1,139.999995727539,2|0,0:0|0:0,0:0:0:0:
427,303,22039,5,6,0:0:0:0:
280,345,22211,2,0,L|357:338,1,69.9999978637696,2|0,0:0|0:0,0:0:0:0:
220,292,22382,5,2,0:0:0:0:
191,271,22468,1,0,0:0:0:0:
156,266,22554,1,0,0:0:0:0:
122,275,22639,1,0,0:0:0:0:
172,192,22725,5,4,0:0:0:0:
180,157,22811,1,0,0:0:0:0:
177,122,22897,1,0,0:0:0:0:
159,91,22982,1,0,0:0:0:0:
248,124,23068,5,2,0:0:0:0:
379,68,23239,1,2,0:0:0:0:
490,276,23411,5,4,0:0:0:0:
333,275,23582,2,0,L|322:354,1,69.9999978637696
254,356,23754,2,0,L|109:365,1,139.999995727539,2|0,0:0|0:0,0:0:0:0:
320,255,24097,5,2,0:0:0:0:
490,276,24268,1,0,0:0:0:0:
254,356,24439,2,0,L|109:347,1,139.999995727539,2|0,0:0|0:0,0:0:0:0:
61,153,24782,5,6,0:0:0:0:
61,153,24954,2,0,L|49:63,1,69.9999978637696,2|0,0:0|0:0,0:0:0:0:
70,222,25125,2,0,L|58:132,1,69.9999978637696,2|0,0:0|0:0,0:0:0:0:
156,39,25297,5,6,0:0:0:0:
156,39,25468,2,0,L|145:131,1,69.9999978637696,2|0,0:0|0:0,0:0:0:0:
228,84,25639,2,0,L|217:176,1,69.9999978637696,2|0,0:0|0:0,0:0:0:0:
161,285,25811,6,0,L|149:195,1,69.9999978637696,2|0,0:0|0:0,0:0:0:0:
183,297,25982,2,0,L|171:207,1,69.9999978637696,2|0,0:0|0:0,0:0:0:0:
356,130,26154,5,6,0:0:0:0:
441,173,26325,1,0,0:0:0:0:
441,173,26411,1,0,0:0:0:0:
441,173,26497,1,2,0:0:0:0:
366,211,26668,1,0,0:0:0:0:
373,52,26839,5,2,0:0:0:0:
493,111,27011,1,0,0:0:0:0:
356,130,27182,1,2,0:0:0:0:
494,232,27354,1,0,0:0:0:0:
442,333,27525,5,6,0:0:0:0:
236,260,27697,1,0,0:0:0:0:
223,227,27782,1,0,0:0:0:0:
230,192,27868,6,0,P|260:214|249:267,1,69.9999978637696,2|0,0:0|0:0,0:0:0:0:
140,282,28039,2,0,P|152:317|113:354,1,69.9999978637696,2|0,0:0|0:0,0:0:0:0:
155,117,28211,6,0,L|137:30,1,69.9999978637696,4|0,0:3|0:0,0:0:0:0:
254,94,28382,2,0,L|236:7,1,69.9999978637696,2|0,0:0|0:0,0:0:0:0:
29,77,28554,5,2,0:0:0:0:
63,81,28639,1,2,0:0:0:0:
33,131,28725,5,2,0:0:0:0:
67,135,28811,1,2,0:0:0:0:
38,185,28897,6,0,L|177:198,1,112.500004291535,2|0,0:0|0:0,0:0:0:0:
150,195,29239,1,2,0:0:0:0:
359,315,29411,5,0,0:0:0:0:
288,306,29497,1,0,0:0:0:0:
217,297,29582,2,0,L|127:306,1,75.0000028610231,2|0,0:0|0:0,0:0:0:0:
290,292,29839,5,2,0:0:0:0:
327,297,29925,1,10,0:0:0:0:
121,337,30097,5,4,0:0:0:0:
339,112,30439,6,0,L|335:84,2,18.7500007152558,2|0|0,0:3|0:0|0:0,0:0:0:0:
407,150,30611,5,8,0:0:0:0:
387,218,30697,1,0,0:0:0:0:
321,243,30782,1,0,0:0:0:0:
260,205,30868,1,0,0:0:0:0:
267,133,30954,2,0,P|279:107|301:94,1,37.5000014305115,2|0,0:0|0:0,0:0:0:0:
387,218,31125,2,0,P|417:222|426:236,1,37.5000014305115,2|0,0:0|0:0,0:0:0:0:
229,278,31297,5,10,0:0:0:0:
173,274,31382,1,2,0:0:0:0:
126,242,31468,1,2,0:0:0:0:
97,193,31554,1,2,0:0:0:0:
95,137,31639,6,0,L|111:16,1,112.500004291535,2|0,0:0|0:0,0:0:0:0:
109,25,31982,1,2,0:0:0:0:
57,173,32154,5,0,0:0:0:0:
111,223,32239,1,0,0:0:0:0:
184,237,32325,2,0,L|288:239,1,75.0000028610231,2|0,0:0|0:0,0:0:0:0:
113,251,32582,5,0,0:0:0:0:
77,264,32668,1,8,0:0:0:0:
210,321,32839,5,4,0:0:0:0:
367,172,33182,6,0,L|372:192,2,18.7500007152558,2|0|0,0:3|0:0|0:0,0:0:0:0:
432,132,33354,5,8,0:0:0:0:
367,94,33439,1,0,0:0:0:0:
301,56,33525,1,0,0:0:0:0:
301,131,33611,1,0,0:0:0:0:
302,206,33697,1,2,0:0:0:0:
302,206,33868,1,2,0:0:0:0:
163,27,34039,5,10,0:0:0:0:
159,64,34125,1,2,0:0:0:0:
110,79,34211,5,2,0:0:0:0:
108,116,34297,1,2,0:0:0:0:
61,140,34382,6,0,P|81:199|135:221,1,112.500004291535,2|0,0:0|0:0,0:0:0:0:
143,198,34725,6,0,P|113:129|51:149,1,139.999995727539,2|0,0:0|0:0,0:0:0:0:
118,331,35068,5,2,0:0:0:0:
277,226,35239,2,0,P|282:181|274:145,1,69.9999978637696,2|0,0:0|0:0,0:0:0:0:
94,179,35411,1,8,0:0:0:0:
275,364,35582,1,4,0:0:0:0:
412,138,35925,6,0,L|410:101,2,34.9999989318848,2|0|0,0:3|0:0|0:0,0:0:0:0:
435,173,36097,5,8,0:0:0:0:
448,212,36182,1,0,0:0:0:0:
443,253,36268,1,0,0:0:0:0:
422,289,36354,1,0,0:0:0:0:
384,308,36439,1,2,0:0:0:0:
360,219,36611,1,2,0:0:0:0:
217,264,36782,5,10,0:0:0:0:
172,318,36868,1,0,0:0:0:0:
101,313,36954,2,0,L|81:236,1,69.9999978637696
217,264,37125,6,0,L|235:148,1,112.500004291535,2|0,0:0|0:0,0:0:0:0:
108,258,37468,6,0,L|89:116,1,139.999995727539,2|0,0:0|0:0,0:0:0:0:
53,25,37811,5,2,0:0:0:0:
144,51,37982,2,0,P|196:56|232:52,1,69.9999978637696,2|0,0:0|0:0,0:0:0:0:
297,22,38154,1,8,0:0:0:0:
489,57,38325,1,4,0:0:0:0:
410,237,38668,5,2,0:0:0:0:
411,213,38754,1,0,0:0:0:0:
431,289,38839,5,2,0:0:0:0:
399,335,38925,1,0,0:0:0:0:
345,352,39011,1,0,0:0:0:0:
289,341,39097,1,0,0:0:0:0:
243,263,39182,5,2,0:0:0:0:
240,206,39268,1,0,0:0:0:0:
237,149,39354,1,0,0:0:0:0:
234,93,39439,1,0,0:0:0:0:
314,171,39525,5,2,0:0:0:0:
334,190,39611,1,2,0:0:0:0:
313,209,39697,1,2,0:0:0:0:
292,190,39782,1,2,0:0:0:0:
356,101,39868,6,0,P|413:157|373:272,1,209.999993591309,6|0,0:0|0:0,0:0:0:0:
334,190,40211,2,0,P|294:226|204:209,1,139.999995727539,2|0,0:0|0:0,0:0:0:0:
194,351,40554,6,0,P|175:321|168:287,1,69.9999978637696,2|0,0:0|0:0,0:0:0:0:
55,278,40725,2,0,P|62:244|81:214,1,69.9999978637696
135,126,40897,1,0,0:0:0:0:
294,28,41068,2,0,B|305:42|335:45|335:45|305:88|240:59|224:24,1,139.999995727539,0|2,0:0|0:0,0:0:0:0:
22,38,41411,6,0,P|52:45|101:41,1,69.9999978637696
250,52,41582,2,0,P|263:84|268:118,1,69.9999978637696,2|0,0:0|0:0,0:0:0:0:
111,226,41754,2,0,P|108:191|118:157,1,69.9999978637696
364,68,41925,5,2,0:0:0:0:
303,325,42097,1,0,0:0:0:0:
111,226,42268,2,0,P|134:200|164:183,1,69.9999978637696,2|0,0:0|0:0,0:0:0:0:
392,144,42439,2,0,P|385:178|390:212,1,69.9999978637696,2|0,0:0|0:0,0:0:0:0:
256,152,42611,6,0,B|272:84|272:84|256:12,1,139.999995727539,6|0,0:0|0:0,0:0:0:0:
478,14,42954,2,0,B|494:82|494:82|478:154,1,139.999995727539,2|0,0:0|0:0,0:0:0:0:
409,321,43297,6,0,P|372:336|336:326,1,69.9999978637696,2|0,0:0|0:0,0:0:0:0:
164,337,43468,2,0,P|150:285|155:249,1,69.9999978637696
452,253,43639,1,2,0:0:0:0:
141,324,43811,2,0,P|145:257|196:189,1,139.999995727539,0|2,0:0|0:0,0:0:0:0:
378,164,44154,6,0,P|428:169|462:191,1,69.9999978637696
409,321,44325,2,0,P|359:316|325:294,1,69.9999978637696,2|0,0:0|0:0,0:0:0:0:
250,94,44497,2,0,P|278:135|283:175,1,69.9999978637696
164,337,44668,2,0,P|168:270|219:202,1,139.999995727539,2|2,0:0|0:0,0:0:0:0:
71,375,45011,6,0,P|55:344|51:298,1,69.9999978637696,2|0,0:0|0:0,0:0:0:0:
341,307,45182,2,0,P|336:341|320:372,1,69.9999978637696,2|0,0:0|0:0,0:0:0:0:
109,144,45354,6,0,B|97:87|98:53|128:21|150:18|150:18|194:26|186:63,1,209.999993591309,6|0,0:0|0:0,0:0:0:0:
109,144,45697,2,0,B|121:201|120:235|90:267|68:270|68:270|24:262|32:225,1,209.999993591309,2|0,0:0|0:0,0:0:0:0:
109,144,46039,6,0,L|221:142,1,69.9999978637696,2|0,0:0|0:0,0:0:0:0:
267,150,46211,1,2,0:0:0:0:
264,177,46297,1,0,0:0:0:0:
263,204,46382,2,0,L|373:202,1,69.9999978637696,2|0,0:0|0:0,0:0:0:0:
436,141,46554,6,0,B|503:139|503:139|502:67|502:67|394:70,1,209.999993591309,6|0,0:0|0:0,0:0:0:0:
417,72,46897,2,0,L|419:163,1,69.9999978637696
509,247,47068,2,0,L|507:177,1,69.9999978637696,2|0,0:0|0:0,0:0:0:0:
368,265,47239,2,0,L|370:356,1,69.9999978637696
501,334,47411,5,2,0:0:0:0:
369,185,47582,1,0,0:0:0:0:
262,241,47754,6,0,L|255:163,1,69.9999978637696,2|0,0:0|0:0,0:0:0:0:
130,92,47925,2,0,L|201:153,1,69.9999978637696,2|0,0:0|0:0,0:0:0:0:
288,44,48097,1,6,0:0:0:0:
50,150,48268,5,0,0:0:0:0:
54,162,48354,1,0,0:0:0:0:
87,162,48439,5,2,0:0:0:0:
91,182,48525,1,0,0:0:0:0:
95,202,48611,1,0,0:0:0:0:
99,222,48697,1,0,0:0:0:0:
71,260,48782,5,2,0:0:0:0:
63,315,48868,1,0,0:0:0:0:
89,364,48954,1,2,0:0:0:0:
144,364,49039,1,0,0:0:0:0:
186,327,49125,6,0,L|209:242,1,69.9999978637696,2|0,0:0|0:0,0:0:0:0:
238,157,49297,2,0,L|261:72,1,69.9999978637696,2|0,0:0|0:0,0:0:0:0:
341,44,49468,5,2,0:0:0:0:
341,44,49554,2,0,L|351:131,1,69.9999978637696
463,105,49725,5,2,0:0:0:0:
463,105,49811,2,0,L|453:192,1,69.9999978637696
350,245,49982,5,2,0:0:0:0:
351,251,50068,1,0,0:0:0:0:
421,252,50154,5,0,0:0:0:0:
390,189,50239,1,0,0:0:0:0:
319,184,50325,1,2,0:0:0:0:
278,241,50411,1,0,0:0:0:0:
307,304,50497,5,0,0:0:0:0:
331,317,50582,1,0,0:0:0:0:
358,319,50668,1,0,0:0:0:0:
385,313,50754,1,0,0:0:0:0:
350,245,50839,6,0,P|282:237|237:286,1,100,4|0,0:0|0:0,0:0:0:0:
177,328,51182,2,0,L|62:317,1,100
170,228,51525,2,0,P|176:162|90:126,1,150,8|0,0:0|0:0,0:0:0:0:
111,121,51868,2,0,P|172:98|171:55,1,100,0|2,0:0|0:0,0:0:0:0:
264,49,52211,6,0,L|340:56,1,50,2|0,0:3|0:0,0:0:0:0:
363,60,52382,1,0,0:0:0:0:
374,136,52468,6,0,L|450:129,1,50,2|0,0:3|0:0,0:0:0:0:
473,125,52639,1,0,0:0:0:0:
473,125,52725,1,2,0:3:0:0:
288,166,52897,6,0,L|178:158,1,100,8|0,0:0|0:0,0:0:0:0:
407,226,53239,2,0,L|517:218,1,100,2|0,0:0|0:0,0:0:0:0:
159,312,53582,6,0,L|36:318,1,100,2|0,0:0|0:0,0:0:0:0:
22,214,53925,1,0,0:0:0:0:
22,214,54097,1,0,0:0:0:0:
173,332,54268,2,0,P|230:314|223:224,1,150,8|0,0:0|0:0,0:0:0:0:
232,233,54611,2,0,P|259:279|321:280,1,100,0|2,0:0|0:0,0:0:0:0:
373,218,54954,6,0,L|383:144,1,50,2|0,0:3|0:0,0:0:0:0:
386,118,55125,1,0,0:0:0:0:
308,125,55211,6,0,L|298:51,1,50,2|0,0:3|0:0,0:0:0:0:
295,25,55382,1,0,0:0:0:0:
295,25,55468,1,2,0:3:0:0:
178,75,55639,5,10,0:0:0:0:
176,90,55725,1,0,0:0:0:0:
174,105,55811,1,2,0:0:0:0:
172,120,55897,1,0,0:0:0:0:
147,143,55982,5,2,0:0:0:0:
193,123,56068,1,2,0:0:0:0:
153,92,56154,1,2,0:0:0:0:
199,74,56239,1,2,0:0:0:0:
157,45,56325,1,4,0:0:0:0:
140,226,56497,5,0,0:0:0:0:
140,226,56668,2,0,L|258:241,1,100
384,277,57011,2,0,P|316:282|301:352,1,150,8|0,0:0|0:0,0:0:0:0:
301,352,57354,2,0,P|260:312|215:325,1,100,0|2,0:0|0:0,0:0:0:0:
460,149,57697,6,0,L|390:129,1,50,2|0,0:3|0:0,0:0:0:0:
363,122,57868,1,0,0:0:0:0:
383,211,57954,6,0,L|321:219,1,50,2|0,0:3|0:0,0:0:0:0:
283,225,58125,1,0,0:0:0:0:
283,225,58211,1,2,0:3:0:0:
202,96,58382,5,8,0:0:0:0:
130,212,58554,1,0,0:0:0:0:
46,72,58725,2,0,P|60:150|35:200,1,100,2|0,0:0|0:0,0:0:0:0:
299,313,59068,6,0,L|228:297,1,50,2|0,0:0|0:0,0:0:0:0:
197,274,59239,2,0,L|246:285,1,50,2|0,0:0|0:0,0:0:0:0:
320,225,59411,6,0,L|249:209,1,50,2|0,0:0|0:0,0:0:0:0:
218,186,59582,2,0,L|267:197,1,50,2|0,0:0|0:0,0:0:0:0:
448,203,59754,6,0,L|377:187,3,50,2|0|2|0,0:0|0:0|0:0|0:0,0:0:0:0:
341,132,60097,6,0,L|270:116,1,50,2|0,0:0|0:0,0:0:0:0:
293,42,60268,2,0,L|222:26,1,50,2|0,0:0|0:0,0:0:0:0:
122,44,60439,5,8,0:3:0:0:
96,182,60611,6,0,L|123:195,1,25,2|2,0:0|0:0,0:0:0:0:
132,222,60697,2,0,L|129:254,1,25,2|2,0:0|0:0,0:0:0:0:
108,270,60782,1,2,0:0:0:0:
295,150,60954,1,2,0:0:0:0:
363,176,61297,6,0,L|378:256,1,50,2|0,0:0|0:0,0:0:0:0:
410,337,61468,5,4,0:0:0:0:
343,292,61554,1,0,0:0:0:0:
263,294,61639,1,0,0:0:0:0:
203,347,61725,1,0,0:0:0:0:
186,268,61811,6,0,P|188:208|116:136,1,150,6|0,0:0|0:0,0:0:0:0:
105,324,62154,2,0,L|113:210,1,100,2|0,0:0|0:0,0:0:0:0:
281,50,62497,6,0,L|352:43,1,50,2|0,0:0|0:0,0:0:0:0:
219,119,62668,2,0,L|169:123,1,50
368,19,62839,1,2,0:0:0:0:
391,146,63011,1,0,0:0:0:0:
181,171,63182,1,2,0:0:0:0:
40,118,63354,5,0,0:0:0:0:
48,94,63439,1,0,0:0:0:0:
80,70,63525,5,2,0:0:0:0:
101,57,63611,1,0,0:0:0:0:
141,58,63697,5,0,0:0:0:0:
165,56,63782,1,0,0:0:0:0:
192,85,63868,5,2,0:0:0:0:
211,100,63954,1,0,0:0:0:0:
201,138,64039,5,0,0:0:0:0:
206,162,64125,1,0,0:0:0:0:
215,234,64211,6,0,P|153:211|133:162,1,100,2|2,0:0|0:0,0:0:0:0:
124,339,64554,6,0,L|273:347,1,150,6|0,0:0|0:0,0:0:0:0:
307,243,64897,2,0,L|419:249,1,100,2|0,0:0|0:0,0:0:0:0:
282,247,65239,6,0,L|431:255,1,150,6|0,0:0|0:0,0:0:0:0:
247,340,65582,2,0,L|147:334,1,100,2|0,0:0|0:0,0:0:0:0:
394,26,65925,6,0,L|405:98,1,50,6|0,0:0|0:0,0:0:0:0:
330,85,66097,2,0,L|322:35,1,50
251,45,66268,2,0,L|262:117,1,50,2|0,0:0|0:0,0:0:0:0:
187,104,66439,2,0,L|179:54,1,50
28,42,66611,5,6,0:0:0:0:
33,101,66697,1,0,0:0:0:0:
91,111,66782,1,0,0:0:0:0:
121,59,66868,1,0,0:0:0:0:
166,133,66954,6,0,P|127:181|75:188,1,100,6|2,0:0|0:0,0:0:0:0:
251,45,67297,6,0,P|313:30|420:89,1,150,6|0,0:0|0:0,0:0:0:0:
360,143,67639,2,0,P|417:128|476:159,1,100,2|0,0:0|0:0,0:0:0:0:
279,232,67982,6,0,L|337:220,1,50,2|0,0:0|0:0,0:0:0:0:
389,340,68154,2,0,L|331:328,1,50
166,241,68325,1,2,0:0:0:0:
4,326,68497,1,0,0:0:0:0:
49,201,68668,2,0,P|72:99|58:22,1,150,2|0,0:0|0:0,0:0:0:0:
140,33,69011,5,2,0:0:0:0:
145,57,69097,1,0,0:0:0:0:
171,86,69182,5,0,0:0:0:0:
173,111,69268,1,0,0:0:0:0:
205,135,69354,5,2,0:0:0:0:
203,159,69439,1,0,0:0:0:0:
236,181,69525,5,0,0:0:0:0:
231,205,69611,1,0,0:0:0:0:
192,264,69697,6,0,P|192:304|171:365,1,100,2|2,0:0|0:0,0:0:0:0:
377,113,70039,6,0,L|381:55,1,50,4|0,0:0|0:0,0:0:0:0:
476,242,70211,5,0,0:0:0:0:
479,207,70297,1,0,0:0:0:0:
482,172,70382,2,0,L|424:168,1,50,2|0,0:0|0:0,0:0:0:0:
431,67,70554,6,0,L|373:63,1,50,4|0,0:0|0:0,0:0:0:0:
467,234,70725,5,0,0:0:0:0:
470,199,70811,1,0,0:0:0:0:
473,164,70897,2,0,L|415:160,1,50,2|0,0:0|0:0,0:0:0:0:
384,13,71068,6,0,L|380:62,1,50,4|0,0:0|0:0,0:0:0:0:
458,225,71239,5,0,0:0:0:0:
461,190,71325,1,0,0:0:0:0:
464,155,71411,2,0,L|406:151,1,50,2|0,0:0|0:0,0:0:0:0:
331,60,71582,6,0,L|380:63,1,50,4|0,0:0|0:0,0:0:0:0:
206,202,71754,2,0,L|255:205,1,50
101,38,71925,2,0,L|150:41,1,50
389,147,72097,6,0,L|418:152,1,25,6|0,0:0|0:0,0:0:0:0:
120,251,72268,2,0,L|162:244,1,25,2|0,0:0|0:0,0:0:0:0:
374,352,72439,6,0,L|416:345,1,25,4|0,0:0|0:0,0:0:0:0:
423,359,72525,2,0,B|481:309|494:259|481:224|487:210|477:200|467:194|467:194|420:208|407:223,1,200
451,201,72782,5,2,0:0:0:0:
342,230,72954,2,0,L|333:232,2,9.37500035762788,2|0|0,0:1|0:0|0:0,0:0:0:0:
380,165,73125,1,2,0:0:0:0:
365,300,73297,1,0,0:0:0:0:
303,162,73468,5,2,0:0:0:0:
451,201,73639,2,0,L|464:200,2,9.37500035762788,2|0|0,0:1|0:0|0:0,0:0:0:0:
371,91,73811,1,2,0:0:0:0:
342,230,73982,2,0,L|343:240,2,9.37500035762788,2|0|0,0:1|0:0|0:0,0:0:0:0:
291,85,74154,5,2,0:0:0:0:
382,165,74325,2,0,L|340:159,1,37.5000014305115
264,229,74497,1,2,0:0:0:0:
402,305,74668,2,0,L|360:299,1,37.5000014305115
206,277,74839,6,0,L|164:271,1,37.5000014305115,2|0,0:0|0:0,0:0:0:0:
97,241,75011,2,0,L|89:238,2,9.37500035762788,2|0|0,0:1|0:0|0:0,0:0:0:0:
48,311,75182,1,2,0:0:0:0:
126,338,75354,2,0,L|125:347,2,9.37500035762788,2|0|0,0:1|0:0|0:0,0:0:0:0:
117,141,75525,6,0,L|133:97,1,37.5000014305115,2|0,0:0|0:0,0:0:0:0:
197,188,75697,2,0,L|245:209,1,37.5000014305115
61,222,75868,2,0,L|59:209,2,9.37500035762788,2|0|0,0:3|0:0|0:0,0:0:0:0:
26,120,76039,2,0,L|28:107,2,9.37500035762788,2|0|0,0:1|0:0|0:0,0:0:0:0:
154,35,76211,6,0,L|199:31,1,37.5000014305115,2|0,0:0|0:0,0:0:0:0:
284,59,76382,2,0,L|300:61,2,9.37500035762788,2|0|0,0:1|0:0|0:0,0:0:0:0:
184,113,76554,1,2,0:0:0:0:
353,103,76725,2,0,L|368:100,2,9.37500035762788,2|0|0,0:1|0:0|0:0,0:0:0:0:
267,178,76897,5,2,0:0:0:0:
289,192,76982,1,0,0:0:0:0:
316,195,77068,1,0,0:0:0:0:
343,191,77154,1,0,0:0:0:0:
377,233,77239,5,2,0:0:0:0:
355,247,77325,1,0,0:0:0:0:
328,250,77411,1,0,0:0:0:0:
301,246,77497,1,0,0:0:0:0:
272,293,77582,5,2,0:0:0:0:
294,307,77668,1,0,0:0:0:0:
321,310,77754,1,0,0:0:0:0:
348,306,77839,1,0,0:0:0:0:
386,346,77925,5,2,0:0:0:0:
332,359,78010,1,0,0:0:0:0:
276,355,78096,1,0,0:0:0:0:
224,334,78182,1,0,0:0:0:0:
158,362,78268,6,0,P|105:301|111:230,1,139.999995727539,6|0,0:0|0:0,0:0:0:0:
47,161,78525,2,0,L|29:163,2,17.4999994659424,2|0|0,0:1|0:0|0:0,0:0:0:0:
61,137,78611,2,0,P|104:152|199:129,1,139.999995727539,8|0,0:0|0:0,0:0:0:0:
328,199,78954,5,2,0:0:0:0:
402,126,79125,2,0,L|417:145,2,17.4999994659424,2|0|0,0:1|0:0|0:0,0:0:0:0:
478,53,79297,1,8,0:0:0:0:
491,249,79468,2,0,L|506:268,2,17.4999994659424,2|0|0,0:1|0:0|0:0,0:0:0:0:
372,298,79639,5,2,0:0:0:0:
280,341,79811,2,0,L|205:338,1,69.9999978637696
123,295,79982,1,8,0:0:0:0:
282,263,80154,2,0,L|207:260,1,69.9999978637696
91,306,80325,5,2,0:0:0:0:
275,51,80497,2,0,L|275:30,2,17.4999994659424,2|0|0,0:1|0:0|0:0,0:0:0:0:
381,330,80668,2,0,B|449:348|449:348|465:253,1,139.999995727539,8|0,0:0|0:0,0:0:0:0:
459,118,81011,6,0,L|379:129,1,69.9999978637696,2|0,0:0|0:0,0:0:0:0:
339,181,81182,1,0,0:0:0:0:
320,169,81268,2,0,L|317:150,2,17.4999994659424,2|0|0,0:1|0:0|0:0,0:0:0:0:
301,182,81354,2,0,P|272:251|337:300,1,139.999995727539,8|2,0:0|0:1,0:0:0:0:
390,57,81697,6,0,L|472:37,1,69.9999978637696,2|0,0:0|0:0,0:0:0:0:
321,73,81868,2,0,L|403:53,1,69.9999978637696
252,89,82039,2,0,L|334:69,1,69.9999978637696,8|0,0:0|0:0,0:0:0:0:
501,61,82211,5,4,0:0:0:0:
426,160,82382,1,0,0:0:0:0:
361,35,82554,1,2,0:0:0:0:
361,35,82639,1,2,0:0:0:0:
361,35,82725,1,2,0:0:0:0:
309,187,82897,1,2,0:0:0:0:
243,47,83068,1,8,0:0:0:0:
179,138,83239,6,0,L|191:88,1,34.9999989318848
153,88,83325,2,0,L|165:36,1,34.9999989318848
127,37,83411,1,0,0:0:0:0:
95,83,83497,1,0,0:0:0:0:
63,128,83582,1,0,0:0:0:0:
39,77,83668,1,0,0:0:0:0:
18,24,83754,1,4,0:1:0:0:
95,50,88554,5,2,0:0:0:0:
150,48,88639,1,0,0:0:0:0:
206,46,88725,1,0,0:0:0:0:
262,44,88811,1,0,0:0:0:0:
334,86,88897,5,2,0:0:0:0:
360,92,88982,1,0,0:0:0:0:
387,99,89068,1,0,0:0:0:0:
414,106,89154,1,0,0:0:0:0:
462,228,89239,6,0,P|405:267|325:230,1,150,6|0,0:0|0:0,0:0:0:0:
259,186,89582,2,0,P|317:211|335:270,1,100,2|0,0:0|0:0,0:0:0:0:
117,331,89925,6,0,L|185:350,1,50,2|0,0:0|0:0,0:0:0:0:
302,374,90097,2,0,L|317:314,1,50
150,170,90268,1,2,0:0:0:0:
103,333,90439,1,0,0:0:0:0:
359,228,90611,1,2,0:0:0:0:
464,358,90782,5,0,0:0:0:0:
448,321,90868,1,0,0:0:0:0:
399,306,90954,5,2,0:0:0:0:
393,266,91039,1,0,0:0:0:0:
359,228,91125,5,0,0:0:0:0:
363,188,91211,1,0,0:0:0:0:
358,138,91297,5,2,0:0:0:0:
379,104,91382,1,0,0:0:0:0:
384,54,91468,5,0,0:0:0:0:
418,33,91554,1,0,0:0:0:0:
474,95,91639,6,0,P|416:112|369:99,1,100,2|2,0:0|0:0,0:0:0:0:
54,207,91982,6,0,L|211:193,1,150,6|0,0:0|0:0,0:0:0:0:
203,193,92325,2,0,L|325:197,1,100,2|0,0:0|0:0,0:0:0:0:
490,280,92668,6,0,P|453:319|362:356,1,150,6|0,0:0|0:0,0:0:0:0:
365,355,93011,2,0,P|316:356|260:342,1,100,2|0,0:0|0:0,0:0:0:0:
31,274,93354,6,0,L|107:261,1,50,6|0,0:0|0:0,0:0:0:0:
178,246,93525,2,0,L|254:233,1,50
238,312,93697,2,0,L|162:325,1,50,2|0,0:0|0:0,0:0:0:0:
91,340,93868,2,0,L|15:353,1,50
75,142,94039,5,6,0:0:0:0:
134,149,94125,1,2,0:0:0:0:
193,157,94211,1,2,0:0:0:0:
252,165,94297,1,2,0:0:0:0:
325,212,94382,6,0,L|213:196,1,100,6|2,0:0|0:0,0:0:0:0:
29,27,94725,6,0,L|209:54,1,150,6|0,0:0|0:0,0:0:0:0:
262,101,95068,2,0,L|162:39,1,100,2|0,0:0|0:0,0:0:0:0:
381,141,95411,6,0,L|393:85,1,50,2|0,0:0|0:0,0:0:0:0:
488,236,95582,2,0,L|476:188,1,50
352,44,95754,1,2,0:0:0:0:
435,145,95925,1,0,0:0:0:0:
250,208,96097,2,0,P|210:228|117:169,1,150,2|0,0:0|0:0,0:0:0:0:
30,90,96439,5,2,0:0:0:0:
64,110,96525,1,0,0:0:0:0:
114,106,96611,5,0,0:0:0:0:
145,130,96697,1,0,0:0:0:0:
192,142,96782,5,2,0:0:0:0:
212,176,96868,1,0,0:0:0:0:
250,208,96954,5,0,0:0:0:0:
259,246,97039,1,0,0:0:0:0:
323,273,97125,6,0,L|321:380,1,100,2|2,0:0|0:0,0:0:0:0:
280,176,97468,6,0,L|280:108,1,50,4|0,0:0|0:0,0:0:0:0:
428,360,97639,2,0,L|428:292,1,50
428,260,97811,1,2,0:0:0:0:
280,226,97982,6,0,L|280:158,1,50,4|0,0:0|0:0,0:0:0:0:
428,260,98154,2,0,L|428:192,1,50
428,160,98325,1,2,0:0:0:0:
280,276,98497,6,0,L|280:208,1,50,4|0,0:0|0:0,0:0:0:0:
428,160,98668,2,0,L|428:92,1,50
428,60,98839,1,2,0:0:0:0:
280,326,99011,6,0,L|280:258,1,50,4|0,0:0|0:0,0:0:0:0:
107,202,99182,2,0,L|173:185,1,50,2|0,0:0|0:0,0:0:0:0:
242,35,99354,2,0,L|259:101,1,50,2|0,0:0|0:0,0:0:0:0:
404,169,99525,6,0,L|368:179,1,25,6|0,0:0|0:0,0:0:0:0:
280,326,99697,2,0,L|270:290,1,25,2|0,0:0|0:0,0:0:0:0:
95,178,99868,5,6,0:0:0:0:
110,109,99954,1,2,0:0:0:0:
154,56,100039,1,2,0:0:0:0:
218,29,100125,1,2,0:0:0:0:
288,31,100211,2,0,L|315:35,7,25
312,34,100554,6,0,P|339:102|315:175,1,150.000005722046,12|0,0:0|0:0,0:0:0:0:
25,242,100897,5,2,0:0:0:0:
128,255,100982,1,0,0:0:0:0:
232,268,101068,1,0,0:0:0:0:
336,282,101154,1,0,0:0:0:0:
439,296,101239,2,0,L|462:137,2,150.000005722046,8|0|2,0:0|0:0|0:0,0:0:0:0:
388,124,101754,5,0,0:0:0:0:
388,100,101839,1,0,0:0:0:0:
336,124,101925,5,8,0:0:0:0:
336,100,102011,1,0,0:0:0:0:
284,124,102097,5,0,0:0:0:0:
284,100,102182,1,0,0:0:0:0:
232,124,102268,5,2,0:0:0:0:
232,100,102354,1,0,0:0:0:0:
180,124,102439,5,0,0:0:0:0:
180,100,102525,1,0,0:0:0:0:
104,112,102611,6,0,P|76:160|100:256,1,150.000005722046,8|0,0:0|0:0,0:0:0:0:
326,329,102954,6,0,P|323:236|209:179,1,225.000008583069,6|0,0:0|0:0,0:0:0:0:
94,56,103297,2,0,P|167:98|261:90,1,150.000005722046,8|0,0:0|0:0,0:0:0:0:
416,74,103639,6,0,P|331:33|227:107,1,225.000008583069,6|0,0:0|0:0,0:0:0:0:
92,251,103982,2,0,P|172:224|229:149,1,150.000005722046,8|0,0:0|0:0,0:0:0:0:
88,360,104325,5,6,0:0:0:0:
78,337,104411,1,0,0:0:0:0:
135,339,104497,5,0,0:0:0:0:
126,317,104582,1,0,0:0:0:0:
183,319,104668,5,8,0:0:0:0:
174,297,104754,1,0,0:0:0:0:
231,299,104839,5,0,0:0:0:0:
222,276,104925,1,0,0:0:0:0:
276,300,105011,5,6,0:0:0:0:
285,277,105097,1,0,0:0:0:0:
324,320,105182,5,0,0:0:0:0:
333,298,105268,1,0,0:0:0:0:
392,340,105354,6,0,P|462:315|483:214,1,150.000005722046,12|8,0:0|0:0,0:0:0:0:
399,48,105697,6,0,P|297:34|193:105,1,225.000008583069,6|0,0:0|0:0,0:0:0:0:
57,136,106039,2,0,B|170:119|170:119|210:87,1,150.000005722046,8|0,0:0|0:0,0:0:0:0:
457,186,106382,5,2,0:0:0:0:
354,199,106468,1,0,0:0:0:0:
250,212,106554,1,0,0:0:0:0:
146,226,106639,1,0,0:0:0:0:
43,240,106725,2,0,L|20:81,1,150.000005722046,8|0,0:0|0:0,0:0:0:0:
264,288,107068,2,0,L|310:41,1,225.000008583069,2|0,0:0|0:0,0:0:0:0:
408,34,107411,5,8,0:0:0:0:
384,36,107497,1,0,0:0:0:0:
412,85,107582,5,0,0:0:0:0:
388,87,107668,1,0,0:0:0:0:
417,137,107754,5,2,0:0:0:0:
393,139,107839,1,0,0:0:0:0:
421,189,107925,5,0,0:0:0:0:
397,191,108011,1,0,0:0:0:0:
416,261,108097,6,0,P|387:313|285:313,1,150.000005722046,8|0,0:0|0:0,0:0:0:0:
26,263,108439,5,4,1:2:0:0:
71,260,108525,1,0,1:0:0:0:
116,257,108611,1,0,1:0:0:0:
161,254,108697,1,0,1:0:0:0:
205,252,108782,1,8,1:2:0:0:
250,250,108868,1,0,1:0:0:0:
327,321,108954,5,4,1:2:0:0:
282,324,109040,1,0,1:0:0:0:
237,327,109126,1,0,1:0:0:0:
192,330,109212,1,0,1:0:0:0:
148,332,109297,1,8,1:2:0:0:
103,334,109383,1,0,1:0:0:0:
26,263,109468,5,4,1:2:0:0:
19,218,109554,1,0,1:0:0:0:
14,173,109639,1,0,1:0:0:0:
14,127,109725,1,0,1:0:0:0:
21,82,109811,1,8,1:2:0:0:
37,40,109897,1,0,1:0:0:0:
75,17,109982,5,4,1:2:0:0:
83,121,110068,1,0,1:0:0:0:
140,208,110154,1,0,1:0:0:0:
239,238,110239,1,0,1:0:0:0:
341,212,110325,1,8,1:2:0:0:
413,135,110411,1,0,1:0:0:0:
423,30,110497,6,0,L|373:23,1,37.5000014305115,12|0,1:2|0:0,0:0:0:0:
83,121,110668,2,0,L|33:128,1,37.5000014305115,8|0,1:2|0:0,0:0:0:0:
473,273,110839,6,0,L|423:280,1,37.5000014305115,12|0,0:0|0:0,0:0:0:0:
405,283,110925,2,0,B|344:275|344:275|261:309|261:309|165:295,1,200
24,340,111182,5,2,0:0:0:0:
93,311,111354,1,0,0:0:0:0:
34,268,111525,1,2,0:0:0:0:
24,340,111697,1,0,0:0:0:0:
100,239,111868,1,2,0:0:0:0:
24,340,112039,1,0,0:0:0:0:
93,311,112211,1,2,0:0:0:0:
97,54,112382,5,2,0:3:0:0:
147,364,112725,5,0,0:0:0:0:
194,300,112897,1,2,0:0:0:0:
147,364,113068,1,0,0:0:0:0:
269,308,113239,1,2,0:0:0:0:
194,300,113411,1,0,0:0:0:0:
204,111,113582,5,2,0:3:0:0:
269,308,113925,5,2,0:0:0:0:
340,316,114097,1,0,0:0:0:0:
383,257,114268,1,2,0:0:0:0:
311,247,114440,1,0,0:0:0:0:
303,377,114611,1,2,0:0:0:0:
379,377,114782,1,0,0:0:0:0:
383,257,114954,1,2,0:0:0:0:
303,53,115125,5,2,0:3:0:0:
446,314,115468,5,0,0:0:0:0:
490,371,115639,1,2,0:0:0:0:
416,248,115810,1,0,0:0:0:0:
452,187,115981,1,2,0:0:0:0:
446,314,116154,1,0,0:0:0:0:
419,101,116325,5,2,0:3:0:0:
419,101,116497,1,2,0:3:0:0:
171,342,116668,5,6,0:0:0:0:
111,348,116839,1,0,0:0:0:0:
53,331,117011,1,2,0:0:0:0:
24,278,117182,1,0,0:0:0:0:
128,356,117354,5,2,0:0:0:0:
256,374,117525,1,0,0:0:0:0:
385,356,117697,1,2,0:0:0:0:
474,262,117868,1,0,0:0:0:0:
363,50,118039,5,6,0:0:0:0:
474,262,118211,5,0,0:0:0:0:
442,312,118382,1,2,0:0:0:0:
387,337,118554,1,0,0:0:0:0:
281,261,118725,5,2,0:0:0:0:
175,338,118897,1,0,0:0:0:0:
127,34,119068,5,6,0:0:0:0:
50,327,119239,5,2,0:0:0:0:
328,100,119411,6,0,L|285:109,1,25,2|0,0:0|0:0,0:0:0:0:
184,100,119582,2,0,L|227:109,1,25,2|0,0:0|0:0,0:0:0:0:
164,185,119754,2,0,L|207:176,1,25,2|0,0:0|0:0,0:0:0:0:
348,185,119925,2,0,L|305:176,1,25,2|0,0:0|0:0,0:0:0:0:
184,100,120097,6,0,L|227:91,1,25,2|0,0:0|0:0,0:0:0:0:
328,100,120268,2,0,L|285:91,1,25,2|0,0:0|0:0,0:0:0:0:
164,185,120439,2,0,L|207:194,1,25,2|0,0:0|0:0,0:0:0:0:
348,185,120611,2,0,L|305:194,1,25,2|0,0:0|0:0,0:0:0:0:
256,372,120782,5,2,0:0:0:0:
186,360,120868,2,0,L|125:350,1,50
256,300,121039,5,2,0:0:0:0:
326,288,121125,2,0,L|387:278,1,50
256,228,121297,5,2,0:0:0:0:
186,216,121383,2,0,L|125:206,1,50
256,156,121554,5,2,0:0:0:0:
326,144,121639,2,0,L|408:128,1,75.0000028610231,12|0,0:0|0:0,0:0:0:0:
256,84,121811,5,2,0:0:0:0:
186,72,121897,2,0,L|125:62,1,50
256,12,122068,5,0,0:0:0:0:
256,192,122154,12,0,124897,0:0:0:0:
