osu file format v14

[General]
AudioFilename: audio.mp3
AudioLeadIn: 0
PreviewTime: 61811
Countdown: 0
SampleSet: None
StackLeniency: 0.2
Mode: 0
LetterboxInBreaks: 0
WidescreenStoryboard: 0

[Editor]
DistanceSpacing: 1
BeatDivisor: 4
GridSize: 4
TimelineZoom: 3.399999

[Metadata]
Title:China Dress
TitleUnicode:China Dress
Artist:Memme
ArtistUnicode:Memme
Creator:Duck Wings
Version:Insane
Source:
Tags:
BeatmapID:2070003
BeatmapSetID:989542

[Difficulty]
HPDrainRate:6
CircleSize:4
OverallDifficulty:6
ApproachRate:9
SliderMultiplier:1.6
SliderTickRate:1

[Events]
//Background and Video events
0,0,"ada.jpg",0,0
//Break Periods
2,83954,87954
//Storyboard Layer 0 (Background)
//Storyboard Layer 1 (Fail)
//Storyboard Layer 2 (Pass)
//Storyboard Layer 3 (Foreground)
//Storyboard Sound Samples

[TimingPoints]
97,342.857142857143,4,2,1,80,1,0
1125,-58.8235294117647,4,2,1,80,0,0
1982,-200,4,2,1,80,0,0
3182,-100,4,2,1,80,0,0
3868,-50,4,2,1,80,0,0
4211,-100,4,2,1,80,0,0
4725,-200,4,2,1,80,0,0
5925,-100,4,2,1,80,0,0
6611,-50,4,2,1,80,0,0
11068,-100,4,2,1,80,0,0
14754,-50,4,2,1,80,0,0
15182,-100,4,2,1,80,0,0
100211,-200,4,2,1,80,0,0
100554,-66.6666666666667,4,2,1,80,0,1
109982,-100,4,2,1,80,0,1
110154,-66.6666666666667,4,2,1,80,0,1
110325,-50,4,2,1,80,0,1
111182,-100,4,2,1,80,0,0
121639,-62.5,4,2,1,80,0,0

[Colours]
Combo1 : 0,255,128
Combo2 : 255,0,0
Combo3 : 0,128,255
Combo4 : 255,255,0

[HitObjects]
77,40,868,6,0,L|142:46,1,40
120,31,1125,6,0,B|115:83|115:83|170:122|176:178|136:232,1,204.000003890991
84,301,1468,5,0,0:0:0:0:
189,327,1639,1,0,0:0:0:0:
68,309,1811,1,0,0:0:0:0:
218,303,1982,6,0,L|147:310,1,60
50,316,2325,5,0,0:0:0:0:
244,283,2497,1,0,0:0:0:0:
177,152,2668,6,0,B|185:116|185:116|171:61,1,80
256,33,3182,6,0,P|286:77|393:45,1,160
381,63,3868,6,0,P|308:39|255:93,1,160
256,177,4211,5,0,0:0:0:0:
360,243,4382,1,0,0:0:0:0:
357,153,4554,1,0,0:0:0:0:
485,255,4725,6,0,L|416:273,1,60
360,243,5068,5,0,0:0:0:0:
364,333,5239,1,0,0:0:0:0:
256,177,5411,6,0,B|264:136|264:136|253:91,1,80
181,235,5925,6,0,P|229:274|189:355,1,160
181,235,6611,6,0,L|193:146,2,80
57,325,6954,5,0,0:0:0:0:
63,245,7125,1,0,0:0:0:0:
69,164,7297,1,0,0:0:0:0:
75,84,7468,1,0,0:0:0:0:
83,76,7639,5,0,0:0:0:0:
78,123,7811,1,0,0:0:0:0:
75,170,7982,1,0,0:0:0:0:
72,218,8154,1,0,0:0:0:0:
189,329,8325,5,0,0:0:0:0:
183,249,8497,1,0,0:0:0:0:
177,168,8668,1,0,0:0:0:0:
171,88,8839,1,0,0:0:0:0:
163,80,9011,5,0,0:0:0:0:
168,127,9182,1,0,0:0:0:0:
196,285,9354,1,0,0:0:0:0:
199,333,9525,1,0,0:0:0:0:
332,228,9697,5,0,0:0:0:0:
456,267,9868,1,0,0:0:0:0:
460,171,10039,1,0,0:0:0:0:
443,81,10211,1,0,0:0:0:0:
332,134,10382,5,0,0:0:0:0:
456,267,10554,1,0,0:0:0:0:
332,228,10725,1,0,0:0:0:0:
443,81,10897,1,0,0:0:0:0:
246,74,11068,5,0,0:0:0:0:
259,89,11239,2,0,L|199:97,1,40
131,143,11411,5,0,0:0:0:0:
120,162,11582,2,0,L|179:169,1,40
292,216,11754,6,0,L|237:227,1,40
311,232,11925,2,0,L|277:274,1,40
107,332,12097,6,0,L|157:354,1,40
72,299,12268,2,0,L|114:271,1,40
15,203,12439,6,0,P|46:181|107:178,1,80
20,182,12782,2,0,P|52:162|113:165,1,80
130,66,13125,6,0,P|168:65|219:98,1,80
146,51,13468,2,0,P|183:54|232:90,1,80
327,67,13811,6,0,P|358:88|381:144,1,80
348,64,14154,2,0,P|377:88|395:146,1,80
479,175,14497,6,0,P|492:210|479:270,1,80
497,184,14754,6,0,P|507:220|489:279,1,80
340,221,15011,1,0,0:0:0:0:
276,299,15182,6,0,L|188:305,1,80
194,280,15439,1,0,0:0:0:0:
192,255,15525,6,0,L|111:246,1,80
89,253,15782,1,0,0:0:0:0:
66,261,15868,6,0,L|44:173,1,80
46,135,16125,1,0,0:0:0:0:
41,159,16211,6,0,L|149:166,1,80
210,111,16554,5,0,0:0:0:0:
442,158,16725,1,0,0:0:0:0:
342,43,16897,1,0,0:0:0:0:
277,211,17239,5,0,0:0:0:0:
280,234,17325,1,0,0:0:0:0:
283,257,17411,1,0,0:0:0:0:
286,280,17497,1,0,0:0:0:0:
331,311,17582,6,0,L|394:323,3,40
234,342,17925,5,0,0:0:0:0:
123,280,18097,2,0,P|94:275|69:280,1,40
196,276,18268,5,0,0:0:0:0:
158,349,18439,1,0,0:0:0:0:
154,213,18611,5,0,0:0:0:0:
234,342,18782,1,0,0:0:0:0:
83,276,18954,5,0,0:0:0:0:
271,277,19125,1,0,0:0:0:0:
397,171,19297,5,0,0:0:0:0:
228,100,19468,2,0,P|216:128|224:151,1,40
402,159,19639,5,0,0:0:0:0:
392,50,19811,1,0,0:0:0:0:
213,109,20154,6,0,P|213:139|230:156,1,40
392,50,20325,1,0,0:0:0:0:
397,171,20497,1,0,0:0:0:0:
326,264,20668,5,0,0:0:0:0:
392,318,20839,2,0,L|394:367,1,40
468,303,21011,2,0,L|464:208,1,80
326,264,21354,5,0,0:0:0:0:
392,318,21525,1,0,0:0:0:0:
464,223,21697,1,0,0:0:0:0:
318,344,21868,1,0,0:0:0:0:
234,277,22039,6,0,L|149:285,1,80
138,302,22297,1,0,0:0:0:0:
122,319,22382,2,0,L|70:327,3,40
63,255,22725,6,0,L|11:263,3,40
154,284,23068,2,0,L|234:277,1,80
364,243,23411,5,0,0:0:0:0:
429,182,23582,2,0,L|436:138,1,40
438,259,23754,5,0,0:0:0:0:
354,166,23925,1,0,0:0:0:0:
429,182,24097,5,0,0:0:0:0:
295,208,24268,1,0,0:0:0:0:
438,259,24439,5,0,0:0:0:0:
280,290,24611,1,0,0:0:0:0:
191,165,24782,5,0,0:0:0:0:
60,74,24954,2,0,L|99:68,1,40
260,39,25125,5,0,0:0:0:0:
180,84,25297,1,0,0:0:0:0:
180,84,25639,6,0,L|219:78,1,40
379,49,25810,1,0,0:0:0:0:
299,94,25982,1,0,0:0:0:0:
275,278,26154,6,0,L|383:272,1,80
393,274,26411,1,0,0:0:0:0:
393,274,26497,1,0,0:0:0:0:
198,280,26668,1,0,0:0:0:0:
131,189,26839,6,0,P|164:236|162:275,1,80
29,366,27182,2,0,L|36:278,1,80
124,146,27525,6,0,L|140:230,1,80
165,256,27782,1,0,0:0:0:0:
198,280,27868,2,0,L|252:277,1,40
275,278,28039,2,0,L|329:275,1,40
403,345,28211,6,0,L|311:350,1,80
165,256,28554,2,0,L|219:253,3,40
275,278,28897,5,0,0:0:0:0:
275,278,29239,5,0,0:0:0:0:
275,278,29582,5,0,0:0:0:0:
344,200,29754,2,0,P|368:194|397:197,1,40
275,278,29925,5,0,0:0:0:0:
67,192,30097,1,0,0:0:0:0:
42,52,30439,5,0,0:0:0:0:
42,52,30525,1,0,0:0:0:0:
42,52,30611,1,0,0:0:0:0:
54,72,30697,1,0,0:0:0:0:
74,83,30782,1,0,0:0:0:0:
97,88,30868,1,0,0:0:0:0:
120,90,30954,1,0,0:0:0:0:
376,82,31297,6,0,L|372:29,1,40
460,40,31468,2,0,L|463:79,1,40
473,196,31639,5,0,0:0:0:0:
473,196,31982,5,0,0:0:0:0:
376,264,32154,1,0,0:0:0:0:
473,196,32325,5,0,0:0:0:0:
341,163,32497,2,0,L|286:157,1,40
473,196,32668,5,0,0:0:0:0:
249,349,32839,1,0,0:0:0:0:
159,272,33182,5,0,0:0:0:0:
159,272,33268,1,0,0:0:0:0:
159,272,33354,1,0,0:0:0:0:
146,292,33439,1,0,0:0:0:0:
124,302,33525,1,0,0:0:0:0:
100,304,33611,1,0,0:0:0:0:
76,299,33697,1,0,0:0:0:0:
90,215,33868,1,0,0:0:0:0:
239,242,34039,6,0,L|246:184,1,40
287,129,34211,2,0,L|282:168,1,40
314,330,34382,6,0,L|411:326,1,80
314,330,34725,5,0,0:0:0:0:
201,309,34897,1,0,0:0:0:0:
314,330,35068,5,0,0:0:0:0:
470,237,35239,2,0,P|485:246|496:272,1,40
314,330,35411,5,0,0:0:0:0:
117,135,35582,1,0,0:0:0:0:
241,68,35925,5,0,0:0:0:0:
241,68,36011,1,0,0:0:0:0:
241,68,36097,1,0,0:0:0:0:
257,50,36182,1,0,0:0:0:0:
280,43,36268,1,0,0:0:0:0:
304,42,36354,1,0,0:0:0:0:
327,46,36439,1,0,0:0:0:0:
404,89,36611,1,0,0:0:0:0:
313,178,36782,6,0,L|368:170,1,40
289,265,36954,2,0,L|344:257,1,40
205,182,37125,6,0,B|106:165|106:165|128:186,1,120
205,182,37468,6,0,L|223:83,1,80
205,182,37811,5,0,0:0:0:0:
182,302,37982,2,0,L|121:290,1,40
205,182,38154,5,0,0:0:0:0:
443,219,38325,1,0,0:0:0:0:
386,286,38668,5,0,0:0:0:0:
386,286,38754,1,0,0:0:0:0:
399,326,38839,5,0,0:0:0:0:
399,326,38925,1,0,0:0:0:0:
399,326,39011,1,0,0:0:0:0:
399,326,39097,1,0,0:0:0:0:
463,352,39182,5,0,0:0:0:0:
463,352,39268,1,0,0:0:0:0:
463,352,39354,1,0,0:0:0:0:
463,352,39439,1,0,0:0:0:0:
463,352,39525,1,0,0:0:0:0:
463,352,39611,1,0,0:0:0:0:
463,352,39697,1,0,0:0:0:0:
463,352,39782,1,0,0:0:0:0:
463,352,39868,5,0,0:0:0:0:
463,352,40211,5,0,0:0:0:0:
463,352,40554,6,0,L|401:344,1,40
358,314,40725,2,0,L|296:306,1,40
260,264,40897,2,0,L|198:256,1,40
129,286,41068,1,0,0:0:0:0:
113,296,41411,6,0,L|92:245,1,40
51,200,41582,1,0,0:0:0:0:
51,200,41668,1,0,0:0:0:0:
51,200,41754,1,0,0:0:0:0:
51,200,41839,1,0,0:0:0:0:
51,200,41925,1,0,0:0:0:0:
188,84,42268,5,0,0:0:0:0:
188,84,42353,1,0,0:0:0:0:
188,84,42439,1,0,0:0:0:0:
188,84,42525,1,0,0:0:0:0:
188,84,42610,5,0,0:0:0:0:
188,84,42954,5,0,0:0:0:0:
188,84,43297,6,0,L|233:116,1,40
290,125,43468,2,0,L|345:123,1,40
394,90,43639,2,0,L|425:55,1,40
301,30,43811,1,0,0:0:0:0:
287,130,44154,6,0,L|342:128,1,40
410,181,44325,1,0,0:0:0:0:
410,181,44411,1,0,0:0:0:0:
410,181,44497,1,0,0:0:0:0:
410,181,44582,1,0,0:0:0:0:
410,181,44668,1,0,0:0:0:0:
261,295,45011,5,0,0:0:0:0:
261,295,45097,1,0,0:0:0:0:
261,295,45182,1,0,0:0:0:0:
261,295,45268,1,0,0:0:0:0:
261,295,45354,5,0,0:0:0:0:
261,295,45697,5,0,0:0:0:0:
261,295,46039,6,0,L|318:310,1,40
372,298,46211,2,0,L|430:277,1,40
261,368,46382,2,0,L|202:372,1,40
91,296,46554,1,0,0:0:0:0:
97,281,46897,6,0,L|90:234,1,40
65,158,47069,1,0,0:0:0:0:
65,158,47154,1,0,0:0:0:0:
65,158,47240,1,0,0:0:0:0:
65,158,47326,1,0,0:0:0:0:
65,158,47411,1,0,0:0:0:0:
255,273,47754,5,0,0:0:0:0:
255,273,47839,1,0,0:0:0:0:
255,273,47925,1,0,0:0:0:0:
255,273,48011,1,0,0:0:0:0:
255,273,48097,5,0,0:0:0:0:
255,273,48439,5,0,0:0:0:0:
255,273,48782,5,0,0:0:0:0:
328,360,48954,1,0,0:0:0:0:
255,273,49125,5,0,0:0:0:0:
375,207,49296,1,0,0:0:0:0:
255,273,49468,5,0,0:0:0:0:
228,25,49725,1,0,0:0:0:0:
255,273,49982,5,0,0:0:0:0:
13,8,50325,1,0,0:0:0:0:
82,42,50497,2,0,L|92:90,3,40
146,155,50839,6,0,L|133:262,1,80
136,234,51354,1,0,0:0:0:0:
126,313,51525,6,0,L|135:233,1,80
136,234,52039,1,0,0:0:0:0:
269,251,52211,5,0,0:0:0:0:
136,234,52468,1,0,0:0:0:0:
13,217,52725,1,0,0:0:0:0:
145,154,52897,6,0,L|135:233,1,80
126,313,53239,2,0,L|135:233,1,80
269,251,53582,6,0,P|320:246|363:222,1,80
345,234,54097,1,0,0:0:0:0:
421,217,54268,6,0,P|370:222|327:246,1,80
345,234,54782,1,0,0:0:0:0:
269,251,54954,5,0,0:0:0:0:
421,217,55211,1,0,0:0:0:0:
345,234,55468,1,0,0:0:0:0:
269,251,55639,6,0,L|255:288,1,40
346,274,55811,2,0,L|332:311,1,40
430,163,55982,5,0,0:0:0:0:
403,153,56068,1,0,0:0:0:0:
376,143,56154,1,0,0:0:0:0:
349,133,56239,1,0,0:0:0:0:
322,123,56325,6,0,L|217:133,1,80
148,255,56839,1,0,0:0:0:0:
68,262,57011,6,0,L|147:254,1,80
242,130,57525,1,0,0:0:0:0:
147,254,57697,5,0,0:0:0:0:
242,130,57954,1,0,0:0:0:0:
147,254,58211,1,0,0:0:0:0:
242,130,58382,6,0,L|251:38,1,80
147,254,58725,2,0,L|138:346,1,80
50,96,59068,6,0,L|34:10,3,80
64,174,59754,2,0,L|48:88,3,80
143,255,60439,5,0,0:0:0:0:
220,178,60611,2,0,L|251:163,1,20
199,158,60697,2,0,L|217:129,1,20
172,149,60782,1,0,0:0:0:0:
259,49,60954,5,0,0:0:0:0:
143,255,61297,1,0,0:0:0:0:
220,178,61468,5,0,0:0:0:0:
238,169,61554,1,0,0:0:0:0:
199,158,61639,1,0,0:0:0:0:
209,141,61725,1,0,0:0:0:0:
172,149,61811,6,0,L|164:22,1,120
198,58,62154,2,0,B|222:84|222:84|283:88,1,80
388,49,62497,5,0,0:0:0:0:
388,49,62582,1,0,0:0:0:0:
388,49,62668,1,0,0:0:0:0:
388,49,62754,1,0,0:0:0:0:
388,49,62839,2,0,B|409:112|409:112|397:151,2,80
329,139,63354,5,0,0:0:0:0:
332,150,63439,1,0,0:0:0:0:
335,161,63525,1,0,0:0:0:0:
338,172,63611,1,0,0:0:0:0:
341,183,63697,1,0,0:0:0:0:
344,194,63782,1,0,0:0:0:0:
347,205,63868,1,0,0:0:0:0:
350,216,63954,1,0,0:0:0:0:
353,227,64039,1,0,0:0:0:0:
356,238,64125,1,0,0:0:0:0:
357,249,64211,2,0,L|354:335,1,80
244,300,64554,6,0,L|104:323,1,120
47,300,64897,2,0,L|135:322,1,80
53,195,65239,6,0,L|193:218,1,120
250,195,65582,2,0,L|162:217,1,80
246,85,65925,6,0,L|185:97,7,40
269,15,66611,5,0,0:0:0:0:
308,23,66697,1,0,0:0:0:0:
346,31,66782,1,0,0:0:0:0:
385,39,66868,1,0,0:0:0:0:
424,48,66954,2,0,L|440:159,1,80
476,236,67297,6,0,P|435:232|366:286,1,120
336,247,67639,2,0,P|299:206|245:203,1,80
292,335,67982,5,0,0:0:0:0:
292,335,68068,1,0,0:0:0:0:
292,335,68154,1,0,0:0:0:0:
292,335,68239,1,0,0:0:0:0:
292,335,68325,2,0,L|192:346,1,80
128,302,68668,6,0,P|105:255|35:280,1,120
26,219,69011,1,0,0:0:0:0:
27,207,69097,1,0,0:0:0:0:
29,195,69182,1,0,0:0:0:0:
31,183,69268,1,0,0:0:0:0:
33,171,69354,1,0,0:0:0:0:
35,159,69439,1,0,0:0:0:0:
37,147,69525,1,0,0:0:0:0:
39,135,69611,1,0,0:0:0:0:
41,123,69697,2,0,L|25:22,1,80
173,31,70039,6,0,L|169:94,4,40
351,176,70554,6,0,L|353:136,4,40
83,235,71068,6,0,L|80:274,4,40
457,348,71582,6,0,L|459:308,1,40
387,314,71754,2,0,L|382:254,1,40
313,305,71925,2,0,L|294:251,1,40
247,341,72097,5,0,0:0:0:0:
137,237,72268,1,0,0:0:0:0:
35,350,72439,1,0,0:0:0:0:
346,139,72782,6,0,B|368:157|368:157|452:154,2,80
272,75,73297,2,0,P|225:54|95:98,2,160
292,157,74154,6,0,L|284:259,1,80
295,259,74411,1,0,0:0:0:0:
437,330,74668,1,0,0:0:0:0:
305,278,74839,6,0,L|217:288,1,80
33,270,75182,2,0,L|46:372,1,80
149,195,75525,6,0,B|143:158|143:158|152:109,2,80
146,296,76039,2,0,P|163:345|274:354,2,160
19,229,76897,6,0,P|36:209|64:212,3,40
33,121,77239,2,0,L|91:126,3,40
86,36,77582,5,0,0:0:0:0:
97,37,77668,1,0,0:0:0:0:
108,38,77754,1,0,0:0:0:0:
119,39,77839,1,0,0:0:0:0:
130,40,77925,2,0,L|194:36,3,40
225,86,78268,6,0,L|327:80,1,80
470,218,78611,2,0,L|461:129,1,80
289,324,78954,6,0,L|391:318,1,80
166,213,79297,2,0,L|157:124,1,80
30,354,79639,6,0,L|132:348,1,80
123,335,79897,2,0,L|182:331,1,40
240,181,80154,1,0,0:0:0:0:
57,113,80325,6,0,L|48:24,2,80
34,198,80839,1,0,0:0:0:0:
60,291,81011,5,0,0:0:0:0:
34,198,81182,1,0,0:0:0:0:
43,205,81267,1,0,0:0:0:0:
52,212,81354,2,0,L|60:291,1,80
48,33,81697,6,0,L|57:113,2,80
168,23,82211,1,0,0:0:0:0:
356,290,82554,5,0,0:0:0:0:
420,120,82725,1,0,0:0:0:0:
331,300,82897,1,0,0:0:0:0:
442,114,83068,1,0,0:0:0:0:
322,222,83239,6,0,L|284:235,2,26.6666666666667
347,182,83411,2,0,L|401:164,3,40
251,247,83754,5,0,0:0:0:0:
159,221,88554,6,0,P|177:242|183:262,3,40
96,313,88897,2,0,P|77:291|71:271,3,40
77,195,89239,6,0,P|66:132|92:70,1,120
59,43,89582,2,0,P|106:74|162:65,1,80
270,50,89925,5,0,0:0:0:0:
270,50,90011,1,0,0:0:0:0:
270,50,90097,1,0,0:0:0:0:
270,50,90182,1,0,0:0:0:0:
270,50,90268,2,0,L|359:34,2,80
427,82,90782,5,0,0:0:0:0:
425,93,90868,1,0,0:0:0:0:
423,104,90954,1,0,0:0:0:0:
421,115,91039,1,0,0:0:0:0:
420,126,91125,1,0,0:0:0:0:
419,138,91211,1,0,0:0:0:0:
418,150,91297,1,0,0:0:0:0:
417,161,91382,1,0,0:0:0:0:
416,173,91468,1,0,0:0:0:0:
415,185,91554,1,0,0:0:0:0:
414,196,91639,2,0,L|426:284,1,80
270,342,91982,6,0,P|255:280|287:232,1,120
215,196,92325,2,0,P|260:213|292:250,1,80
85,350,92668,6,0,P|108:290|162:269,1,120
123,198,93011,2,0,P|150:237|155:286,1,80
54,143,93354,6,0,L|38:89,7,40
98,37,94039,5,0,0:0:0:0:
137,45,94125,1,0,0:0:0:0:
176,53,94211,1,0,0:0:0:0:
215,61,94297,1,0,0:0:0:0:
253,69,94382,2,0,L|358:61,1,80
293,226,94725,6,0,B|291:322|291:322|333:317,1,120
246,334,95068,2,0,L|168:354,1,80
78,258,95411,5,0,0:0:0:0:
78,258,95497,1,0,0:0:0:0:
78,258,95582,1,0,0:0:0:0:
78,258,95668,1,0,0:0:0:0:
78,258,95754,2,0,P|137:269|180:268,1,80
36,135,96097,6,0,P|94:152|148:94,1,120
149,76,96439,1,0,0:0:0:0:
160,74,96525,1,0,0:0:0:0:
171,72,96611,1,0,0:0:0:0:
182,70,96697,1,0,0:0:0:0:
193,68,96782,1,0,0:0:0:0:
204,66,96868,1,0,0:0:0:0:
215,64,96954,1,0,0:0:0:0:
226,62,97039,1,0,0:0:0:0:
237,60,97125,2,0,P|273:98|277:137,1,80
468,38,97468,6,0,L|474:96,4,40
460,214,97982,6,0,L|445:260,4,40
276,335,98497,6,0,L|212:339,4,40
53,202,99011,6,0,L|29:158,1,40
53,96,99182,2,0,L|44:41,1,40
154,141,99354,2,0,L|91:152,1,40
138,40,99525,5,0,0:0:0:0:
258,78,99697,1,0,0:0:0:0:
462,24,99868,2,0,L|436:66,3,40
412,125,100211,6,0,L|480:156,1,60
494,223,100554,6,0,L|477:357,1,120.000004577637
312,364,100897,6,0,L|235:371,3,60.0000022888184
206,342,101239,2,0,L|69:354,1,120.000004577637
31,206,101582,1,0,0:0:0:0:
110,69,101754,6,0,P|137:61|181:69,1,60.0000022888184
243,148,101925,2,0,P|216:156|172:148,3,60.0000022888184
311,29,102268,2,0,P|319:56|311:100,3,60.0000022888184
319,194,102611,2,0,P|344:131|419:114,1,120.000004577637
483,319,102954,6,0,P|416:339|289:306,1,180.000006866455
199,320,103297,2,0,P|255:300|311:320,1,120.000004577637
25,320,103639,6,0,P|92:340|219:307,1,180.000006866455
309,319,103982,2,0,P|253:299|197:319,1,120.000004577637
42,160,104325,6,0,L|30:85,7,60.0000022888184
80,40,105011,1,0,0:0:0:0:
133,66,105097,1,0,0:0:0:0:
191,77,105182,1,0,0:0:0:0:
251,78,105268,1,0,0:0:0:0:
310,68,105354,2,0,P|380:72|442:100,1,120.000004577637
408,284,105697,6,0,P|390:217|484:185,1,180.000006866455
408,284,106039,2,0,P|343:308|284:297,1,120.000004577637
128,343,106382,6,0,L|56:332,3,60.0000022888184
31,294,106725,2,0,P|26:236|81:172,1,120.000004577637
24,81,107068,1,0,0:0:0:0:
277,30,107325,5,0,0:0:0:0:
255,47,107411,2,0,L|270:114,3,60.0000022888184
296,199,107754,6,0,L|311:266,3,60.0000022888184
318,182,108097,1,0,0:0:0:0:
172,220,108268,1,0,0:0:0:0:
413,344,108439,5,0,0:0:0:0:
413,344,108525,1,0,0:0:0:0:
413,344,108611,1,0,0:0:0:0:
413,344,108697,1,0,0:0:0:0:
413,344,108782,1,0,0:0:0:0:
390,223,108954,5,0,0:0:0:0:
390,223,109039,1,0,0:0:0:0:
390,223,109125,1,0,0:0:0:0:
390,223,109211,1,0,0:0:0:0:
390,223,109297,1,0,0:0:0:0:
367,102,109468,5,0,0:0:0:0:
367,102,109554,1,0,0:0:0:0:
367,102,109639,1,0,0:0:0:0:
367,102,109725,1,0,0:0:0:0:
367,102,109811,1,0,0:0:0:0:
228,261,109982,6,0,P|265:274|280:275,1,40
223,113,110154,6,0,P|181:129|162:167,1,60.0000022888184
337,290,110325,6,0,P|323:228|305:211,1,80
74,102,110497,5,0,0:0:0:0:
101,233,110668,1,0,0:0:0:0:
132,370,110839,1,0,0:0:0:0:
103,361,111182,6,0,L|197:347,3,80
42,243,111868,1,0,0:0:0:0:
193,273,112039,2,0,P|143:258|124:212,1,80
90,68,112382,5,0,0:0:0:0:
193,273,112725,5,0,0:0:0:0:
271,300,112897,2,0,P|287:341|282:380,1,80
193,273,113239,2,0,P|189:233|205:196,1,80
195,34,113582,5,0,0:0:0:0:
271,300,113925,6,0,P|286:336|283:376,3,80
381,261,114611,2,0,L|357:351,2,80
314,95,115125,5,0,0:0:0:0:
381,261,115468,6,0,L|398:351,2,80
494,312,115982,2,0,P|478:254|485:213,1,80
423,48,116325,5,0,0:0:0:0:
200,318,116668,6,0,P|99:350|170:236,1,320
320,148,117697,5,0,0:0:0:0:
184,87,117868,1,0,0:0:0:0:
312,318,118039,6,0,P|413:350|342:236,1,320
357,309,118897,6,0,P|388:300|351:282,1,80
155,309,119411,6,0,P|124:300|161:282,3,80
235,175,120097,6,0,P|252:147|259:188,3,80
256,328,120782,5,0,0:0:0:0:
56,56,121039,1,0,0:0:0:0:
456,56,121297,2,0,P|464:83|463:112,1,40
256,328,121639,6,0,B|231:284|243:246|267:221|267:221|237:146|237:146|237:98|276:60,1,256
256,192,122068,12,0,124897,0:0:0:0:
