osu file format v14

[General]
AudioFilename: audio.mp3
AudioLeadIn: 0
PreviewTime: 41083
Countdown: 1
SampleSet: Normal
StackLeniency: 0.7
Mode: 0
LetterboxInBreaks: 0
WidescreenStoryboard: 1

[Editor]
Bookmarks: 4112,5436,9142,14965,26083,33495,38877,42759,48406,59083,60406,70377,110965
DistanceSpacing: 0.8
BeatDivisor: 4
GridSize: 4
TimelineZoom: 2.999999

[Metadata]
Title:Cherry Blossom
TitleUnicode:Cherry Blossom
Artist:Memme
ArtistUnicode:Memme
Creator:Kui
Version:Test map
Source:Music & Beat (O2Jam)
Tags:
BeatmapID:1004483
BeatmapSetID:469745

[Difficulty]
HPDrainRate:5
CircleSize:4
OverallDifficulty:8
ApproachRate:9.3
SliderMultiplier:2.09999990463257
SliderTickRate:1

[Events]
//Background and Video events
0,0,"Cherry Blossom.jpg",0,0
//Break Periods
2,97401,102647
//Storyboard Layer 0 (Background)
//Storyboard Layer 1 (Fail)
//Storyboard Layer 2 (Pass)
//Storyboard Layer 3 (Foreground)
//Storyboard Sound Samples

[TimingPoints]
1554,352.941176470588,4,1,0,70,1,0
7201,-80,4,1,0,70,0,0
16377,-66.6666666666667,4,1,0,70,0,0
18142,-50,4,1,0,70,0,0
18318,-80,4,1,0,70,0,0
29789,-100,4,1,0,70,0,0
39671,-66.6666666666667,4,1,0,70,0,0
41083,-100,4,1,0,70,0,0
48230,-100,4,1,0,5,0,0
48318,-100,4,1,0,70,0,0
50259,-66.6666666666667,4,1,0,70,0,0
50789,-100,4,1,0,70,0,0
51671,-80,4,1,0,70,0,0
52024,-66.6666666666667,4,1,0,70,0,0
52377,-55.5555555555556,4,2,0,75,0,1
52730,-44.4444444444445,4,2,0,75,0,1
52995,-50,4,2,0,75,0,1
53259,-54.054054054054,4,2,0,75,0,1
53436,-47.6190476190476,4,2,0,75,0,1
53789,-45.4545454545455,4,2,0,75,0,1
54142,-55.5555555555556,4,2,0,75,0,1
54848,-45.4545454545455,4,2,0,75,0,1
55201,-50,4,2,0,75,0,1
56259,-55.5555555555556,4,2,0,75,0,1
57848,-76.9230769230769,4,2,0,75,0,1
58024,-80,4,1,0,70,0,0
60848,-80,4,1,0,70,0,0
63318,-133.333333333333,4,1,0,70,0,0
63671,-100,4,1,0,70,0,0
68436,-80,4,1,0,70,0,0
74436,-50,4,1,0,70,0,0
74965,-60.6060606060606,4,2,0,75,0,1
75318,-66.6666666666667,4,2,0,75,0,1
77436,-54.054054054054,4,2,0,75,0,1
77789,-57.1428571428571,4,2,0,75,0,1
78406,-133.333333333333,4,2,0,75,0,1
79024,-66.6666666666667,4,2,0,75,0,1
79201,-133.333333333333,4,2,0,75,0,1
80259,-100,4,2,0,75,0,1
80612,-100,4,2,0,30,0,1
80701,-100,4,2,0,50,0,1
80789,-100,4,2,0,70,0,1
80965,-66.6666666666667,4,2,0,70,0,1
81671,-133.333333333333,4,2,0,70,0,1
82112,-66.6666666666667,4,2,0,70,0,1
82553,-50,4,2,0,70,0,1
83083,-58.8235294117647,4,2,0,70,0,1
83436,-66.6666666666667,4,2,0,70,0,1
83789,-133.333333333333,4,2,0,70,0,1
84495,-58.8235294117647,4,2,0,70,0,1
84759,-100,4,2,0,70,0,1
85377,-80,4,2,0,70,0,1
86259,-71.4285714285714,4,2,0,70,0,1
86612,-55.5555555555556,4,2,0,70,0,1
86877,-52.6315789473684,4,2,0,70,0,1
87142,-50,4,2,0,70,0,1
87318,-66.6666666666667,4,2,0,70,0,1
87671,-55.5555555555556,4,2,0,70,0,1
88024,-52.6315789473684,4,2,0,70,0,1
88377,-71.4285714285714,4,2,0,70,0,1
88377,-76.9230769230769,4,2,0,70,0,1
88730,-62.5,4,2,0,70,0,1
89083,-55.5555555555556,4,2,0,70,0,1
89701,-62.5,4,2,0,70,0,1
91730,-100,4,2,0,70,0,1
96495,-125,4,2,0,70,0,1
97553,-80,4,1,0,70,0,0
103201,-80,4,1,0,70,0,0
113083,-66.6666666666667,4,1,0,70,0,0
119965,-80,4,1,0,70,0,0
128612,-66.6666666666667,4,1,0,70,0,0
134259,-100,4,1,0,70,0,0

[HitObjects]
208,128,1554,5,0,0:0:0:0:
328,228,1730,1,0,0:0:0:0:
252,24,1906,1,0,0:0:0:0:
266,179,2082,1,0,0:0:0:0:
392,276,2259,1,0,0:0:0:0:
265,179,2436,6,0,L|213:179,1,52.4999976158143
165,259,2612,1,0,0:0:0:0:
45,159,2788,1,0,0:0:0:0:
252,24,2965,5,0,0:0:0:0:
412,128,3142,2,0,P|388:144|344:144,1,52.4999976158143
364,236,3318,1,0,0:0:0:0:
360,68,3495,1,0,0:0:0:0:
226,146,3671,1,0,0:0:0:0:
105,259,3848,6,0,P|114:284|132:304,1,52.4999976158143
192,312,4024,1,0,0:0:0:0:
244,276,4112,1,0,0:0:0:0:
268,216,4201,1,0,0:0:0:0:
264,152,4289,1,0,0:0:0:0:
320,128,4377,6,0,L|432:220,1,104.999995231629
388,37,4730,1,0,0:0:0:0:
244,208,4906,1,0,0:0:0:0:
401,194,5083,1,0,0:0:0:0:
320,128,5259,5,0,0:0:0:0:
268,104,5348,1,0,0:0:0:0:
233,64,5436,1,0,0:0:0:0:
172,64,5525,1,0,0:0:0:0:
139,24,5612,1,0,0:0:0:0:
80,32,5701,1,0,0:0:0:0:
80,84,5789,2,0,L|80:204,1,104.999995231629
128,256,6142,2,0,P|79:272|30:256,2,104.999995231629
232,200,6848,1,0,0:0:0:0:
276,284,7201,6,0,P|336:272|420:324,1,131.249994039536
328,364,7553,1,0,0:0:0:0:
232,200,7730,1,0,0:0:0:0:
127,248,7906,1,0,0:0:0:0:
272,56,8083,1,0,0:0:0:0:
272,56,8171,1,0,0:0:0:0:
272,56,8259,1,0,0:0:0:0:
456,132,8436,1,0,0:0:0:0:
356,252,8612,5,0,0:0:0:0:
312,188,8789,5,0,0:0:0:0:
280,252,8877,1,0,0:0:0:0:
248,316,8965,1,0,0:0:0:0:
324,316,9053,5,0,0:0:0:0:
236,188,9142,5,0,0:0:0:0:
204,252,9230,1,0,0:0:0:0:
172,316,9318,1,0,0:0:0:0:
164,192,9495,5,0,0:0:0:0:
320,52,9671,5,0,0:0:0:0:
216,24,9848,1,0,0:0:0:0:
377,143,10024,2,0,B|412:192|412:192|412:264,2,131.249994039536
320,52,10553,1,0,0:0:0:0:
328,224,10730,1,0,0:0:0:0:
472,148,10906,2,0,L|424:84,1,65.6249970197678
488,220,11083,2,0,L|488:324,1,65.6249970197678
340,316,11259,6,0,L|240:316,1,65.6249970197678
232,240,11436,2,0,B|212:240|212:240|184:228|184:228|132:228,1,65.6249970197678
44,192,11612,2,0,B|64:192|64:192|92:180|92:180|144:180,1,65.6249970197678
232,128,11789,2,0,B|212:128|212:128|184:116|184:116|132:116,1,65.6249970197678
44,68,11965,2,0,B|64:68|64:68|92:56|92:56|144:56,1,65.6249970197678
256,36,12142,5,0,0:0:0:0:
243,95,12230,1,0,0:0:0:0:
272,108,12318,1,0,0:0:0:0:
276,168,12406,1,0,0:0:0:0:
308,176,12495,1,0,0:0:0:0:
328,233,12583,1,0,0:0:0:0:
360,228,12671,1,0,0:0:0:0:
394,278,12759,1,0,0:0:0:0:
424,336,12848,6,0,P|376:276|292:228,1,131.249994039536
152,128,13112,1,0,0:0:0:0:
152,128,13201,2,0,P|212:104|160:38,1,131.249994039536
52,148,13465,1,0,0:0:0:0:
52,148,13553,2,0,P|64:184|100:216,1,65.6249970197678
208,336,13730,2,0,L|108:336,1,65.6249970197678
304,336,13906,2,0,L|404:336,1,65.6249970197678
460,148,14083,2,0,P|448:184|412:216,1,65.6249970197678
256,280,14259,6,0,L|256:148,1,131.249994039536
380,136,14524,1,0,0:0:0:0:
381,135,14612,2,0,P|358:113|328:98,1,65.6249970197678
132,136,14877,5,0,0:0:0:0:
131,135,14965,2,0,P|154:113|184:98,1,65.6249970197678
381,249,15142,2,0,P|358:271|328:286,1,65.6249970197678
92,164,15318,2,0,P|113:131|143:105,1,65.6249970197678
418,218,15495,2,0,P|397:251|367:277,1,65.6249970197678
184,97,15671,6,0,L|249:90,1,65.6249970197678
327,286,15848,1,0,0:0:0:0:
328,287,15936,2,0,L|262:293,1,65.6249970197678
96,168,16201,5,0,0:0:0:0:
96,168,16289,1,0,0:0:0:0:
96,168,16377,2,0,P|34:115|54:35,1,157.499998855591
294,303,16730,2,0,P|258:303|206:259,1,78.7499994277954
106,91,16906,2,0,P|124:59|188:36,1,78.7499994277954
432,80,17083,6,0,L|452:192,1,78.7499994277954
356,112,17259,2,0,L|342:189,1,78.7499994277954
252,80,17436,2,0,L|265:157,1,78.7499994277954
176,112,17612,2,0,L|162:189,1,78.7499994277954
64,304,17789,5,0,0:0:0:0:
136,334,17877,1,0,0:0:0:0:
211,312,17965,1,0,0:0:0:0:
286,335,18053,1,0,0:0:0:0:
357,302,18142,2,0,P|441:266|366:235,1,209.999990463257
396,276,18406,5,0,0:0:0:0:
396,276,18495,2,0,B|396:232|396:232|412:188|412:188|412:132,1,131.249994039536
476,72,18848,2,0,P|416:48|348:76,1,131.249994039536
124,144,19112,1,0,0:0:0:0:
124,144,19201,2,0,P|184:168|252:140,1,131.249994039536
92,48,19465,1,0,0:0:0:0:
92,48,19553,2,0,L|64:124,1,65.6249970197678
266,208,19730,2,0,L|244:147,1,65.6249970197678
188,92,19906,6,0,P|170:31|245:25,1,131.249994039536
472,144,20171,2,0,L|392:144,1,65.6249970197678
328,248,20436,5,0,0:0:0:0:
328,248,20524,1,0,0:0:0:0:
328,248,20612,2,0,L|416:248,1,65.6249970197678
272,312,20789,2,0,P|196:332|176:360,1,65.6249970197678
272,184,20965,2,0,P|196:164|176:136,1,65.6249970197678
80,248,21142,2,0,L|168:248,1,65.6249970197678
256,100,21318,6,0,P|332:120|360:172,1,131.249994039536
136,172,21671,2,0,B|76:196|76:196|13:172,1,131.249994039536
240,208,21936,1,0,0:0:0:0:
240,208,22024,2,0,L|112:260,1,131.249994039536
80,112,22289,1,0,0:0:0:0:
80,112,22377,2,0,L|208:60,1,131.249994039536
423,59,22730,5,0,0:0:0:0:
403,276,22906,2,0,P|368:259|321:257,1,65.6249970197678
215,162,23083,1,0,0:0:0:0:
108,275,23259,6,0,P|136:259|157:234,1,65.6249970197678
300,172,23436,2,0,P|332:152|358:113,1,65.6249970197678
215,162,23612,2,0,P|187:147|155:141,1,65.6249970197678
262,303,23789,1,0,0:0:0:0:
258,21,23965,1,0,0:0:0:0:
24,120,24142,6,0,P|17:190|64:241,1,131.249994039536
126,292,24495,2,0,L|87:166,1,131.249994039536
192,240,24759,1,0,0:0:0:0:
192,240,24848,2,0,B|217:318|217:318|184:383,1,131.249994039536
87,166,25112,1,0,0:0:0:0:
87,166,25201,2,0,L|172:140,1,65.6249970197678
244,236,25377,2,0,L|329:262,1,65.6249970197678
396,292,25553,6,0,P|397:228|356:172,1,131.249994039536
64,208,25818,1,0,0:0:0:0:
64,208,25906,2,0,L|128:180,1,65.6249970197678
296,56,26083,1,0,0:0:0:0:
296,56,26171,1,0,0:0:0:0:
296,56,26259,6,0,L|345:98,1,65.6249970197678
343,205,26436,2,0,P|367:227|384:256,1,65.6249970197678
127,256,26612,2,0,P|144:227|168:205,1,65.6249970197678
288,272,26789,2,0,L|222:273,1,65.6249970197678
232,128,26965,6,0,P|212:60|232:-8,1,131.249994039536
403,181,27230,1,0,0:0:0:0:
403,181,27318,2,0,B|367:189|367:189|331:213,1,65.6249970197678
120,112,27495,2,0,B|148:106|148:106|179:86,1,65.6249970197678
392,8,27671,1,0,0:0:0:0:
372,280,27848,6,0,L|398:260,4,32.8124985098839
208,156,28201,1,0,0:0:0:0:
96,252,28377,6,0,P|64:320|12:368,1,131.249994039536
60,172,28730,2,0,P|136:172|180:248,1,131.249994039536
60,172,29083,2,0,P|29:105|24:34,1,131.249994039536
208,156,29436,1,0,0:0:0:0:
128,88,29612,1,0,0:0:0:0:
392,72,29789,6,0,L|432:208,1,104.999995231629
444,272,30142,1,0,0:0:0:0:
444,272,30318,2,0,P|504:220|516:172,1,104.999995231629
336,144,30671,2,0,L|296:280,1,104.999995231629
224,160,31024,1,0,0:0:0:0:
100,296,31201,5,0,0:0:0:0:
35,186,31377,1,0,0:0:0:0:
44,196,31436,1,0,0:0:0:0:
48,208,31495,1,0,0:0:0:0:
52,220,31553,2,0,P|24:248|24:340,1,104.999995231629
156,248,31906,1,0,0:0:0:0:
308,196,32083,1,0,0:0:0:0:
192,352,32259,2,0,P|256:360|308:304,1,104.999995231629
232,168,32612,6,0,B|220:224|244:224|232:284,1,104.999995231629
232,92,32965,1,0,0:0:0:0:
408,92,33142,1,0,0:0:0:0:
316,92,33318,1,0,0:0:0:0:
504,205,33495,1,0,0:0:0:0:
512,216,33553,1,0,0:0:0:0:
499,219,33612,1,0,0:0:0:0:
488,212,33671,2,0,B|428:224|436:192|344:212,1,104.999995231629
176,152,34024,5,0,0:0:0:0:
464,136,34201,1,0,0:0:0:0:
404,284,34377,5,0,0:0:0:0:
96,139,34553,2,0,P|105:190|144:224,1,104.999995231629
0,32,35083,5,0,0:0:0:0:
216,64,35348,1,0,0:0:0:0:
228,68,35436,2,0,B|252:112|252:112|252:196,1,104.999995231629
176,152,35789,1,0,0:0:0:0:
328,75,35965,1,0,0:0:0:0:
328,75,36053,1,0,0:0:0:0:
328,75,36142,2,0,L|328:180,1,104.999995231629
328,336,36495,1,0,0:0:0:0:
80,256,36671,5,0,0:0:0:0:
56,208,36759,1,0,0:0:0:0:
60,156,36848,1,0,0:0:0:0:
148,100,37024,1,0,0:0:0:0:
188,132,37112,1,0,0:0:0:0:
240,148,37201,1,0,0:0:0:0:
292,136,37289,1,0,0:0:0:0:
336,108,37377,1,0,0:0:0:0:
388,100,37465,1,0,0:0:0:0:
436,116,37553,2,0,P|476:148|496:216,1,104.999995231629
244,60,37906,5,0,0:0:0:0:
376,188,38082,1,0,0:0:0:0:
147,178,38259,2,0,P|238:149|247:134,1,104.999995231629
404,20,38612,1,0,0:0:0:0:
404,248,38789,1,0,0:0:0:0:
428,192,38877,1,0,0:0:0:0:
488,192,38965,2,0,P|504:246|496:298,1,104.999995231629
302,257,39318,2,0,P|353:263|403:247,1,104.999995231629
376,96,39671,6,0,B|320:96|320:96|272:76|272:76|200:76,1,157.499998855591
424,28,40024,2,0,P|460:92|428:168,1,157.499998855591
196,288,40377,2,0,P|220:256|276:240,1,78.7499994277954
436,258,40553,2,0,P|396:253|354:212,1,78.7499994277954
173,12,40730,2,0,B|128:66|160:122|160:122|160:182,1,157.499998855591
194,383,41083,6,0,P|244:364|284:316,1,104.999995231629
196,288,41436,1,0,0:0:0:0:
308,152,41612,1,0,0:0:0:0:
279,108,41701,1,0,0:0:0:0:
235,79,41789,2,0,B|199:52|155:48|155:48|179:32,1,104.999995231629
160,136,42142,1,0,0:0:0:0:
328,40,42318,1,0,0:0:0:0:
344,232,42495,6,0,L|306:330,1,104.999995231629
232,376,42730,1,0,0:0:0:0:
232,376,42789,1,0,0:0:0:0:
232,376,42848,2,0,P|280:337|280:267,1,104.999995231629
268,136,43201,1,0,0:0:0:0:
140,216,43377,1,0,0:0:0:0:
289,298,43553,6,0,L|387:260,1,104.999995231629
204,176,43906,1,0,0:0:0:0:
500,188,44259,1,0,0:0:0:0:
408,168,44436,5,0,0:0:0:0:
408,168,44524,1,0,0:0:0:0:
408,168,44612,2,0,P|444:116|508:96,1,104.999995231629
493,93,44848,1,0,0:0:0:0:
499,81,44906,1,0,0:0:0:0:
502,68,44965,2,0,P|457:40|395:40,1,104.999995231629
377,58,45230,1,0,0:0:0:0:
339,84,45318,6,0,P|287:80|243:53,1,104.999995231629
180,0,45671,2,0,L|253:135,1,104.999995231629
341,267,46024,1,0,0:0:0:0:
341,267,46377,5,0,0:0:0:0:
80,264,46642,1,0,0:0:0:0:
80,264,46730,2,0,P|44:204|64:144,1,104.999995231629
16,338,47083,1,0,0:0:0:0:
144,184,47259,1,0,0:0:0:0:
144,184,47348,1,0,0:0:0:0:
144,184,47436,2,0,L|212:80,1,104.999995231629
288,32,47701,1,0,0:0:0:0:
288,32,47789,2,0,L|230:119,1,104.999995231629
230,119,48053,1,0,0:0:0:0:
229,119,48142,6,0,P|260:160|264:204,1,78.7499964237214
256,196,48318,1,0,0:0:0:0:
230,240,48406,1,0,0:0:0:0:
237,291,48494,1,0,0:0:0:0:
275,326,48582,1,0,0:0:0:0:
326,330,48670,1,0,0:0:0:0:
366,300,48759,1,0,0:0:0:0:
414,281,48847,1,0,0:0:0:0:
488,340,49201,5,0,0:0:0:0:
460,295,49289,1,0,0:0:0:0:
445,245,49377,1,0,0:0:0:0:
441,192,49465,1,0,0:0:0:0:
444,144,49553,5,0,0:0:0:0:
392,150,49642,1,0,0:0:0:0:
341,139,49730,1,0,0:0:0:0:
302,106,49818,1,0,0:0:0:0:
280,58,49906,5,0,0:0:0:0:
244,90,49995,1,0,0:0:0:0:
192,92,50083,1,0,0:0:0:0:
148,64,50171,1,0,0:0:0:0:
20,12,50259,6,0,L|64:116,1,78.7499994277954
236,344,50436,2,0,L|192:240,1,78.7499994277954
212,20,50612,1,0,0:0:0:0:
140,236,50789,6,0,L|120:300,1,52.4999976158143
256,192,50965,12,0,51583,0:0:0:0:
292,68,51671,5,0,0:0:0:0:
264,104,51759,1,0,0:0:0:0:
224,128,51848,1,0,0:0:0:0:
180,140,51936,1,0,0:0:0:0:
88,140,52024,2,0,B|144:128|144:128|236:156,1,78.7499994277954
404,228,52201,2,0,B|348:240|348:240|256:212,1,78.7499994277954
60,35,52377,6,0,B|-31:76|-14:181|-14:181|30:219|23:291,1,283.499978473664
88,140,52730,6,0,P|198:108|277:194,1,236.249998283386
268,384,52995,2,0,B|264:372|264:372|245:366|245:366|239:327|239:327|160:297|167:195,1,209.999990463257
366,165,53259,2,0,P|320:187|245:173,1,97.1249952187539
209,0,53436,6,0,B|253:54|325:43|325:43|426:23|452:149|376:171|353:173|346:160,1,330.749974885942
88,140,53789,6,0,B|116:172|160:178|160:178|150:185|150:185|193:191|193:191|180:204|180:204|213:206|234:227|234:227|267:293|349:283,1,346.499994838715
443,48,54142,6,0,P|382:23|319:40,1,94.4999928245547
355,358,54318,1,0,0:0:0:0:
355,358,54406,2,0,P|402:356|444:335,1,94.4999928245547
512,191,54583,1,0,0:0:0:0:
512,191,54671,2,0,B|479:186|479:186|452:197|452:197|401:191,1,94.4999928245547
85,192,54848,6,0,B|110:192|110:192|160:160|160:160|184:160|184:160|232:115|232:115|356:102|318:244|260:206|276:184,1,346.499994838715
90,48,55201,6,0,B|76:60|76:60|87:65|87:65|51:83|51:83|70:95|70:95|4:122|4:122|-47:205|32:293,1,314.999985694885
204,368,55553,5,0,0:0:0:0:
234,330,55641,1,0,0:0:0:0:
165,206,55730,5,0,0:0:0:0:
223,160,55818,1,0,0:0:0:0:
363,142,55906,6,0,B|389:139|389:139|347:206,1,104.999995231629
165,206,56083,2,0,B|122:139|122:139|148:142,1,104.999995231629
462,75,56259,6,0,B|494:137|461:194|461:194|407:281|468:341|579:291|450:232,1,283.499978473664
462,75,56612,5,0,0:0:0:0:
404,25,56700,1,0,0:0:0:0:
332,5,56788,1,0,0:0:0:0:
258,16,56876,1,0,0:0:0:0:
230,176,56965,5,0,0:0:0:0:
276,216,57053,1,0,0:0:0:0:
334,232,57141,1,0,0:0:0:0:
393,223,57229,1,0,0:0:0:0:
414,95,57318,5,0,0:0:0:0:
377,63,57406,1,0,0:0:0:0:
330,50,57494,1,0,0:0:0:0:
283,57,57582,1,0,0:0:0:0:
286,158,57671,5,0,0:0:0:0:
315,183,57759,1,0,0:0:0:0:
353,194,57848,2,0,P|352:159|314:114,1,68.2499937763218
44,176,58024,5,0,0:0:0:0:
69,221,58112,1,0,0:0:0:0:
110,253,58200,1,0,0:0:0:0:
160,268,58288,1,0,0:0:0:0:
212,263,58376,1,0,0:0:0:0:
258,239,58465,1,0,0:0:0:0:
292,199,58553,1,0,0:0:0:0:
363,97,58641,5,0,0:0:0:0:
397,136,58730,1,0,0:0:0:0:
413,186,58817,1,0,0:0:0:0:
407,238,58905,1,0,0:0:0:0:
380,282,58994,1,0,0:0:0:0:
338,313,59082,1,0,0:0:0:0:
287,323,59170,1,0,0:0:0:0:
236,311,59259,2,0,P|200:288|192:268,1,65.6249970197678
275,72,59436,6,0,P|312:96|320:116,1,65.6249970197678
304,164,59612,1,0,0:0:0:0:
332,208,59701,1,0,0:0:0:0:
382,220,59789,1,0,0:0:0:0:
429,197,59877,1,0,0:0:0:0:
453,150,59965,1,0,0:0:0:0:
437,99,60053,1,0,0:0:0:0:
408,72,60142,1,0,0:0:0:0:
400,32,60230,1,0,0:0:0:0:
364,48,60318,1,0,0:0:0:0:
345,11,60406,1,0,0:0:0:0:
316,40,60495,1,0,0:0:0:0:
288,9,60583,1,0,0:0:0:0:
264,40,60671,1,0,0:0:0:0:
228,17,60759,1,0,0:0:0:0:
92,232,60848,6,0,P|112:256|164:284,1,65.6249970197678
420,216,61024,2,0,P|400:192|348:164,1,65.6249970197678
144,176,61201,6,0,P|149:197|175:232,1,65.6249970197678
363,265,61377,2,0,P|357:243|331:208,1,65.6249970197678
184,172,61553,6,0,P|183:188|207:232,1,65.6249970197678
320,275,61729,2,0,P|320:258|298:215,1,65.6249970197678
251,224,61906,1,0,0:0:0:0:
464,82,62083,5,0,0:0:0:0:
415,63,62171,1,0,0:0:0:0:
363,68,62259,1,0,0:0:0:0:
316,90,62347,1,0,0:0:0:0:
264,92,62435,1,0,0:0:0:0:
215,74,62524,1,0,0:0:0:0:
180,40,62612,2,0,P|141:16|129:-17,1,65.6249970197678
100,216,62789,6,0,L|53:169,1,65.6249970197678
51,274,62965,2,0,L|98:321,1,65.6249970197678
202,318,63142,2,0,L|156:272,1,65.6249970197678
145,146,63318,6,0,P|172:198|224:225,1,118.124999141693
230,142,63671,6,0,B|288:100|288:100|384:100,1,157.499992847443
336,56,64024,1,0,0:0:0:0:
484,152,64201,2,0,L|431:152,1,52.4999976158143
340,172,64377,2,0,L|472:172,1,104.999995231629
264,56,64730,2,0,L|132:56,1,104.999995231629
63,312,65083,6,0,L|63:200,1,104.999995231629
23,160,65348,2,0,L|23:232,1,52.4999976158143
159,56,65612,1,0,0:0:0:0:
159,56,65701,1,0,0:0:0:0:
159,56,65789,2,0,L|159:168,1,104.999995231629
261,264,66142,2,0,L|156:264,1,104.999995231629
424,272,66495,6,0,B|366:314|366:314|270:314,1,157.499992847443
312,280,66848,1,0,0:0:0:0:
368,60,67025,2,0,L|368:113,1,52.4999976158143
348,204,67201,2,0,L|348:71,1,104.999995231629
168,156,67554,2,0,L|300:156,1,104.999995231629
63,312,67906,6,0,L|63:200,1,104.999995231629
23,160,68171,2,0,L|23:232,1,52.4999976158143
120,64,68435,1,0,0:0:0:0:
152,72,68524,1,0,0:0:0:0:
176,88,68612,2,0,L|252:192,1,65.6249970197678
356,276,68789,1,0,0:0:0:0:
348,308,68878,1,0,0:0:0:0:
332,332,68965,2,0,P|264:344|240:284,1,131.249994039536
406,116,69318,6,0,B|334:116|334:116|282:140|282:140|186:140,1,196.874991059303
192,212,69671,2,0,P|136:138|192:66,1,196.874991059303
346,40,70024,2,0,L|412:40,1,65.6249970197678
412,192,70201,2,0,L|346:192,1,65.6249970197678
127,66,70377,2,0,L|192:66,1,65.6249970197678
192,218,70554,2,0,L|126:218,1,65.6249970197678
124,336,70730,6,0,B|40:284|40:284|40:144,1,196.874991059303
126,152,71083,1,0,0:0:0:0:
392,224,71259,2,0,L|324:224,1,65.6249970197678
256,256,71436,2,0,P|312:296|408:248,1,131.249994039536
492,104,71789,2,0,P|436:144|340:96,1,131.249994039536
141,170,72142,6,0,L|241:142,1,65.6249970197678
370,213,72318,2,0,L|270:241,1,65.6249970197678
134,134,72495,2,0,L|230:132,1,65.6249970197678
374,249,72671,2,0,L|284:251,1,65.6249970197678
128,82,72848,2,0,L|245:111,1,65.6249970197678
379,300,73024,2,0,L|270:272,1,65.6249970197678
137,19,73201,2,0,L|250:84,1,65.6249970197678
370,362,73377,2,0,L|257:303,1,65.6249970197678
16,144,73553,5,0,0:0:0:0:
152,192,73730,2,0,P|192:208|208:252,1,65.6249970197678
388,228,73995,1,0,0:0:0:0:
144,268,74171,1,0,0:0:0:0:
280,144,74259,2,0,L|260:64,1,65.6249970197678
420,204,74436,2,0,P|352:204|420:252,1,209.999990463257
16,144,74965,6,0,B|34:135|34:135|64:153|64:153|116:126|116:126|162:149|162:149|269:149,1,259.874990676642
297,27,75318,6,0,B|299:11|299:11|193:45,1,78.7499994277954
388,228,75495,1,0,0:0:0:0:
388,228,75583,2,0,B|386:212|386:212|492:246,1,78.7499994277954
420,73,75759,2,0,B|439:53|439:53|450:-13,1,78.7499994277954
277,282,75936,1,0,0:0:0:0:
277,282,76024,2,0,L|176:272,1,78.7499994277954
0,52,76201,2,0,L|101:42,1,78.7499994277954
329,133,76377,5,0,0:0:0:0:
329,133,76465,2,0,L|223:143,1,78.7499994277954
22,205,76642,2,0,L|128:215,1,78.7499994277954
393,306,76818,1,0,0:0:0:0:
393,306,76906,2,0,L|386:197,1,78.7499994277954
170,0,77083,2,0,L|177:109,1,78.7499994277954
197,357,77259,1,0,0:0:0:0:
170,0,77436,6,0,B|240:-6|270:70|270:70|252:115|252:115|252:254,1,291.374985656262
36,280,77789,2,0,B|46:352|121:383|197:357|197:357|143:340|142:290,1,275.62499011159
22,205,78142,1,0,0:0:0:0:
352,89,78318,5,0,0:0:0:0:
352,89,78406,2,0,L|348:161,1,39.3749997138977
276,271,78583,2,0,L|280:199,1,39.3749997138977
457,203,78759,1,0,0:0:0:0:
457,203,78847,2,0,L|453:275,1,39.3749997138977
404,344,79024,2,0,L|408:264,1,78.7499994277954
140,82,79201,5,0,0:0:0:0:
139,82,79289,2,0,L|84:78,1,39.3749997138977
285,54,79465,2,0,L|340:58,2,39.3749997138977
106,299,79730,5,0,0:0:0:0:
41,254,79818,1,0,0:0:0:0:
10,183,79906,1,0,0:0:0:0:
23,107,79995,1,0,0:0:0:0:
49,145,80083,1,0,0:0:0:0:
89,168,80171,1,0,0:0:0:0:
135,171,80259,2,0,P|207:145|293:183,1,157.499992847443
245,353,80612,6,0,L|204:344,6,26.2499988079071
291,116,80965,6,0,L|309:15,1,78.7499994277954
462,298,81142,1,0,0:0:0:0:
462,298,81230,2,0,L|444:197,1,78.7499994277954
435,4,81406,2,0,L|417:105,1,78.7499994277954
286,256,81583,5,0,0:0:0:0:
286,256,81671,2,0,L|211:261,1,39.3749997138977
150,271,81848,2,0,L|75:276,1,39.3749997138977
304,38,82024,5,0,0:0:0:0:
304,38,82112,2,0,L|291:116,1,78.7499994277954
124,351,82289,2,0,L|110:273,1,78.7499994277954
39,50,82465,5,0,0:0:0:0:
39,50,82553,2,0,P|95:35|183:108,1,104.999995231629
385,254,82730,2,0,P|329:269|241:196,1,104.999995231629
210,0,82906,1,0,0:0:0:0:
282,347,83083,6,0,B|392:375|449:300|449:300|408:227|305:266,1,267.749992947579
225,213,83436,2,0,B|215:216|215:216|195:208|195:208|161:220|161:220|124:201|124:201|60:227|-8:197,1,236.249998283386
79,297,83789,6,0,L|148:303,1,39.3749997138977
162,121,83965,1,0,0:0:0:0:
162,121,84053,2,0,L|122:117,1,39.3749997138977
282,347,84230,2,0,L|351:353,1,39.3749997138977
327,98,84406,1,0,0:0:0:0:
328,98,84495,2,0,P|313:55|349:-21,1,89.2499976491928
185,286,84671,2,0,P|200:329|164:405,1,89.2499976491928
162,121,84848,6,0,P|112:72|108:35,1,104.999995231629
350,263,85112,2,0,P|400:312|404:349,1,104.999995231629
328,98,85377,2,0,L|446:5,1,131.249994039536
185,286,85642,2,0,L|67:379,1,131.249994039536
256,192,85906,5,4,0:0:0:0:
256,192,86259,6,0,B|231:181|231:181|202:198|202:198|159:182|159:182|132:192|132:192|30:192,1,220.499983257294
272,287,86612,6,0,P|345:219|306:111,1,188.999985649109
454,11,86877,2,0,B|443:82|443:82|402:141|286:140,1,199.49998561287
162,77,87142,2,0,P|203:48|275:49,1,104.999995231629
448,342,87318,2,0,B|448:183|448:183|513:263,1,236.249998283386
337,350,87671,6,0,B|316:344|316:344|319:354|319:354|283:338|283:338|288:355|288:355|230:327|230:327|159:359|89:317,1,283.499978473664
0,148,88024,2,0,P|53:141|127:159,1,99.7499928064349
352,70,88201,1,0,0:0:0:0:
362,109,88289,1,0,0:0:0:0:
372,148,88377,2,0,P|327:127|273:148,1,68.2499937763218
155,235,88553,2,0,P|200:256|253:234,1,68.2499937763218
459,88,88730,6,0,B|454:154|508:198|508:198|470:202|470:202|439:220|439:220|358:228,1,251.999988555908
230,18,89083,6,0,B|235:45|224:77|224:77|235:75|235:75|219:110|219:110|235:104|235:104|217:162|217:162|239:215|215:260,1,283.499978473664
364,376,89436,5,0,0:0:0:0:
374,330,89524,1,0,0:0:0:0:
444,264,89612,1,0,0:0:0:0:
440,208,89701,2,0,P|378:156|238:213,1,167.999992370606
184,327,89965,2,0,P|242:329|287:302,1,83.9999961853028
152,99,90142,1,0,0:0:0:0:
364,376,90318,1,0,0:0:0:0:
421,30,90495,5,0,0:0:0:0:
145,226,90671,1,0,0:0:0:0:
102,215,90759,1,0,0:0:0:0:
68,189,90848,1,0,0:0:0:0:
197,0,91024,5,0,0:0:0:0:
184,327,91201,1,0,0:0:0:0:
223,254,91377,1,0,0:0:0:0:
262,181,91553,1,0,0:0:0:0:
282,144,91642,1,0,0:0:0:0:
302,108,91730,6,0,P|423:109|411:254,1,262.499988079071
223,254,92259,1,0,0:0:0:0:
0,0,92436,1,0,0:0:0:0:
334,235,92612,1,0,0:0:0:0:
202,41,92789,1,0,0:0:0:0:
202,41,92877,1,0,0:0:0:0:
202,41,92965,6,0,B|146:67|146:67|120:131|120:131|-2:214,1,262.499988079071
0,0,93495,5,0,0:0:0:0:
11,205,93671,1,0,0:0:0:0:
154,323,93848,1,0,0:0:0:0:
315,349,94024,1,0,0:0:0:0:
447,336,94201,1,0,0:0:0:0:
300,3,94377,6,0,L|286:44,6,26.2499988079071
222,252,94730,5,0,0:0:0:0:
367,113,94906,1,0,0:0:0:0:
142,28,95083,1,0,0:0:0:0:
447,336,95259,1,0,0:0:0:0:
426,2,95436,5,0,0:0:0:0:
158,185,95612,1,0,0:0:0:0:
447,336,95789,1,0,0:0:0:0:
266,55,95965,1,0,0:0:0:0:
266,81,96053,1,0,0:0:0:0:
267,107,96142,1,0,0:0:0:0:
426,2,96318,5,0,0:0:0:0:
326,216,96495,2,0,L|354:185,1,41.9999980926514
158,185,96671,2,0,L|185:216,1,41.9999980926514
186,26,96848,2,0,L|158:57,3,41.9999980926514
5,217,97201,1,0,0:0:0:0:
424,280,103201,5,0,0:0:0:0:
352,244,103378,1,0,0:0:0:0:
276,252,103553,2,0,P|196:264|172:327,1,131.249994039536
248,324,103906,1,0,0:0:0:0:
196,228,104083,2,0,L|92:188,1,65.6249970197678
48,160,104260,2,0,L|196:196,1,131.249994039536
384,280,104613,6,0,P|424:228|416:152,1,131.249994039536
440,200,104878,2,0,L|448:292,1,65.6249970197678
344,200,105142,1,0,0:0:0:0:
328,172,105230,1,0,0:0:0:0:
304,148,105318,6,0,B|216:88|216:88|208:120,1,131.249994039536
299,279,105583,1,0,0:0:0:0:
298,278,105671,2,0,B|292:303|292:303|204:243,1,131.249994039536
128,64,106024,6,0,P|196:20|268:36,1,131.249994039536
452,180,106377,1,0,0:0:0:0:
209,112,106553,1,0,0:0:0:0:
288,304,106730,6,0,P|220:348|148:332,1,131.249994039536
148,232,106995,2,0,L|208:260,1,65.6249970197678
380,340,107259,6,0,P|448:308|480:220,2,131.249994039536
320,208,107789,2,0,B|385:287|385:287|393:255,1,131.249994039536
408,176,108142,2,0,L|277:159,1,131.249994039536
352,144,108406,2,0,L|460:136,1,65.6249970197678
200,176,108671,5,0,0:0:0:0:
120,192,108848,2,0,B|176:280|176:280|184:240,1,131.249994039536
212,92,109201,1,0,0:0:0:0:
291,41,109377,2,0,P|309:100|275:160,2,131.249994039536
132,48,109818,2,0,L|75:14,1,65.6249970197678
0,128,110083,1,0,0:0:0:0:
0,288,110259,6,0,P|80:312|96:360,1,131.249994039536
95,350,110524,1,0,0:0:0:0:
95,350,110612,2,0,B|168:276|168:276|174:316,1,131.249994039536
120,252,110965,2,0,P|179:229|233:261,1,131.249994039536
232,344,111230,1,0,0:0:0:0:
232,344,111318,2,0,B|232:264|232:264|276:188,1,131.249994039536
400,84,111583,5,0,0:0:0:0:
400,84,111671,2,0,P|328:124|284:120,1,98.4374955296517
140,78,111848,1,0,0:0:0:0:
144,94,111906,1,0,0:0:0:0:
152,110,111965,1,0,0:0:0:0:
164,126,112024,2,0,L|260:222,1,131.249994039536
332,236,112377,6,0,P|304:163|222:156,1,131.249994039536
128,192,112642,1,0,0:0:0:0:
127,191,112730,2,0,L|34:98,1,131.249994039536
373,53,113083,5,0,0:0:0:0:
309,94,113259,1,0,0:0:0:0:
282,166,113435,1,0,0:0:0:0:
306,240,113612,1,0,0:0:0:0:
371,283,113789,2,0,P|368:192|236:220,1,236.249998283386
306,240,114142,2,0,P|256:164|180:180,1,157.499998855591
210,365,114495,6,0,L|319:222,1,157.499998855591
292,56,114848,1,0,0:0:0:0:
408,192,115024,1,0,0:0:0:0:
216,138,115201,2,0,B|88:146|88:146|112:114,1,157.499998855591
160,72,115465,1,0,0:0:0:0:
160,72,115553,2,0,L|168:240,1,157.499998855591
0,312,115906,6,0,P|72:290|90:217,1,157.499998855591
243,240,116171,1,0,0:0:0:0:
243,240,116259,2,0,L|395:336,1,157.499998855591
512,281,116524,1,0,0:0:0:0:
512,281,116612,2,0,L|418:223,1,78.7499994277954
326,87,116789,1,0,0:0:0:0:
338,115,116848,1,0,0:0:0:0:
335,145,116906,1,0,0:0:0:0:
318,171,116965,2,0,P|168:148|136:174,1,157.499998855591
110,306,117318,6,0,B|188:276|188:276|249:194,1,157.499998855591
129,214,117671,1,0,0:0:0:0:
336,213,117848,1,0,0:0:0:0:
163,159,118024,6,0,P|232:126|300:160,1,157.499998855591
232,216,118289,1,0,0:0:0:0:
232,216,118377,2,0,L|231:51,1,157.499998855591
192,248,118730,5,0,0:0:0:0:
316,229,118906,1,0,0:0:0:0:
361,109,119083,1,0,0:0:0:0:
268,24,119259,1,0,0:0:0:0:
117,74,119436,5,0,0:0:0:0:
141,119,119524,1,0,0:0:0:0:
183,151,119612,1,0,0:0:0:0:
234,161,119700,1,0,0:0:0:0:
258,207,119788,1,0,0:0:0:0:
259,259,119877,1,0,0:0:0:0:
239,307,119965,2,0,P|202:322|150:313,1,65.6249970197678
74,200,120142,6,0,B|140:204|140:204|199:255,1,131.249994039536
373,253,120495,2,0,B|307:249|307:249|248:198,1,131.249994039536
339,177,120759,1,0,0:0:0:0:
339,177,120848,2,0,L|181:167,1,131.249994039536
108,276,121112,1,0,0:0:0:0:
108,276,121201,2,0,L|266:286,1,131.249994039536
448,296,121553,6,0,P|449:232|408:176,1,131.249994039536
118,57,121818,1,0,0:0:0:0:
118,57,121906,2,0,L|182:85,1,65.6249970197678
366,253,122083,1,0,0:0:0:0:
366,253,122171,1,0,0:0:0:0:
366,253,122259,6,0,L|317:211,1,65.6249970197678
126,96,122436,2,0,P|150:118|167:147,1,65.6249970197678
51,316,122612,2,0,P|27:294|10:265,1,65.6249970197678
94,173,122789,2,0,L|84:238,1,65.6249970197678
96,372,122965,6,0,L|172:248,1,131.249994039536
368,136,123318,2,0,B|324:136|324:136|284:120|284:120|216:120,1,131.249994039536
222,29,123583,1,0,0:0:0:0:
222,29,123671,2,0,P|165:58|148:120,1,131.249994039536
256,196,123936,1,0,0:0:0:0:
256,196,124024,2,0,L|124:196,1,131.249994039536
8,304,124377,6,0,L|160:304,1,131.249994039536
384,196,124642,2,0,L|336:268,1,65.6249970197678
352,48,124818,1,0,0:0:0:0:
240,168,124906,2,0,L|278:115,1,65.6249970197678
352,48,125083,2,0,L|286:40,1,65.6249970197678
192,16,125259,2,0,L|218:76,1,65.6249970197678
240,251,125436,2,0,P|181:228|164:168,1,131.249994039536
164,167,125789,6,0,B|88:228|88:228|140:232,1,131.249994039536
88,116,126142,2,0,L|193:35,1,131.249994039536
236,112,126406,1,0,0:0:0:0:
236,112,126495,2,0,L|365:82,1,131.249994039536
488,104,126759,1,0,0:0:0:0:
488,104,126848,2,0,L|383:183,1,131.249994039536
208,304,127201,5,0,0:0:0:0:
248,68,127377,2,0,P|220:108|168:116,1,65.6249970197678
168,40,127553,1,0,0:0:0:0:
208,304,127730,6,0,L|264:192,1,65.6249970197678
332,200,127906,2,0,L|311:262,1,65.6249970197678
94,303,128083,2,0,L|140:256,1,65.6249970197678
408,152,128259,2,0,L|415:217,1,65.6249970197678
64,224,128436,2,0,L|2:248,1,65.6249970197678
104,52,128612,6,0,L|128:200,1,78.7499994277954
208,76,128789,2,0,L|184:224,1,78.7499994277954
288,48,128965,2,0,L|312:196,1,78.7499994277954
392,72,129142,2,0,L|368:220,1,78.7499994277954
408,308,129318,5,0,0:0:0:0:
331,327,129406,1,0,0:0:0:0:
256,304,129494,1,0,0:0:0:0:
181,327,129582,1,0,0:0:0:0:
104,311,129670,1,0,0:0:0:0:
104,311,129848,1,0,0:0:0:0:
184,52,130024,6,0,P|283:56|292:156,1,157.499998855591
280,300,130377,2,0,L|136:195,1,157.499998855591
232,112,130730,2,0,L|412:112,1,157.499998855591
512,112,131083,1,0,0:0:0:0:
