osu file format v14

[General]
AudioFilename: audio.mp3
AudioLeadIn: 0
PreviewTime: 44931
Countdown: 0
SampleSet: Soft
StackLeniency: 0.4
Mode: 0
LetterboxInBreaks: 0
WidescreenStoryboard: 1

[Editor]
Bookmarks: 1389,78189,89160,98760,100131,111103,122074,124131,126874
DistanceSpacing: 1.5
BeatDivisor: 2
GridSize: 4
TimelineZoom: 1

[Metadata]
Title:Blessing Snow
TitleUnicode:Blessing Snow
Artist:Memme
ArtistUnicode:Memme
Creator:Syph
Version:Collab Normal
Source:HIGH5
Tags:parkmemme Akitoshi sahuang Komore Cheesecake Left [C_u_r_i] Cellina
BeatmapID:1456305
BeatmapSetID:688128

[Difficulty]
HPDrainRate:3
CircleSize:3
OverallDifficulty:4
ApproachRate:5.5
SliderMultiplier:1.1
SliderTickRate:1

[Events]
//Background and Video events
0,0,"asdadf.png",0,0
//Break Periods
2,56446,60531
//Storyboard Layer 0 (Background)
//Storyboard Layer 1 (Fail)
//Storyboard Layer 2 (Pass)
//Storyboard Layer 3 (Foreground)
//Storyboard Sound Samples

[TimingPoints]
1389,342.857142857143,4,2,0,55,1,0
5503,-100,4,2,0,65,0,0
6874,-100,4,2,0,55,0,0
9103,-100,4,2,0,60,0,0
9617,-100,4,2,0,65,0,0
16646,-100,4,2,0,50,0,0
17846,-100,4,2,0,60,0,0
18103,-100,4,2,0,5,0,0
18189,-100,4,2,0,65,0,0
20589,-100,4,2,0,60,0,0
20846,-100,4,2,0,5,0,0
20931,-100,4,2,0,65,0,0
25731,-100,4,2,0,70,0,0
26074,-100,4,2,0,65,0,0
28817,-100,4,2,0,55,0,0
34303,-100,4,2,0,60,0,0
38417,-100,4,2,0,67,0,0
39789,-100,4,2,0,60,0,0
43903,-100,4,2,0,75,0,0
44931,-100,4,2,0,60,0,0
45189,-100,4,2,0,5,0,0
45274,-100,4,2,0,65,0,0
61560,-100,4,2,0,55,0,0
61731,-100,4,2,0,65,0,0
64474,-100,4,2,0,75,0,0
64731,-100,4,2,0,5,0,0
64817,-100,4,2,0,70,0,0
65160,-100,4,2,0,75,0,0
65417,-100,4,2,0,5,0,0
65503,-100,4,2,0,65,0,0
65846,-100,4,2,0,75,0,0
66103,-100,4,2,0,5,0,0
66189,-100,4,2,0,65,0,0
66446,-100,4,2,0,5,0,0
66531,-100,4,2,0,60,0,0
66789,-100,4,2,0,5,0,0
66874,-100,4,2,0,65,0,0
67131,-100,4,2,0,5,0,0
67217,-100,4,2,0,65,0,0
67474,-100,4,2,0,5,0,0
67560,-100,4,2,0,75,0,0
67731,-100,4,2,0,70,0,0
69274,-100,4,2,0,80,0,0
69531,-100,4,2,0,5,0,0
69617,-100,4,2,0,75,0,0
69874,-100,4,2,0,5,0,0
69960,-100,4,2,0,65,0,0
70217,-100,4,2,0,5,0,0
70303,-100,4,2,0,75,0,0
71331,-100,4,2,0,65,0,0
72360,-100,4,2,0,70,0,0
72617,-100,4,2,0,5,0,0
72703,-100,4,2,0,65,0,0
72960,-100,4,2,0,5,0,0
73046,-100,4,2,0,75,0,0
73217,-100,4,2,0,70,0,0
74760,-100,4,2,0,65,0,0
75360,-100,4,2,0,5,0,0
75446,-100,4,2,0,75,0,0
75789,-100,4,2,0,65,0,0
76817,-100,4,2,0,75,0,0
77074,-100,4,2,0,5,0,0
77160,-100,4,2,0,70,0,0
77417,-100,4,2,0,5,0,0
77503,-100,4,2,0,60,0,0
77846,-100,4,2,0,75,0,0
78103,-100,4,2,0,5,0,0
78189,-100,4,2,0,65,0,0
78446,-100,4,2,0,5,0,0
78531,-100,4,2,0,75,0,0
78703,-100,4,2,0,70,0,0
80246,-100,4,2,0,80,0,0
80503,-100,4,2,0,5,0,0
80589,-100,4,2,0,75,0,0
80846,-100,4,2,0,5,0,0
80931,-100,4,2,0,65,0,0
81189,-100,4,2,0,5,0,0
81274,-100,4,2,0,80,0,0
81960,-100,4,2,0,75,0,0
82303,-100,4,2,0,70,0,0
83331,-100,4,2,0,60,0,0
83674,-100,4,2,0,65,0,0
83931,-100,4,2,0,5,0,0
84017,-100,4,2,0,75,0,0
84189,-100,4,2,0,70,0,0
85731,-100,4,2,0,80,0,0
85989,-100,4,2,0,5,0,0
86074,-100,4,2,0,75,0,0
86331,-100,4,2,0,5,0,0
86417,-100,4,2,0,70,0,0
88474,-100,4,2,0,60,0,0
88817,-100,4,2,0,75,0,0
89074,-100,4,2,0,5,0,0
89160,-100,4,2,0,60,0,0
94303,-100,4,2,0,65,0,0
94646,-100,4,2,0,60,0,0
98760,-100,4,2,0,70,0,0
99446,-100,4,2,0,80,0,0
99703,-100,4,2,0,5,0,0
99789,-100,4,2,0,65,0,0
100046,-100,4,2,0,5,0,0
100131,-100,4,2,0,65,0,0
111103,-100,4,2,0,60,0,0

[Colours]
Combo1 : 176,194,255
Combo2 : 255,210,166
Combo3 : 255,164,182
Combo4 : 219,167,254

[HitObjects]
117,119,1389,6,0,P|164:102|227:122,3,110,6|2|2|2,1:2|0:0|0:0|0:0,0:0:0:0:
344,226,2760,2,0,P|391:243|454:223,3,110,6|2|2|2,1:2|0:0|0:0|0:0,0:0:0:0:
497,70,4131,6,0,P|450:53|387:73,3,110,6|2|2|6,1:2|0:0|0:0|3:0,0:0:0:0:
245,142,5503,2,0,B|232:196|232:196|246:257,1,110,6|2,1:2|0:0,0:0:0:0:
321,278,6017,2,0,P|335:311|322:383,2,110,4|4|8,1:3|1:3|3:0,1:3:0:0:
244,249,6874,6,0,P|191:262|139:247,3,110,6|2|2|2,1:2|0:0|0:0|0:0,0:0:0:0:
104,85,8246,2,0,P|51:71|0:86,3,110,6|2|2|2,1:2|0:0|0:0|0:0,0:0:0:0:
3,251,9617,6,0,B|59:263|59:263|116:250,1,110,6|2,1:2|0:0,0:0:0:0:
171,195,10131,2,0,B|227:183|227:183|284:196,1,110,6|2,1:2|0:0,0:0:0:0:
339,251,10646,2,0,B|395:263|395:263|452:250,1,110,6|2,1:2|0:0,0:0:0:0:
486,178,11160,2,0,B|498:122|498:122|485:65,1,110,6|2,1:2|0:0,0:0:0:0:
429,9,11674,2,0,B|373:-3|373:-3|316:10,1,110,6|2,1:2|0:3,0:0:0:0:
251,53,12189,5,6,1:2:0:0:
196,294,12703,2,0,P|145:306|85:287,2,110,0|4|4,1:0|3:0|3:0,0:0:0:0:
337,209,13731,2,0,P|388:197|448:216,2,110,4|8|4,3:0|3:0|3:0,0:0:0:0:
195,294,14760,1,2,1:2:0:0:
143,229,14931,6,0,B|126:178|126:178|143:109,1,110,6|0,1:2|0:0,0:0:0:0:
202,69,15446,2,0,P|255:56|311:70,2,110,4|8|6,3:0|3:0|3:0,0:0:0:0:
59,151,16474,1,6,1:2:0:0:
399,260,17846,5,12,3:0:0:0:
399,260,18189,2,0,B|414:208|414:208|395:134,2,110,6|2|2,1:2|0:0|1:2,0:0:0:0:
279,372,19217,2,0,B|226:383|226:383|163:373,1,110,2|2,1:2|1:2,0:0:0:0:
93,226,19903,2,0,B|82:173|82:173|92:110,1,110,4|2,3:0|1:2,0:0:0:0:
235,38,20589,5,12,3:0:0:0:
226,203,20931,2,0,L|298:198,1,55,6|2,1:2|0:0,0:0:0:0:
354,162,21274,2,0,B|372:110|372:110|355:47,1,110,2|2,0:0|1:2,0:0:0:0:
196,20,21960,2,0,B|142:8|142:8|81:19,2,110,2|2|2,1:2|1:2|1:2,0:0:0:0:
228,184,22989,1,6,1:2:0:0:
326,314,23331,6,0,B|375:327|375:327|447:313,1,110,6|2,1:2|1:2,0:0:0:0:
509,168,24017,2,0,B|460:155|460:155|388:169,1,110,6|2,1:2|1:2,0:0:0:0:
332,212,24531,1,2,0:0:0:0:
332,212,24703,2,0,P|316:169|338:108,1,110,6|2,1:2|1:2,0:0:0:0:
483,34,25389,2,0,L|477:96,1,55,6|0,1:2|0:0,0:0:0:0:
440,162,25731,2,0,L|434:224,1,55,2|2,1:2|0:0,0:0:0:0:
394,288,26074,6,0,P|365:299|284:279,1,110,6|2,1:2|1:2,0:0:0:0:
139,214,26760,1,4,3:0:0:0:
208,64,27103,1,2,1:2:0:0:
296,204,27446,2,0,P|291:232|298:274,2,55,6|2|2,1:2|0:0|1:2,0:0:0:0:
348,140,27960,1,2,0:0:0:0:
348,140,28131,1,6,1:2:0:0:
466,254,28474,1,2,0:0:0:0:
348,371,28817,6,0,P|291:381|230:364,3,110,6|2|4|2,1:2|1:2|3:0|1:2,0:0:0:0:
125,250,30189,2,0,P|115:193|132:132,3,110,4|2|4|2,3:0|1:2|3:0|1:2,0:0:0:0:
183,82,31389,1,2,0:0:0:0:
183,82,31560,6,0,P|240:72|301:89,3,110,4|2|4|2,3:0|1:2|3:0|1:2,0:0:0:0:
405,201,32931,1,2,1:2:0:0:
104,340,34303,6,0,L|112:270,3,55,6|0|2|0,1:2|0:0|0:0|0:0,0:0:0:0:
124,203,34989,1,6,1:2:0:0:
425,64,35674,2,0,L|355:72,3,55,6|0|6|0,1:2|0:0|3:0|0:0,0:0:0:0:
288,84,36360,1,6,1:2:0:0:
167,196,36703,1,2,0:0:0:0:
46,84,37046,6,0,L|116:92,3,55,6|0|2|0,1:2|0:0|0:0|0:0,0:0:0:0:
183,104,37732,1,6,1:2:0:0:
280,236,38074,1,2,0:0:0:0:
377,104,38417,2,0,P|410:100|435:104,1,55,6|2,1:2|0:0,0:0:0:0:
489,162,38760,2,0,P|493:195|489:220,1,55,6|2,1:2|0:0,0:0:0:0:
434,277,39103,1,6,1:2:0:0:
280,216,39446,1,2,1:2:0:0:
126,277,39789,6,0,L|119:212,3,55,6|0|2|0,1:2|0:0|0:0|0:0,0:0:0:0:
109,140,40474,1,6,1:2:0:0:
376,336,41160,2,0,L|369:271,3,55,6|0|6|0,1:2|0:0|3:0|0:0,0:0:0:0:
359,199,41845,1,6,1:2:0:0:
212,116,42189,1,2,0:0:0:0:
89,227,42531,6,0,L|81:292,3,55,6|0|2|0,1:2|0:0|0:0|0:0,0:0:0:0:
74,363,43217,1,2,1:2:0:0:
224,294,43560,1,2,0:0:0:0:
374,363,43903,2,0,P|407:368|432:364,1,55,6|0,1:2|3:0,0:0:0:0:
484,304,44246,2,0,P|489:271|485:246,1,55,6|2,1:2|3:2,0:0:0:0:
447,176,44589,1,6,1:2:0:0:
296,109,44931,1,12,3:0:0:0:
145,176,45274,6,0,P|116:179|89:175,1,55,6|2,1:2|0:0,0:0:0:0:
36,112,45617,1,2,1:2:0:0:
169,15,45960,2,0,P|198:12|225:16,1,55,2|2,1:2|0:0,0:0:0:0:
278,79,46303,1,2,1:2:0:0:
383,205,46646,2,0,P|386:239|378:265,1,55,6|2,1:2|0:0,0:0:0:0:
316,311,46989,2,0,P|362:299|428:313,2,110,2|2|2,1:2|1:2|1:2,0:0:0:0:
160,254,48017,6,0,P|153:227|160:190,1,55,6|2,1:2|0:0,0:0:0:0:
187,123,48360,2,0,P|214:116|251:123,1,55,2|2,1:2|0:0,0:0:0:0:
304,172,48703,2,0,P|331:179|368:172,1,55,2|2,1:2|0:0,0:0:0:0:
438,158,49046,2,0,P|445:185|438:222,1,55,2|2,1:2|0:0,0:0:0:0:
396,280,49389,2,0,B|393:308|393:308|397:343,3,55,2|2|2|2,1:2|0:0|3:0|0:0,0:0:0:0:
464,380,50074,1,6,1:2:0:0:
511,221,50417,1,6,1:2:0:0:
479,58,50760,6,0,P|450:55|423:59,1,55,6|2,1:2|0:0,0:0:0:0:
377,126,51103,1,2,1:2:0:0:
270,252,51446,2,0,P|241:255|214:251,1,55,2|2,1:2|0:0,0:0:0:0:
161,188,51789,1,2,1:2:0:0:
39,77,52132,2,0,P|36:43|44:17,2,55,6|2|2,1:2|0:0|1:2,0:0:0:0:
117,106,52646,1,2,0:0:0:0:
117,106,52817,2,0,P|163:119|236:103,1,110,2|2,1:2|1:2,0:0:0:0:
367,190,53503,6,0,P|374:163|367:126,1,55,6|8,1:2|3:0,0:0:0:0:
340,59,53846,2,0,P|313:52|276:59,1,55,4|8,3:0|3:0,0:0:0:0:
223,108,54189,2,0,P|196:115|159:108,1,55,6|10,1:2|3:3,0:0:0:0:
89,94,54532,2,0,P|82:121|89:158,1,55,6|2,1:2|0:0,0:0:0:0:
131,216,54875,2,0,B|134:244|134:244|130:279,3,55,6|2|4|8,1:2|0:0|3:0|3:0,0:0:0:0:
62,316,55560,1,6,1:2:0:0:
6,160,55903,1,6,0:0:0:0:
101,25,56246,5,12,1:3:0:0:
273,244,61731,6,0,P|329:253|383:244,3,110,6|4|8|4,1:2|1:3|3:0|1:3,0:0:0:0:
493,122,63103,2,0,L|497:60,3,55,12|8|4|8,3:0|3:0|3:0|3:0,0:0:0:0:
434,12,63789,2,0,P|383:-1|317:14,1,110,4|12,3:0|1:3,0:0:0:0:
239,149,64474,6,0,B|188:159|188:159|125:147,1,110,6|2,1:2|1:2,0:0:0:0:
62,100,64989,1,0,0:0:0:0:
62,100,65160,2,0,P|48:135|69:205,1,110,6|2,1:2|1:2,0:0:0:0:
197,303,65846,2,0,P|232:317|302:296,1,110,6|4,1:2|3:0,0:0:0:0:
441,215,66531,1,6,1:2:0:0:
325,97,66874,1,12,1:3:0:0:
188,190,67217,6,0,B|135:201|135:201|73:186,1,110,12|6,3:0|1:2,0:0:0:0:
32,120,67731,1,2,3:0:0:0:
32,120,67903,2,0,P|26:86|33:57,1,55,4|2,3:0|3:0,0:0:0:0:
94,14,68246,2,0,P|128:8|157:15,1,55,2|2,1:0|1:0,0:0:0:0:
212,63,68589,2,0,P|252:73|325:60,1,110,4|6,3:0|1:3,0:0:0:0:
479,24,69274,2,0,B|486:52|486:52|482:87,1,55,6|0,1:2|0:0,0:0:0:0:
430,142,69617,2,0,B|423:170|423:170|427:205,1,55,6|0,1:2|0:0,0:0:0:0:
460,271,69960,5,12,1:3:0:0:
314,348,70303,2,0,P|261:360|198:344,2,110,6|12|12,1:2|3:0|1:3,0:0:0:0:
372,289,71160,1,2,3:0:0:0:
372,289,71331,2,0,P|373:248|367:213,3,55,6|2|2|2,1:2|3:2|1:2|3:2,0:0:0:0:
337,158,72017,1,6,1:2:0:0:
199,66,72360,1,12,1:3:0:0:
61,158,72703,6,0,P|49:201|61:269,1,110,12|6,3:0|1:2,0:0:0:0:
124,315,73217,1,2,3:0:0:0:
124,315,73389,2,0,P|158:318|182:315,1,55,4|2,1:3|3:0,0:0:0:0:
242,263,73731,2,0,P|276:260|300:263,1,55,2|2,1:0|0:1,0:0:0:0:
363,311,74074,2,0,P|397:314|421:311,1,55,4|2,1:3|0:1,0:0:0:0:
486,266,74417,1,2,1:3:0:0:
420,114,74760,2,0,P|383:102|311:120,1,110,14|12,1:3|3:0,0:0:0:0:
190,226,75446,5,6,1:2:0:0:
58,125,75789,2,0,P|56:87|66:60,1,55,6|2,1:2|3:2,0:0:0:0:
128,25,76131,2,0,P|166:23|193:33,1,55,6|2,1:2|3:2,0:0:0:0:
248,76,76474,2,0,P|250:114|240:141,1,55,2|2,1:2|3:2,0:0:0:0:
185,186,76817,2,0,B|172:240|172:240|185:298,2,110,6|4|2,1:2|1:3|1:2,0:0:0:0:
339,125,77846,1,12,1:3:0:0:
480,209,78189,5,12,3:0:0:0:
353,313,78531,2,0,L|298:306,1,55,6|0,1:2|3:0,0:0:0:0:
228,262,78874,2,0,L|173:269,1,55,6|2,1:3|3:0,0:0:0:0:
104,315,79217,1,2,1:0:0:0:
29,167,79560,2,0,P|30:139|34:112,1,55,12|2,1:3|0:1,0:0:0:0:
89,50,79903,1,2,1:0:0:0:
233,128,80246,2,0,B|291:138|291:138|348:117,1,110,6|4,1:2|1:3,0:0:0:0:
472,20,80931,6,0,B|497:61|497:61|483:121,1,110,12|2,1:3|1:3,0:0:0:0:
416,170,81446,1,2,3:0:0:0:
416,170,81617,2,0,L|428:223,1,55,2|2,1:3|3:0,0:0:0:0:
487,281,81960,2,0,L|475:334,1,55,2|2,1:0|3:2,0:0:0:0:
398,366,82303,2,0,P|356:332|304:342,1,110,6|0,1:2|0:0,0:0:0:0:
158,263,82989,2,0,B|146:226|146:226|160:156,1,110,2|2,1:2|0:0,0:0:0:0:
262,26,83674,5,12,1:3:0:0:
404,110,84017,2,0,L|413:164,1,55,6|2,1:2|3:0,0:0:0:0:
481,211,84360,2,0,L|472:265,1,55,4|2,1:3|3:0,0:0:0:0:
414,323,84703,1,2,1:0:0:0:
258,267,85046,2,0,L|203:275,2,55,12|2|12,1:3|0:1|1:3,0:0:0:0:
402,187,85731,2,0,B|418:132|418:132|394:84,1,110,6|12,1:2|1:3,0:0:0:0:
234,36,86417,6,0,B|135:49|196:96|94:110,1,165,6|2,1:2|0:0,0:0:0:0:
24,67,87103,2,0,L|31:12,2,55,6|2|2,1:2|0:0|3:2,0:0:0:0:
93,109,87617,2,0,P|116:158|98:209,1,110,6|2,1:2|1:2,0:0:0:0:
31,256,88131,1,2,1:2:0:0:
175,335,88474,2,0,L|229:327,1,55,6|2,1:2|3:0,0:0:0:0:
300,370,88817,1,12,3:0:0:0:
443,290,89160,6,0,P|456:237|444:184,1,110,2|2,1:2|0:0,0:0:0:0:
301,99,89846,2,0,P|288:152|300:205,1,110,6|2,1:2|0:0,0:0:0:0:
157,286,90531,2,0,L|102:277,1,55,6|0,1:2|0:0,0:0:0:0:
31,319,90874,1,4,3:0:0:0:
138,193,91217,2,0,B|152:165|152:165|134:88,1,110,6|0,1:2|0:0,0:0:0:0:
289,31,91903,6,0,L|398:46,1,110,6|2,1:2|0:0,0:0:0:0:
489,184,92589,2,0,L|483:238,1,55,6|2,1:2|0:0,0:0:0:0:
420,291,92931,2,0,L|429:345,1,55,2|2,0:0|0:0,0:0:0:0:
354,379,93274,2,0,P|306:352|252:358,2,110,6|2|4,1:2|1:2|1:3,0:0:0:0:
486,279,94303,1,12,1:3:0:0:
362,169,94646,6,0,L|254:190,1,110,6|2,1:2|0:0,0:0:0:0:
104,122,95331,2,0,B|80:173|80:173|92:225,1,110,6|2,1:2|0:0,0:0:0:0:
222,327,96017,2,0,L|275:316,1,55,6|2,1:2|0:0,0:0:0:0:
346,272,96360,2,0,L|399:284,1,55,6|0,1:2|0:0,0:0:0:0:
456,344,96703,2,0,P|481:296|469:243,1,110,6|0,1:2|0:0,0:0:0:0:
324,163,97389,6,0,L|215:182,1,110,6|2,1:2|0:0,0:0:0:0:
64,115,98074,2,0,P|39:163|52:216,1,110,2|2,1:2|0:0,0:0:0:0:
178,323,98760,2,0,L|232:315,1,55,12|2,1:3|0:0,0:0:0:0:
298,266,99103,2,0,P|325:272|352:279,1,55,2|2,3:0|3:0,0:0:0:0:
419,328,99446,2,0,B|442:295|442:295|428:226,1,110,14|12,1:3|3:0,0:0:0:0:
303,118,100131,6,0,L|311:63,2,55,2|2|2,1:2|0:0|1:2,0:0:0:0:
165,210,100817,2,0,L|110:200,1,55,2|2,1:2|0:0,0:0:0:0:
39,242,101160,1,2,1:2:0:0:
162,351,101503,2,0,L|216:342,1,55,6|2,1:2|0:0,0:0:0:0:
283,295,101846,2,0,L|337:306,1,55,2|2,1:2|0:0,0:0:0:0:
403,355,102189,1,2,1:2:0:0:
495,218,102531,1,2,1:2:0:0:
367,113,102874,6,0,L|312:121,1,55,6|0,1:2|0:0,0:0:0:0:
240,162,103217,2,0,L|185:156,1,55,2|2,1:2|0:0,0:0:0:0:
109,189,103560,2,0,P|101:216|102:243,1,55,2|2,1:2|0:2,0:0:0:0:
160,313,103903,1,2,1:2:0:0:
160,313,104074,1,2,0:0:0:0:
233,350,104246,2,0,P|260:346|287:343,1,55,2|2,1:2|0:0,0:0:0:0:
361,305,104589,2,0,L|414:315,1,55,2|2,3:0|0:0,0:0:0:0:
485,357,104931,1,6,1:2:0:0:
404,212,105274,1,6,1:2:0:0:
496,75,105617,6,0,L|441:64,1,55,6|2,1:2|0:0,0:0:0:0:
373,111,105960,1,2,1:2:0:0:
214,54,106303,2,0,L|208:0,2,55,2|2|2,1:2|0:0|1:2,0:0:0:0:
73,140,106989,2,0,P|64:166|67:193,1,55,6|2,1:2|0:0,0:0:0:0:
130,246,107331,2,0,L|184:238,1,55,2|0,1:2|0:0,0:0:0:0:
255,280,107674,1,2,1:2:0:0:
394,192,108017,1,2,1:2:0:0:
283,69,108360,6,0,L|228:76,1,55,6|8,1:2|3:0,0:0:0:0:
158,121,108703,2,0,L|103:113,1,55,2|8,1:2|3:0,0:0:0:0:
28,77,109046,2,0,P|20:104|21:131,1,55,6|10,1:2|3:3,0:0:0:0:
67,200,109389,2,0,L|59:254,1,55,6|2,1:2|0:0,0:0:0:0:
106,321,109731,2,0,P|133:314|160:315,1,55,6|0,1:2|0:0,0:0:0:0:
234,363,110074,1,6,1:2:0:0:
234,363,110246,1,4,3:0:0:0:
311,334,110417,1,6,1:2:0:0:
405,198,110760,1,12,1:3:0:0:
297,72,111103,6,0,L|188:87,2,110,6|2|2,0:0|1:2|1:2,0:0:0:0:
405,198,112131,1,2,1:2:0:0:
310,333,112474,2,0,P|261:312|206:317,1,110,2|2,1:2|1:2,0:0:0:0:
51,373,113160,1,2,1:2:0:0:
124,221,113503,2,0,L|134:274,1,55,2|2,1:2|0:0,0:0:0:0:
206,317,113846,6,0,L|260:309,1,55,2|0,1:2|0:0,0:0:0:0:
336,343,114189,2,0,L|390:338,1,55,2|2,1:2|0:0,0:0:0:0:
458,293,114531,2,0,P|461:265|454:239,1,55,2|0,1:2|0:0,0:0:0:0:
399,177,114874,2,0,L|407:122,1,55,0|2,1:2|0:0,0:0:0:0:
481,85,115217,1,2,1:2:0:0:
321,46,115560,1,2,1:2:0:0:
278,202,115903,1,2,1:2:0:0:
438,245,116246,1,6,1:2:0:0:
306,344,116589,6,0,P|257:320|202:325,2,110,6|2|6,1:2|1:2|1:2,0:0:0:0:
438,245,117617,1,2,1:2:0:0:
311,138,117960,2,0,L|201:149,2,110,6|2|6,1:2|1:2|1:2,0:0:0:0:
445,41,118989,2,0,L|435:95,1,55,2|0,1:2|0:0,0:0:0:0:
483,161,119331,6,0,P|492:187|493:215,1,55,4|2,1:2|0:0,0:0:0:0:
437,276,119674,2,0,L|382:266,1,55,2|2,1:2|0:0,0:0:0:0:
315,315,120017,2,0,P|265:292|211:297,1,110,2|2,1:2|1:2,0:0:0:0:
57,349,120703,2,0,B|66:306|46:273|46:273|70:237|70:237|9:183|48:107|109:101|143:164|120:176,1,330,6|6,1:2|0:0,0:0:0:0:
218,309,122074,6,0,L|326:293,1,110,6|2,1:2|1:2,0:0:0:0:
475,220,122760,2,0,P|436:182|382:181,1,110,2|2,1:2|1:2,0:0:0:0:
224,133,123446,2,0,B|209:75|209:75|228:28,1,110,2|2,1:2|1:2,0:0:0:0:
363,123,124131,2,0,B|378:181|378:181|358:227,1,110,2|2,1:2|1:2,0:0:0:0:
202,282,124817,6,0,P|147:272|93:268,2,110,6|2|6,1:2|1:2|1:2,0:0:0:0:
349,357,125846,2,0,L|403:348,1,55,6|2,1:2|0:0,0:0:0:0:
467,296,126189,2,0,B|485:246|485:246|464:192,1,110,6|4,1:2|1:0,0:0:0:0:
379,51,126874,1,6,1:2:0:0:
