osu file format v14

[General]
AudioFilename: audio.mp3
AudioLeadIn: 0
PreviewTime: 44931
Countdown: 0
SampleSet: Soft
StackLeniency: 0.4
Mode: 0
LetterboxInBreaks: 0
WidescreenStoryboard: 1

[Editor]
Bookmarks: 1389,67217,100131,111103,126874
DistanceSpacing: 0.9
BeatDivisor: 4
GridSize: 4
TimelineZoom: 1.5

[Metadata]
Title:Blessing Snow
TitleUnicode:Blessing Snow
Artist:Memme
ArtistUnicode:Memme
Creator:Syph
Version:Collab Easy
Source:HIGH5
Tags:parkmemme Akitoshi sahuang Komore Cheesecake Left [C_u_r_i] Cellina
BeatmapID:1456304
BeatmapSetID:688128

[Difficulty]
HPDrainRate:2
CircleSize:2.5
OverallDifficulty:3
ApproachRate:4
SliderMultiplier:0.999999999999999
SliderTickRate:1

[Events]
//Background and Video events
0,0,"asdadf.png",0,0
//Break Periods
2,29017,32983
2,56446,60411
//Storyboard Layer 0 (Background)
//Storyboard Layer 1 (Fail)
//Storyboard Layer 2 (Pass)
//Storyboard Layer 3 (Foreground)
//Storyboard Sound Samples

[TimingPoints]
1389,342.857142857143,4,2,0,55,1,0
1389,-100,4,2,0,55,0,0
5503,-100,4,2,0,65,0,0
6874,-100,4,2,0,55,0,0
9103,-100,4,2,0,60,0,0
9617,-100,4,2,0,65,0,0
16646,-100,4,2,0,50,0,0
17846,-100,4,2,0,60,0,0
18103,-100,4,2,0,5,0,0
18189,-100,4,2,0,65,0,0
18360,-100,4,2,0,65,0,0
20589,-100,4,2,0,60,0,0
20846,-100,4,2,0,5,0,0
20931,-100,4,2,0,65,0,0
21103,-100,4,2,0,65,0,0
25731,-100,4,2,0,70,0,0
26074,-100,4,2,0,65,0,0
28817,-100,4,2,0,55,0,0
34303,-100,4,2,0,60,0,0
38417,-100,4,2,0,67,0,0
39789,-100,4,2,0,60,0,0
43903,-100,4,2,0,75,0,0
44931,-100,4,2,0,60,0,0
45189,-100,4,2,0,5,0,0
45274,-100,4,2,0,65,0,1
56246,-100,4,2,0,65,0,0
61560,-100,4,2,0,55,0,0
61731,-100,4,2,0,65,0,0
64474,-100,4,2,0,75,0,0
64731,-100,4,2,0,5,0,0
64817,-100,4,2,0,70,0,0
65160,-100,4,2,0,75,0,0
65417,-100,4,2,0,5,0,0
65503,-100,4,2,0,65,0,0
65846,-100,4,2,0,75,0,0
66103,-100,4,2,0,5,0,0
66189,-100,4,2,0,65,0,0
66446,-100,4,2,0,5,0,0
66531,-100,4,2,0,60,0,0
66789,-100,4,2,0,5,0,0
66874,-100,4,2,0,65,0,0
67131,-100,4,2,0,5,0,0
67217,-100,4,2,0,65,0,0
67474,-100,4,2,0,5,0,0
67560,-100,4,2,0,75,0,0
67731,-100,4,2,0,70,0,0
68246,-100,4,2,0,70,0,0
69274,-100,4,2,0,80,0,0
69531,-100,4,2,0,5,0,0
69617,-100,4,2,0,75,0,0
69874,-100,4,2,0,5,0,0
69960,-100,4,2,0,65,0,0
70217,-100,4,2,0,5,0,0
70303,-100,4,2,0,75,0,0
71331,-100,4,2,0,65,0,0
72360,-100,4,2,0,70,0,0
72617,-100,4,2,0,5,0,0
72703,-100,4,2,0,65,0,0
72960,-100,4,2,0,5,0,0
73046,-100,4,2,0,75,0,0
73217,-100,4,2,0,70,0,0
74417,-100,4,2,0,70,0,0
74760,-100,4,2,0,65,0,0
75360,-100,4,2,0,5,0,0
75446,-100,4,2,0,75,0,0
75789,-100,4,2,0,65,0,0
76131,-100,4,2,0,65,0,0
76817,-100,4,2,0,75,0,0
77074,-100,4,2,0,5,0,0
77160,-100,4,2,0,70,0,0
77417,-100,4,2,0,5,0,0
77503,-100,4,2,0,60,0,0
77846,-100,4,2,0,75,0,0
78103,-100,4,2,0,5,0,0
78189,-100,4,2,0,65,0,0
78446,-100,4,2,0,5,0,0
78531,-100,4,2,0,75,0,0
78703,-100,4,2,0,70,0,0
79389,-100,4,2,0,70,0,0
80246,-100,4,2,0,80,0,0
80503,-100,4,2,0,5,0,0
80589,-100,4,2,0,75,0,0
80846,-100,4,2,0,5,0,0
80931,-100,4,2,0,65,0,0
81189,-100,4,2,0,5,0,0
81274,-100,4,2,0,80,0,0
81960,-100,4,2,0,75,0,0
82303,-100,4,2,0,70,0,0
83331,-100,4,2,0,60,0,0
83674,-100,4,2,0,65,0,0
83931,-100,4,2,0,5,0,0
84017,-100,4,2,0,75,0,0
84189,-100,4,2,0,70,0,0
85731,-100,4,2,0,80,0,0
85989,-100,4,2,0,5,0,0
86074,-100,4,2,0,75,0,0
86331,-100,4,2,0,5,0,0
86417,-100,4,2,0,70,0,0
86760,-100,4,2,0,70,0,0
88474,-100,4,2,0,60,0,0
88817,-100,4,2,0,75,0,0
89074,-100,4,2,0,5,0,0
89160,-100,4,2,0,60,0,0
94303,-100,4,2,0,65,0,0
94646,-100,4,2,0,60,0,0
98760,-100,4,2,0,70,0,0
99446,-100,4,2,0,80,0,0
99703,-100,4,2,0,5,0,0
99789,-100,4,2,0,65,0,0
100046,-100,4,2,0,5,0,0
100131,-100,4,2,0,65,0,1
111103,-100,4,2,0,60,0,0

[Colours]
Combo1 : 176,194,255
Combo2 : 255,210,166
Combo3 : 255,164,182
Combo4 : 219,167,254

[HitObjects]
356,106,1389,6,0,L|464:113,2,99.9999999999999,6|2|2,1:2|0:0|0:0,0:0:0:0:
256,99,2417,1,2,0:0:0:0:
200,183,2760,2,0,L|92:176,2,99.9999999999999,6|2|2,1:2|0:0|0:0,0:0:0:0:
300,190,3788,1,2,0:0:0:0:
344,281,4131,6,0,L|452:288,2,99.9999999999999,6|2|2,1:2|0:0|0:0,0:0:0:0:
244,274,5160,1,2,0:0:0:0:
200,183,5503,2,0,B|150:186|150:186|99:178|99:178|50:182,2,150,6|4|0,1:2|1:3|0:0,0:0:0:0:
286,133,6874,6,0,L|285:24,2,99.9999999999999,6|2|2,1:2|0:0|0:0,0:0:0:0:
286,232,7903,1,2,0:0:0:0:
373,182,8246,2,0,L|372:73,2,99.9999999999999,6|2|2,1:2|0:0|0:0,0:0:0:0:
373,281,9275,1,2,0:0:0:0:
288,332,9617,6,0,B|236:332|236:356|236:332|196:332|196:300|196:332|142:331,2,150,6|6|6,1:2|1:2|1:2,0:0:0:0:
235,191,11160,2,0,B|212:196|191:191|191:175|191:191|147:207|134:185|191:191|115:183|87:191,2,150,6|6|6,1:2|1:2|1:2,0:0:0:0:
311,61,12703,6,0,L|411:74,1,99.9999999999999,0|4,1:0|3:0,0:0:0:0:
442,168,13389,2,0,L|342:181,1,99.9999999999999,4|4,3:0|3:0,0:0:0:0:
311,275,14074,2,0,L|411:288,1,99.9999999999999,8|4,3:0|3:0,0:0:0:0:
509,302,14760,1,2,1:2:0:0:
342,180,15446,6,0,L|242:193,1,99.9999999999999,4|8,3:0|3:0,0:0:0:0:
142,204,16131,1,6,3:0:0:0:
62,144,16474,2,0,B|56:105|56:105|60:82|60:82|55:42,2,99.9999999999999,6|2|2,1:2|0:0|0:0,0:0:0:0:
7,228,17503,1,14,1:3:0:0:
5,328,17846,5,12,3:0:0:0:
93,281,18189,2,0,P|145:273|200:281,2,99.9999999999999,6|2|2,1:2|0:0|1:2,0:0:0:0:
7,228,19217,2,0,L|1:123,2,99.9999999999999,2|2|4,1:2|1:2|3:0,0:0:0:0:
95,180,20246,1,2,1:2:0:0:
132,87,20589,5,12,3:0:0:0:
225,124,20931,2,0,P|279:121|330:110,2,99.9999999999999,6|2|2,1:2|0:0|1:2,0:0:0:0:
188,217,21960,2,0,P|241:223|293:221,2,99.9999999999999,2|2|2,1:2|1:2|1:2,0:0:0:0:
95,180,22989,1,6,1:2:0:0:
111,278,23331,6,0,B|145:317|198:323|198:323|256:312|311:325,1,200,6|6,1:2|1:2,0:0:0:0:
392,291,24360,1,2,1:2:0:0:
443,205,24703,2,0,B|337:175|351:226|245:204,1,200,6|6,1:2|1:2,0:0:0:0:
162,148,25731,1,2,1:2:0:0:
196,54,26074,6,0,B|264:45|254:53|295:62|295:62|338:53|328:45|396:54,1,200,6|4,1:2|3:0,0:0:0:0:
474,111,27103,1,2,1:2:0:0:
491,209,27446,2,0,P|491:259|474:319,2,99.9999999999999,6|2|6,1:2|1:2|1:2,0:0:0:0:
395,178,28474,1,2,0:0:0:0:
299,209,28817,5,6,1:2:0:0:
79,47,34303,6,0,L|76:249,1,200,6|6,1:2|1:2,0:0:0:0:
177,74,35674,2,0,L|174:276,1,200,6|6,1:2|1:2,0:0:0:0:
275,101,37046,2,0,L|272:303,1,200,6|6,1:2|1:2,0:0:0:0:
373,128,38417,2,0,L|371:227,1,99.9999999999999,6|6,1:2|1:2,0:0:0:0:
369,326,39103,1,6,1:2:0:0:
272,300,39446,1,2,1:2:0:0:
174,327,39789,6,0,L|171:125,1,200,6|6,1:2|1:2,0:0:0:0:
272,300,41160,2,0,L|269:98,1,200,6|6,1:2|1:2,0:0:0:0:
370,273,42532,2,0,L|367:71,1,200,6|2,1:2|1:2,0:0:0:0:
468,246,43903,2,0,L|466:147,1,99.9999999999999,6|6,1:2|1:2,0:0:0:0:
462,46,44589,1,6,1:2:0:0:
269,100,45274,6,0,L|169:102,1,99.9999999999999,6|2,1:2|1:2,0:0:0:0:
135,197,45960,2,0,L|234:199,1,99.9999999999999,2|2,1:2|1:2,0:0:0:0:
269,294,46646,2,0,L|169:296,1,99.9999999999999,6|2,1:2|1:2,0:0:0:0:
69,298,47331,1,2,1:2:0:0:
235,200,48017,6,0,P|284:197|334:204,1,99.9999999999999,6|2,1:2|1:2,0:0:0:0:
302,108,48703,2,0,P|351:114|399:129,1,99.9999999999999,2|2,1:2|1:2,0:0:0:0:
477,191,49389,2,0,L|467:294,2,99.9999999999999,2|2|6,1:2|3:0|1:2,0:0:0:0:
486,91,50417,1,6,1:2:0:0:
386,98,50760,6,0,L|286:100,1,99.9999999999999,6|2,1:2|1:2,0:0:0:0:
252,195,51446,2,0,L|351:197,1,99.9999999999999,2|2,1:2|1:2,0:0:0:0:
386,292,52132,2,0,L|286:294,1,99.9999999999999,6|2,1:2|1:2,0:0:0:0:
186,296,52817,1,2,1:2:0:0:
186,94,53503,6,0,P|236:91|286:99,1,99.9999999999999,6|4,1:2|3:0,0:0:0:0:
319,193,54189,2,0,P|368:195|418:188,1,99.9999999999999,6|6,1:2|1:2,0:0:0:0:
498,128,54874,2,0,L|488:19,2,99.9999999999999,6|4|6,1:2|3:0|1:2,0:0:0:0:
507,227,55903,1,6,0:0:0:0:
424,282,56246,5,12,1:3:0:0:
421,282,61731,6,0,L|423:180,1,99.9999999999999,6|4,1:2|1:3,0:0:0:0:
333,227,62417,2,0,L|335:125,1,99.9999999999999,8|4,3:0|1:3,0:0:0:0:
245,172,63103,2,0,L|247:70,2,99.9999999999999,12|4|4,3:0|3:0|3:0,0:0:0:0:
245,272,64131,1,12,1:3:0:0:
157,223,64474,6,0,L|48:220,1,99.9999999999999,6|2,1:2|1:2,0:0:0:0:
5,134,65160,2,0,L|114:131,1,99.9999999999999,6|2,1:2|1:2,0:0:0:0:
58,42,65846,2,0,L|176:38,1,99.9999999999999,6|4,1:2|3:0,0:0:0:0:
257,35,66531,1,6,1:2:0:0:
309,120,66874,1,12,1:3:0:0:
257,205,67217,6,0,B|244:252|244:252|261:316,2,99.9999999999999,12|6|4,3:0|1:2|3:0,0:0:0:0:
316,124,68246,2,0,B|363:111|363:111|427:128,2,99.9999999999999,2|4|6,1:0|3:0|1:3,0:0:0:0:
235,64,69274,2,0,B|196:64|196:64|178:58|178:58|127:58,1,99.9999999999999,6|6,1:2|1:2,0:0:0:0:
57,120,69960,5,12,1:3:0:0:
127,190,70303,2,0,B|139:239|139:239|125:293,2,99.9999999999999,6|12|12,1:2|3:0|1:3,0:0:0:0:
61,114,71331,2,0,P|92:93|163:90,1,99.9999999999999,6|2,1:2|1:2,0:0:0:0:
229,151,72017,1,6,1:2:0:0:
322,114,72360,1,12,1:3:0:0:
410,159,72703,6,0,B|463:172|463:172|514:162,2,99.9999999999999,12|6|4,3:0|1:2|1:3,0:0:0:0:
323,209,73731,2,0,B|312:257|312:257|325:313,1,99.9999999999999,2|4,1:0|1:3,0:0:0:0:
399,371,74417,1,2,1:3:0:0:
425,274,74760,2,0,P|463:265|524:280,2,99.9999999999999,14|12|6,1:3|3:0|1:2,0:0:0:0:
338,222,75789,6,0,B|238:201|256:287|143:269,1,200,6|2,1:2|1:2,0:0:0:0:
67,215,76817,1,6,1:2:0:0:
96,119,77160,2,0,P|132:98|201:106,1,99.9999999999999,4|2,1:3|1:2,0:0:0:0:
261,169,77846,1,12,1:3:0:0:
243,267,78189,6,0,B|230:314|230:314|247:378,2,99.9999999999999,12|6|6,3:0|1:2|1:3,0:0:0:0:
276,172,79218,2,0,B|323:159|323:159|387:176,2,99.9999999999999,2|12|2,1:0|1:3|1:0,0:0:0:0:
180,203,80246,2,0,B|141:203|141:203|123:197|123:197|72:197,1,99.9999999999999,6|4,1:2|1:3,0:0:0:0:
0,130,80932,5,12,1:3:0:0:
70,60,81274,2,0,B|105:47|105:47|136:61|136:61|191:32|262:58,1,200,2|2,1:3|1:0,0:0:0:0:
340,118,82303,2,0,P|351:153|334:222,1,99.9999999999999,6|0,1:2|0:0,0:0:0:0:
285,297,82989,1,2,1:2:0:0:
202,251,83332,1,2,0:0:0:0:
110,291,83675,6,0,B|57:304|57:304|6:294,2,99.9999999999999,12|6|4,1:3|1:2|1:3,0:0:0:0:
197,242,84703,2,0,B|208:194|208:194|195:138,1,99.9999999999999,2|12,1:0|1:3,0:0:0:0:
135,64,85389,1,12,1:3:0:0:
97,156,85732,6,0,P|59:165|-2:150,2,99.9999999999999,6|12|6,1:2|1:3|1:2,0:0:0:0:
143,67,86760,1,2,3:0:0:0:
235,27,87103,2,0,P|267:26|340:115,2,150,6|6|2,1:2|1:2|1:2,0:0:0:0:
152,83,88474,1,6,1:2:0:0:
127,180,88817,1,12,3:0:0:0:
187,260,89160,6,0,P|228:274|293:252,1,99.9999999999999,2|2,1:2|0:0,0:0:0:0:
359,197,89846,2,0,P|373:156|351:91,1,99.9999999999999,6|2,1:2|0:0,0:0:0:0:
279,42,90531,2,0,L|166:37,2,99.9999999999999,6|4|6,1:2|3:0|1:2,0:0:0:0:
394,205,91903,6,0,L|507:200,2,99.9999999999999,6|2|6,1:2|0:0|1:2,0:0:0:0:
321,274,92931,1,2,0:0:0:0:
237,218,93274,2,0,B|190:210|190:210|128:225,2,99.9999999999999,6|2|4,1:2|1:2|1:3,0:0:0:0:
327,261,94303,1,12,1:3:0:0:
401,194,94646,6,0,P|415:153|393:88,1,99.9999999999999,6|2,1:2|0:0,0:0:0:0:
338,22,95332,2,0,P|297:8|232:30,1,99.9999999999999,6|2,1:2|0:0,0:0:0:0:
183,102,96017,2,0,L|178:215,2,99.9999999999999,6|6|6,1:2|1:2|1:2,0:0:0:0:
17,215,97389,6,0,L|12:328,2,99.9999999999999,6|2|2,1:2|0:0|1:2,0:0:0:0:
72,132,98417,1,2,0:0:0:0:
151,192,98760,2,0,B|151:236|151:236|144:249|144:249|143:295,2,99.9999999999999,12|2|14,1:3|3:0|1:3,0:0:0:0:
145,91,99789,1,12,3:0:0:0:
242,70,100131,6,0,L|342:72,1,99.9999999999999,2|2,1:2|1:2,0:0:0:0:
376,167,100817,2,0,L|277:169,1,99.9999999999999,2|2,1:2|1:2,0:0:0:0:
242,264,101503,2,0,L|342:266,1,99.9999999999999,6|2,1:2|1:2,0:0:0:0:
442,268,102188,1,2,1:2:0:0:
276,170,102874,6,0,P|227:167|177:174,1,99.9999999999999,6|2,1:2|1:2,0:0:0:0:
209,78,103560,2,0,P|160:84|112:99,1,99.9999999999999,2|2,1:2|1:2,0:0:0:0:
34,161,104246,2,0,L|44:264,2,99.9999999999999,2|2|6,1:2|3:0|1:2,0:0:0:0:
25,61,105274,1,6,1:2:0:0:
125,68,105617,6,0,L|225:70,1,99.9999999999999,6|2,1:2|1:2,0:0:0:0:
259,165,106303,2,0,L|160:167,1,99.9999999999999,2|2,1:2|1:2,0:0:0:0:
125,262,106989,2,0,L|225:264,1,99.9999999999999,6|2,1:2|1:2,0:0:0:0:
325,266,107674,1,2,1:2:0:0:
325,64,108360,6,0,P|275:61|225:69,1,99.9999999999999,6|2,1:2|1:2,0:0:0:0:
192,163,109046,2,0,P|143:165|93:158,1,99.9999999999999,6|6,1:2|1:2,0:0:0:0:
13,98,109731,2,0,L|23:-11,2,99.9999999999999,6|6|6,1:2|1:2|1:2,0:0:0:0:
4,197,110760,1,12,1:3:0:0:
87,252,111103,6,0,P|77:298|88:353,2,99.9999999999999,6|2|2,0:0|1:2|1:2,0:0:0:0:
162,185,112131,2,0,P|208:175|263:186,2,99.9999999999999,2|2|2,1:2|1:2|1:2,0:0:0:0:
82,123,113160,2,0,P|72:77|83:22,1,99.9999999999999,2|2,1:2|1:2,0:0:0:0:
180,12,113846,6,0,P|229:25|281:13,2,99.9999999999999,2|2|2,1:2|1:2|1:2,0:0:0:0:
85,37,114874,1,0,1:2:0:0:
25,117,115217,2,0,P|15:163|26:218,2,99.9999999999999,2|2|2,1:2|1:2|1:2,0:0:0:0:
114,163,116246,1,6,1:2:0:0:
192,100,116589,6,0,B|241:90|241:90|303:103,1,99.9999999999999,6|2,1:2|1:2,0:0:0:0:
356,176,117274,2,0,B|405:186|405:186|467:173,1,99.9999999999999,6|2,1:2|1:2,0:0:0:0:
496,84,117960,2,0,B|447:74|447:74|385:87,1,99.9999999999999,6|2,1:2|1:2,0:0:0:0:
300,100,118646,2,0,B|251:110|251:110|189:97,1,99.9999999999999,6|2,1:2|1:2,0:0:0:0:
116,48,119331,6,0,P|105:92|122:159,2,99.9999999999999,4|2|2,1:2|1:2|1:2,0:0:0:0:
208,4,120360,1,2,1:2:0:0:
298,58,120703,2,0,P|340:65|404:57,2,99.9999999999999,6|4|2,1:2|3:0|1:2,0:0:0:0:
205,19,121731,1,6,0:0:0:0:
114,62,122074,6,0,P|103:106|120:173,2,99.9999999999999,6|2|2,1:2|1:2|1:2,0:0:0:0:
200,112,123103,1,2,1:2:0:0:
282,168,123446,2,0,P|326:179|393:162,2,99.9999999999999,2|2|2,1:2|1:2|1:2,0:0:0:0:
331,81,124474,1,2,1:2:0:0:
400,9,124817,6,0,P|444:-2|511:15,2,99.9999999999999,6|2|6,1:2|1:2|1:2,0:0:0:0:
322,72,125846,1,6,1:2:0:0:
229,33,126189,2,0,B|182:22|182:22|124:36,1,99.9999999999999,6|4,1:2|1:0,0:0:0:0:
43,81,126874,1,6,1:2:0:0:
