osu file format v14

[General]
AudioFilename: audio.mp3
AudioLeadIn: 0
PreviewTime: 44931
Countdown: 0
SampleSet: Soft
StackLeniency: 0.4
Mode: 0
LetterboxInBreaks: 0
WidescreenStoryboard: 0

[Editor]
Bookmarks: 1389,9617,17846,28817,34303,45274,56246,61731,64474,67217,75446,78189,89160,98760,100131,111103,122074,126874
DistanceSpacing: 1.1
BeatDivisor: 4
GridSize: 4
TimelineZoom: 1

[Metadata]
Title:Blessing Snow
TitleUnicode:Blessing Snow
Artist:Memme
ArtistUnicode:Memme
Creator:Syph
Version:Extra
Source:HIGH5
Tags:parkmemme Akitoshi sahuang Komore Cheesecake Left [C_u_r_i] Cellina
BeatmapID:1456306
BeatmapSetID:688128

[Difficulty]
HPDrainRate:6
CircleSize:4.2
OverallDifficulty:9
ApproachRate:9.3
SliderMultiplier:1.8
SliderTickRate:1

[Events]
//Background and Video events
0,0,"asdadf.png",0,0
//Break Periods
2,56446,61006
//Storyboard Layer 0 (Background)
//Storyboard Layer 1 (Fail)
//Storyboard Layer 2 (Pass)
//Storyboard Layer 3 (Foreground)
//Storyboard Sound Samples

[TimingPoints]
1389,342.857142857143,4,2,0,55,1,0
1389,-133.333333333333,4,2,0,55,0,0
5503,-100,4,2,0,65,0,0
6874,-100,4,2,0,55,0,0
9103,-100,4,2,0,60,0,0
9617,-100,4,2,0,65,0,0
16646,-100,4,2,0,50,0,0
17846,-200,4,2,0,60,0,0
18103,-200,4,2,0,5,0,0
18189,-200,4,2,0,65,0,0
18360,-100,4,2,0,65,0,0
20589,-200,4,2,0,60,0,0
20846,-200,4,2,0,5,0,0
20931,-200,4,2,0,65,0,0
21103,-100,4,2,0,65,0,0
25731,-100,4,2,0,70,0,0
26074,-100,4,2,0,65,0,0
28817,-133.333333333333,4,2,0,55,0,0
34303,-133.333333333333,4,2,0,60,0,0
38417,-133.333333333333,4,2,0,67,0,0
39789,-133.333333333333,4,2,0,60,0,0
43903,-133.333333333333,4,2,0,75,0,0
44931,-200,4,2,0,60,0,0
45189,-200,4,2,0,5,0,0
45274,-200,4,2,0,65,0,0
46131,-100,4,2,0,65,0,0
61560,-100,4,2,0,55,0,0
61731,-100,4,2,0,65,0,0
64474,-80,4,2,0,75,0,0
64731,-80,4,2,0,5,0,0
64817,-66.6666666666667,4,2,0,70,0,0
65160,-80,4,2,0,75,0,0
65417,-80,4,2,0,5,0,0
65503,-80,4,2,0,65,0,0
65846,-80,4,2,0,75,0,0
66103,-80,4,2,0,5,0,0
66189,-100,4,2,0,65,0,0
66446,-100,4,2,0,5,0,0
66531,-133.333333333333,4,2,0,60,0,0
66789,-133.333333333333,4,2,0,5,0,0
66874,-66.6666666666667,4,2,0,65,0,0
67131,-66.6666666666667,4,2,0,5,0,0
67217,-200,4,2,0,65,0,0
67474,-200,4,2,0,5,0,0
67560,-100,4,2,0,75,0,0
67731,-66.6666666666667,4,2,0,70,0,0
68246,-57.1428571428571,4,2,0,70,0,0
69274,-66.6666666666667,4,2,0,80,0,0
69531,-66.6666666666667,4,2,0,5,0,0
69617,-57.1428571428571,4,2,0,75,0,0
69874,-57.1428571428571,4,2,0,5,0,0
69960,-200,4,2,0,65,0,0
70217,-200,4,2,0,5,0,0
70303,-66.6666666666667,4,2,0,75,0,0
71331,-100,4,2,0,65,0,0
72360,-57.1428571428571,4,2,0,70,0,0
72617,-57.1428571428571,4,2,0,5,0,0
72703,-200,4,2,0,65,0,0
72960,-200,4,2,0,5,0,0
73046,-66.6666666666667,4,2,0,75,0,0
73217,-57.1428571428571,4,2,0,70,0,0
74417,-50,4,2,0,70,0,0
74760,-100,4,2,0,65,0,0
75360,-100,4,2,0,5,0,0
75446,-100,4,2,0,75,0,0
75789,-100,4,2,0,65,0,0
76131,-71.4285714285714,4,2,0,65,0,0
76817,-71.4285714285714,4,2,0,75,0,0
77074,-71.4285714285714,4,2,0,5,0,0
77160,-62.5,4,2,0,70,0,0
77417,-62.5,4,2,0,5,0,0
77503,-62.5,4,2,0,60,0,0
77846,-200,4,2,0,75,0,0
78103,-200,4,2,0,5,0,0
78189,-133.333333333333,4,2,0,65,0,0
78446,-133.333333333333,4,2,0,5,0,0
78531,-80,4,2,0,75,0,0
78703,-66.6666666666667,4,2,0,70,0,0
79389,-57.1428571428571,4,2,0,70,0,0
80246,-66.6666666666667,4,2,0,80,0,0
80503,-66.6666666666667,4,2,0,5,0,0
80589,-57.1428571428571,4,2,0,75,0,0
80846,-57.1428571428571,4,2,0,5,0,0
80931,-200,4,2,0,65,0,0
81189,-200,4,2,0,5,0,0
81274,-200,4,2,0,80,0,0
81960,-50,4,2,0,75,0,0
82303,-50,4,2,0,70,0,0
83331,-50,4,2,0,60,0,0
83674,-200,4,2,0,65,0,0
83931,-200,4,2,0,5,0,0
84017,-66.6666666666667,4,2,0,75,0,0
84189,-57.1428571428571,4,2,0,70,0,0
85731,-66.6666666666667,4,2,0,80,0,0
85989,-66.6666666666667,4,2,0,5,0,0
86074,-57.1428571428571,4,2,0,75,0,0
86331,-57.1428571428571,4,2,0,5,0,0
86417,-57.1428571428571,4,2,0,70,0,0
86760,-100,4,2,0,70,0,0
88474,-200,4,2,0,60,0,0
88817,-50,4,2,0,75,0,0
89074,-50,4,2,0,5,0,0
89160,-133.333333333333,4,2,0,60,0,0
94303,-83.3333333333333,4,2,0,65,0,0
94646,-83.3333333333333,4,2,0,60,0,0
98760,-66.6666666666667,4,2,0,70,0,0
99446,-57.1428571428571,4,2,0,80,0,0
99703,-57.1428571428571,4,2,0,5,0,0
99789,-200,4,2,0,65,0,0
100046,-200,4,2,0,5,0,0
100131,-200,4,2,0,65,0,0
100989,-100,4,2,0,65,0,0
111103,-100,4,2,0,60,0,0
121046,-80,4,2,0,60,0,0
121389,-100,4,2,0,60,0,0

[Colours]
Combo1 : 176,194,255
Combo2 : 255,210,166
Combo3 : 255,164,182
Combo4 : 219,167,254

[HitObjects]
224,64,1217,5,4,3:0:0:0:
192,308,1389,5,6,1:2:0:0:
180,288,1731,2,0,P|220:280|252:288,1,67.5000025749208,2|0,0:0|0:0,0:0:0:0:
311,282,2074,2,0,P|271:290|239:282,1,67.5000025749208,2|0,0:0|0:0,0:0:0:0:
248,219,2417,2,0,P|253:252|245:284,1,67.5000025749208,2|0,0:0|0:0,0:0:0:0:
436,140,2760,6,0,P|428:100|436:68,1,67.5000025749208,6|0,1:2|0:0,0:0:0:0:
445,3,3103,1,2,0:0:0:0:
367,72,3274,1,4,3:0:0:0:
367,72,3446,1,2,0:0:0:0:
512,165,3617,1,4,1:3:0:0:
512,165,3789,1,2,0:0:0:0:
350,195,3960,2,0,B|347:176|347:176|351:149,1,33.7500012874604,0|0,3:0|0:0,0:0:0:0:
384,262,4131,6,0,P|350:269|311:258,1,67.5000025749208,6|0,1:2|0:0,0:0:0:0:
267,201,4474,2,0,P|233:194|194:205,1,67.5000025749208,2|0,0:0|0:0,0:0:0:0:
141,257,4817,2,0,P|107:264|68:253,1,67.5000025749208,2|0,0:0|0:0,0:0:0:0:
267,135,5160,2,0,P|274:169|263:208,1,67.5000025749208,6|0,3:0|0:0,0:0:0:0:
75,36,5503,6,0,B|120:25|120:25|170:36,1,90,6|0,1:2|0:0,0:0:0:0:
253,119,5760,1,2,0:0:0:0:
267,135,5846,2,0,B|312:146|312:146|362:135,1,90,2|4,0:0|1:3,0:0:0:0:
444,62,6103,1,2,0:0:0:0:
444,93,6189,1,0,0:0:0:0:
444,124,6274,1,2,0:0:0:0:
461,195,6360,2,0,L|464:90,1,90,4|0,1:3|0:0,0:0:0:0:
456,217,6703,1,8,3:0:0:0:
226,275,6874,6,0,P|272:262|317:280,1,90,6|0,1:2|0:0,0:0:0:0:
395,275,7217,2,0,P|349:288|304:270,1,90,2|0,0:0|0:0,0:0:0:0:
310,190,7560,2,0,P|323:236|305:281,1,90,2|0,0:0|0:0,0:0:0:0:
309,359,7903,2,0,P|296:313|314:268,1,90,2|0,0:0|0:0,0:0:0:0:
152,68,8246,6,0,P|165:114|147:159,1,90,6|0,1:2|0:0,0:0:0:0:
151,237,8589,2,0,P|138:191|156:146,1,90,2|4,0:0|0:3,0:0:0:0:
235,152,8931,1,2,0:0:0:0:
148,258,9103,1,2,0:0:0:0:
113,229,9188,1,0,0:0:0:0:
102,186,9274,1,2,0:0:0:0:
118,145,9360,1,0,0:0:0:0:
155,121,9445,1,2,0:0:0:0:
199,123,9531,1,0,0:0:0:0:
235,152,9617,6,0,P|257:158|286:152,1,45,6|0,1:2|0:0,0:0:0:0:
305,47,9789,1,2,0:0:0:0:
267,23,9874,1,0,0:0:0:0:
223,20,9960,1,2,0:0:0:0:
182,40,10046,1,0,0:0:0:0:
157,76,10131,6,0,P|152:98|159:133,1,45,6|0,1:2|0:0,0:0:0:0:
208,212,10303,1,2,0:0:0:0:
246,236,10388,1,0,0:0:0:0:
290,239,10474,1,2,0:0:0:0:
331,219,10560,1,0,0:0:0:0:
356,183,10645,6,0,P|360:160|353:125,1,45,6|0,1:2|0:0,0:0:0:0:
154,120,10817,1,2,3:0:0:0:
120,152,10902,1,2,3:0:0:0:
104,196,10988,1,2,0:0:0:0:
112,240,11074,1,0,0:0:0:0:
132,280,11160,6,0,P|110:284|85:279,1,45,6|0,1:2|0:0,0:0:0:0:
0,88,11331,1,2,0:0:0:0:
42,72,11416,1,0,0:0:0:0:
87,73,11502,1,2,0:0:0:0:
125,97,11589,1,0,0:0:0:0:
160,124,11674,6,0,P|163:146|158:171,1,45,6|0,1:2|0:0,0:0:0:0:
87,280,11846,2,0,P|83:257|88:232,1,45,2|0,0:3|0:0,0:0:0:0:
174,134,12017,2,0,P|177:156|172:181,1,45,2|0,0:3|0:0,0:0:0:0:
100,360,12189,5,6,1:2:0:0:
408,208,12531,1,0,0:0:0:0:
408,208,12617,1,0,0:0:0:0:
408,208,12703,2,0,P|369:196|315:206,1,90,0|0,1:0|0:0,0:0:0:0:
209,268,13046,1,4,3:0:0:0:
192,241,13131,1,0,0:0:0:0:
187,210,13217,1,2,0:0:0:0:
192,179,13303,1,0,0:0:0:0:
209,152,13389,5,4,3:0:0:0:
228,99,13474,1,0,0:0:0:0:
197,52,13560,1,2,0:0:0:0:
140,50,13646,1,0,0:0:0:0:
105,94,13731,6,0,P|64:103|9:88,1,90,4|0,3:0|0:0,0:0:0:0:
272,25,14074,2,0,P|313:16|368:31,1,90,8|0,3:0|0:0,0:0:0:0:
106,109,14417,2,0,P|64:117|9:102,1,90,4|0,3:0|0:0,0:0:0:0:
277,16,14760,1,2,1:2:0:0:
235,278,14931,6,0,B|236:215|236:215|262:167|262:167|266:100,1,180,6|0,1:2|0:0,0:0:0:0:
342,237,15446,2,0,P|383:245|438:230,1,90,4|0,3:0|0:0,0:0:0:0:
236,294,15789,2,0,P|194:302|139:287,1,90,8|0,3:0|3:0,0:0:0:0:
293,173,16131,1,6,3:0:0:0:
258,370,16303,1,8,3:0:0:0:
244,56,16474,5,6,1:2:0:0:
244,56,16646,2,0,L|276:41,3,30,2|0|0|2,0:0|0:0|0:0|0:0,0:0:0:0:
257,183,16989,1,2,3:0:0:0:
257,183,17160,2,0,L|264:124,3,45,2|0|2|0,0:0|0:0|0:0|0:0,0:0:0:0:
287,280,17503,5,14,1:3:0:0:
314,295,17588,1,0,0:0:0:0:
345,301,17674,1,2,0:0:0:0:
376,299,17760,1,0,0:0:0:0:
405,288,17846,6,0,P|417:258|411:222,1,67.5,12|0,3:0|0:0,0:0:0:0:
353,156,18189,5,6,1:2:0:0:
341,143,18274,1,0,0:0:0:0:
353,130,18360,2,0,L|406:127,1,45,2|0,0:0|0:0,0:0:0:0:
221,247,18531,1,2,0:0:0:0:
223,221,18617,1,0,0:0:0:0:
225,196,18703,1,2,0:0:0:0:
228,170,18788,1,0,0:0:0:0:
230,145,18874,1,2,1:2:0:0:
121,277,19046,1,2,0:0:0:0:
123,256,19131,1,0,0:0:0:0:
125,235,19217,6,0,B|106:231|106:231|76:235,1,45,2|0,1:2|0:0,0:0:0:0:
204,332,19389,2,0,B|223:336|223:336|253:332,1,45,2|0,0:0|0:0,0:0:0:0:
402,283,19560,1,2,1:2:0:0:
402,283,19646,2,0,P|406:263|403:237,1,45
319,119,19817,2,0,P|315:139|318:165,1,45,2|4,0:0|3:0,0:0:0:0:
479,244,19989,1,0,0:0:0:0:
474,209,20074,1,2,0:0:0:0:
453,180,20160,1,0,0:0:0:0:
421,165,20246,1,2,1:2:0:0:
254,229,20417,1,2,0:0:0:0:
86,165,20589,6,0,B|77:132|77:132|88:94,1,67.5,12|0,3:0|0:0,0:0:0:0:
155,55,20931,5,6,1:2:0:0:
167,68,21016,1,0,0:0:0:0:
155,81,21103,2,0,L|102:84,1,45,2|0,0:0|0:0,0:0:0:0:
6,188,21274,1,2,0:0:0:0:
8,156,21359,1,0,0:0:0:0:
11,125,21445,1,2,0:0:0:0:
13,93,21531,1,0,0:0:0:0:
16,62,21616,1,2,1:2:0:0:
131,251,21789,1,2,0:0:0:0:
152,246,21874,1,0,0:0:0:0:
173,241,21960,6,0,B|176:267|176:267|171:295,1,45,2|0,1:2|0:0,0:0:0:0:
331,322,22131,1,2,0:0:0:0:
310,327,22216,1,0,0:0:0:0:
289,332,22303,2,0,B|286:306|286:306|291:278,1,45,2|0,1:2|0:0,0:0:0:0:
132,96,22474,1,2,0:0:0:0:
153,91,22559,1,0,0:0:0:0:
174,86,22645,2,0,B|177:112|177:112|172:140,1,45,2|0,1:2|0:0,0:0:0:0:
331,62,22816,1,2,0:0:0:0:
310,57,22903,1,0,0:0:0:0:
289,52,22989,2,0,B|286:78|286:78|291:106,1,45,6|0,1:2|0:0,0:0:0:0:
392,270,23160,1,0,0:0:0:0:
509,117,23331,6,0,B|465:108|465:108|413:119,1,90,6|0,1:2|0:0,0:0:0:0:
289,216,23674,1,2,1:2:0:0:
286,240,23760,1,0,0:0:0:0:
283,264,23846,1,2,0:0:0:0:
54,290,24017,2,0,B|98:299|98:299|150:288,1,90,6|0,1:2|0:0,0:0:0:0:
205,246,24274,1,0,0:0:0:0:
209,223,24360,2,0,B|214:201|214:201|211:169,1,45,2|0,1:2|0:0,0:0:0:0:
80,109,24531,1,2,0:0:0:0:
80,109,24617,1,0,0:0:0:0:
80,109,24703,5,6,1:2:0:0:
317,35,24874,1,0,0:0:0:0:
213,226,25046,1,2,1:2:0:0:
213,226,25131,1,0,0:0:0:0:
169,17,25303,1,0,0:0:0:0:
169,17,25389,2,0,B|156:58|156:58|166:108,1,90,6|0,1:2|0:0,0:0:0:0:
234,148,25646,1,0,0:0:0:0:
249,126,25731,5,2,1:2:0:0:
309,79,25817,1,2,0:0:0:0:
385,85,25903,1,2,0:0:0:0:
444,133,25989,1,2,0:0:0:0:
444,208,26074,6,0,B|419:212|419:212|391:203,1,45,6|0,1:2|0:0,0:0:0:0:
236,49,26246,1,2,0:0:0:0:
227,31,26331,1,0,0:0:0:0:
218,12,26417,1,2,1:2:0:0:
273,263,26589,1,2,0:0:0:0:
337,9,26760,1,4,3:0:0:0:
159,137,26931,1,2,0:0:0:0:
141,128,27017,1,0,0:0:0:0:
123,119,27103,1,2,1:2:0:0:
317,93,27274,1,2,0:0:0:0:
255,339,27446,6,0,P|230:342|206:335,1,45,6|0,1:2|0:0,0:0:0:0:
299,179,27617,2,0,P|324:176|348:183,1,45,2|0,0:0|0:0,0:0:0:0:
165,269,27789,2,0,P|140:272|116:265,1,45,2|0,1:2|0:0,0:0:0:0:
390,246,27960,2,0,P|415:243|439:250,1,45,2|0,0:0|0:0,0:0:0:0:
71,355,28131,5,6,1:2:0:0:
165,64,28474,1,2,0:0:0:0:
165,64,28817,6,0,L|156:144,1,67.5000025749208,6|0,1:2|0:0,0:0:0:0:
237,232,29160,2,0,L|246:152,1,67.5000025749208,2|0,1:2|0:0,0:0:0:0:
149,55,29503,2,0,L|140:135,1,67.5000025749208,4|0,3:0|0:0,0:0:0:0:
251,243,29846,2,0,L|260:163,1,67.5000025749208,2|0,1:2|0:0,0:0:0:0:
50,98,30189,6,0,L|41:178,1,67.5000025749208,4|0,3:0|0:0,0:0:0:0:
122,266,30532,2,0,L|131:186,1,67.5000025749208,2|0,1:2|0:0,0:0:0:0:
34,89,30875,2,0,L|25:169,1,67.5000025749208,4|0,3:0|0:0,0:0:0:0:
136,277,31217,5,2,1:2:0:0:
14,145,31389,1,2,0:0:0:0:
153,289,31560,6,0,L|162:209,1,67.5000025749208,4|0,3:0|0:0,0:0:0:0:
90,123,31903,2,0,L|81:203,1,67.5000025749208,2|0,1:2|0:0,0:0:0:0:
169,298,32246,2,0,L|178:218,1,67.5000025749208,4|0,3:0|0:0,0:0:0:0:
76,112,32589,2,0,L|67:192,1,67.5000025749208,2|0,1:2|0:0,0:0:0:0:
202,21,32931,5,2,1:2:0:0:
278,137,33103,1,2,3:0:0:0:
278,137,33189,1,0,0:0:0:0:
278,137,33274,1,2,1:3:0:0:
317,54,33446,1,0,3:0:0:0:
398,232,33617,1,0,3:0:0:0:
458,137,33789,1,0,3:0:0:0:
458,137,33874,1,0,0:0:0:0:
458,137,33960,1,2,3:0:0:0:
210,300,34303,5,6,1:2:0:0:
139,277,34474,1,0,0:0:0:0:
139,202,34646,1,2,0:0:0:0:
210,179,34817,1,0,0:0:0:0:
253,239,34989,1,6,1:2:0:0:
214,314,35674,5,6,1:2:0:0:
126,285,35845,1,0,0:0:0:0:
126,193,36017,1,6,3:0:0:0:
214,164,36188,1,0,0:0:0:0:
267,238,36360,1,6,1:2:0:0:
267,238,36703,1,2,0:0:0:0:
267,238,37046,5,6,1:2:0:0:
372,192,37217,1,0,0:0:0:0:
226,162,37389,1,2,0:0:0:0:
318,115,37560,1,0,0:0:0:0:
272,314,37731,1,6,1:2:0:0:
272,314,38074,1,2,0:0:0:0:
276,318,38331,1,0,0:0:0:0:
276,318,38417,5,6,1:2:0:0:
270,208,38589,1,2,0:0:0:0:
120,364,38760,1,6,1:2:0:0:
270,208,38931,1,2,0:0:0:0:
402,373,39103,1,6,1:2:0:0:
402,373,39446,5,2,1:2:0:0:
412,351,39531,1,0,0:0:0:0:
416,328,39617,1,2,0:0:0:0:
413,305,39703,1,0,0:0:0:0:
405,283,39788,5,6,1:2:0:0:
377,211,39960,1,0,0:0:0:0:
303,216,40132,1,2,0:0:0:0:
284,287,40303,1,0,0:0:0:0:
346,329,40474,1,6,1:2:0:0:
425,288,41160,5,6,1:2:0:0:
387,193,41332,1,0,0:0:0:0:
290,200,41504,1,6,3:0:0:0:
265,293,41675,1,0,0:0:0:0:
346,349,41846,1,6,1:2:0:0:
346,349,42189,1,2,0:0:0:0:
443,293,42531,5,6,1:2:0:0:
397,177,42703,1,0,0:0:0:0:
278,185,42874,1,2,0:0:0:0:
247,300,43046,1,0,0:0:0:0:
347,367,43217,1,2,1:2:0:0:
254,308,43389,1,2,0:0:0:0:
254,308,43474,1,2,0:0:0:0:
254,308,43560,1,2,0:0:0:0:
347,367,43731,1,0,0:0:0:0:
207,119,43903,5,6,1:2:0:0:
121,317,44074,1,0,3:0:0:0:
13,32,44246,1,6,1:2:0:0:
93,242,44417,1,2,3:2:0:0:
270,1,44589,1,6,1:2:0:0:
255,27,44931,6,0,P|289:16|334:23,1,67.5,12|0,3:0|0:0,0:0:0:0:
386,54,45274,5,6,1:2:0:0:
444,113,45446,1,2,0:0:0:0:
444,113,45531,1,0,0:0:0:0:
444,113,45617,1,2,1:2:0:0:
430,193,45789,1,2,0:0:0:0:
430,193,45874,1,0,0:0:0:0:
430,193,45960,1,2,1:2:0:0:
360,234,46131,2,0,P|338:238|314:233,1,45,2|0,0:0|0:0,0:0:0:0:
246,190,46303,1,2,1:2:0:0:
175,150,46474,1,2,0:0:0:0:
175,150,46560,1,0,0:0:0:0:
175,150,46646,5,6,1:2:0:0:
32,220,46817,1,2,0:0:0:0:
175,150,46989,1,2,1:2:0:0:
129,324,47160,1,2,0:0:0:0:
129,324,47246,1,0,0:0:0:0:
129,324,47331,1,2,1:2:0:0:
198,281,47503,2,0,P|219:278|242:281,1,45,2|0,0:0|0:0,0:0:0:0:
307,323,47674,1,2,1:2:0:0:
380,356,47846,1,2,0:0:0:0:
380,356,47931,1,0,0:0:0:0:
380,356,48017,5,6,1:2:0:0:
452,319,48189,1,2,0:0:0:0:
307,323,48360,1,2,1:2:0:0:
483,248,48531,1,2,0:0:0:0:
273,255,48703,1,2,1:2:0:0:
380,356,48874,1,2,0:0:0:0:
381,131,49046,1,2,1:2:0:0:
380,356,49217,1,2,0:0:0:0:
421,71,49389,5,2,1:2:0:0:
414,63,49474,1,0,0:0:0:0:
404,57,49560,2,0,B|381:52|381:52|357:57,1,45,2|0,0:0|0:0,0:0:0:0:
303,107,49731,2,0,B|298:130|298:130|303:154,1,45,2|0,3:0|0:0,0:0:0:0:
403,47,49903,2,0,B|380:42|380:42|356:47,1,45,2|0,0:0|0:0,0:0:0:0:
291,105,50074,5,6,1:2:0:0:
282,102,50417,1,6,1:2:0:0:
273,99,50760,5,6,1:2:0:0:
204,142,50931,1,2,0:0:0:0:
204,142,51017,1,0,0:0:0:0:
204,142,51103,1,2,1:2:0:0:
134,100,51274,2,0,P|110:95|83:102,1,45,2|0,0:0|0:0,0:0:0:0:
26,157,51446,1,2,1:2:0:0:
3,234,51617,1,2,0:0:0:0:
3,234,51703,1,0,0:0:0:0:
3,234,51789,1,2,1:2:0:0:
31,309,51960,2,0,P|58:312|85:307,1,45,2|0,0:0|0:0,0:0:0:0:
264,253,52131,5,6,1:2:0:0:
111,191,52303,1,2,0:0:0:0:
175,363,52474,1,2,1:2:0:0:
175,363,52646,2,0,P|179:335|176:311,1,45,2|0,0:0|0:0,0:0:0:0:
133,117,52817,1,2,1:2:0:0:
197,83,52989,1,2,0:0:0:0:
197,83,53074,1,0,0:0:0:0:
197,83,53160,1,2,1:2:0:0:
255,124,53331,2,0,P|278:128|305:125,1,45,2|0,0:0|0:0,0:0:0:0:
454,101,53503,5,6,1:2:0:0:
225,9,53674,1,8,3:0:0:0:
329,332,53846,1,4,3:0:0:0:
366,0,54017,1,8,3:0:0:0:
120,140,54189,1,6,1:2:0:0:
424,281,54360,1,10,3:3:0:0:
424,281,54446,1,0,0:0:0:0:
424,281,54531,1,6,1:2:0:0:
195,92,54703,1,2,0:0:0:0:
236,377,54874,5,6,1:2:0:0:
310,23,55046,1,2,0:0:0:0:
424,281,55217,5,4,3:0:0:0:
39,180,55389,1,8,3:0:0:0:
506,112,55560,5,6,1:2:0:0:
118,164,55903,5,6,0:0:0:0:
427,127,56246,5,12,1:3:0:0:
146,199,61560,6,0,B|142:224|142:224|147:248,1,45,4|0,3:0|0:0,0:0:0:0:
223,311,61731,6,0,B|262:307|262:307|273:309|273:309|329:305,1,90,6|0,1:2|0:0,0:0:0:0:
368,242,62074,2,0,L|474:236,1,90,4|0,1:3|0:0,0:0:0:0:
229,323,62417,2,0,L|335:317,1,90,8|0,3:0|0:0,0:0:0:0:
377,251,62760,2,0,L|483:245,1,90,4|0,1:3|0:0,0:0:0:0:
288,193,63103,5,12,3:0:0:0:
288,193,63274,1,8,3:0:0:0:
318,318,63446,1,4,3:0:0:0:
318,318,63617,1,8,3:0:0:0:
359,138,63789,1,4,3:0:0:0:
361,129,63874,1,0,0:0:0:0:
363,120,63960,1,8,3:0:0:0:
366,111,64046,1,0,0:0:0:0:
368,103,64131,1,12,1:3:0:0:
368,103,64474,6,0,P|332:81|222:142,1,168.75,6|0,1:2|0:0,0:0:0:0:
377,95,64817,2,0,P|336:70|250:86,1,135.000005149842,2|0,1:2|0:0,0:0:0:0:
208,150,65074,1,0,0:0:0:0:
208,150,65160,2,0,P|172:172|62:111,1,168.75,6|0,1:2|0:0,0:0:0:0:
146,95,65503,1,2,1:2:0:0:
146,95,65674,1,4,3:0:0:0:
190,314,65846,6,0,B|188:258|188:258|208:211|208:211|208:134,1,168.75,6|0,1:2|0:0,0:0:0:0:
204,297,66189,2,0,B|202:255|202:255|217:220|217:220|217:163,1,135,4|0,3:0|0:0,0:0:0:0:
217,281,66531,2,0,B|215:249|215:249|227:223|227:223|227:180,1,101.250003862381,6|0,1:2|0:0,0:0:0:0:
309,211,66874,6,0,P|230:190|323:160,1,202.500007724762,12|0,1:3|0:0,0:0:0:0:
296,139,67217,6,0,L|297:68,1,67.5,12|0,3:0|0:0,0:0:0:0:
371,8,67560,6,0,L|371:67,1,45,6|0,1:2|0:0,0:0:0:0:
371,228,67731,2,0,L|371:153,1,67.5000025749208,2|0,3:0|0:0,0:0:0:0:
371,53,67903,1,4,3:0:0:0:
245,187,68074,1,2,3:0:0:0:
223,180,68160,1,0,0:0:0:0:
201,173,68246,6,0,B|170:170|170:170|154:175|154:175|111:172,1,78.7500007510185,2|0,1:0|0:0,0:0:0:0:
0,262,68417,2,0,B|31:259|31:259|47:264|47:264|90:261,1,78.7500007510185,2|0,1:0|0:0,0:0:0:0:
295,251,68589,5,4,3:0:0:0:
295,251,68760,2,0,B|307:290|307:290|294:346,1,78.7500007510185,2|0,0:1|0:0,0:0:0:0:
193,72,68931,1,6,1:3:0:0:
110,196,69103,1,2,3:0:0:0:
102,181,69189,1,0,0:0:0:0:
94,166,69274,6,0,B|171:153|171:153|211:162|211:162|306:150,1,202.500007724762,6|0,1:2|0:0,0:0:0:0:
339,44,69617,2,0,B|294:152|294:152|344:262,1,236.250002253056,6|0,1:2|0:0,0:0:0:0:
338,327,69960,6,0,L|344:242,1,67.5,12|0,1:3|0:0,0:0:0:0:
336,351,70303,6,0,B|270:372|270:372|193:352,1,135.000005149842,6|0,1:2|3:0,0:0:0:0:
101,268,70560,1,0,0:0:0:0:
87,248,70646,2,0,B|121:241|121:241|159:250,1,67.5000025749208,12|0,3:0|0:0,0:0:0:0:
336,351,70817,1,2,0:0:0:0:
347,346,70903,1,0,0:0:0:0:
358,341,70989,1,12,1:3:0:0:
445,305,71160,1,2,3:0:0:0:
376,204,71331,6,0,L|373:263,1,45,6|0,1:2|0:0,0:0:0:0:
307,103,71503,2,0,L|304:162,1,45,2|0,3:2|0:0,0:0:0:0:
238,2,71674,2,0,L|235:61,1,45,2|0,1:2|0:0,0:0:0:0:
316,100,71846,2,0,L|313:159,1,45,2|0,3:2|0:0,0:0:0:0:
386,203,72017,1,6,1:2:0:0:
397,200,72360,6,0,P|363:167|254:270,1,236.250002253056,12|0,1:3|0:0,0:0:0:0:
261,275,72703,6,0,P|269:243|261:208,1,67.5,12|0,3:0|0:0,0:0:0:0:
173,154,73046,6,0,B|165:121|165:121|176:81,1,67.5000025749208,6|0,1:2|0:0,0:0:0:0:
97,216,73217,2,0,B|66:220|66:220|51:218|51:218|14:224,1,78.7500007510185,2|0,3:0|0:0,0:0:0:0:
184,341,73389,1,4,1:3:0:0:
390,267,73560,1,2,3:0:0:0:
370,261,73646,1,0,0:0:0:0:
350,255,73731,2,0,B|336:220|336:220|351:169,1,78.7500007510185,2|0,1:0|0:0,0:0:0:0:
491,56,73903,2,0,B|505:91|505:91|490:142,1,78.7500007510185,2|0,0:1|0:0,0:0:0:0:
286,2,74074,5,4,1:3:0:0:
286,2,74246,2,0,B|325:-7|325:-7|374:3,1,78.7500007510185,2|0,0:1|0:0,0:0:0:0:
152,127,74417,2,0,B|110:137|110:137|65:126,1,90,2|0,1:3|0:0,0:0:0:0:
255,249,74589,1,2,0:0:0:0:
257,234,74674,1,0,0:0:0:0:
259,219,74760,6,0,P|300:209|344:227,1,90,14|0,1:3|0:0,0:0:0:0:
397,285,75017,1,0,0:0:0:0:
397,285,75103,2,0,P|447:306|526:270,1,135,12|0,3:0|0:0,0:0:0:0:
454,219,75446,5,6,1:2:0:0:
168,356,75789,6,0,B|162:332|162:332|168:295,1,45,6|0,1:2|0:0,0:0:0:0:
50,322,75960,2,0,B|56:298|56:298|50:261,1,45,2|0,3:2|0:0,0:0:0:0:
171,152,76131,6,0,B|179:187|179:187|171:221,1,62.9999980773926,6|0,1:2|0:0,0:0:0:0:
62,88,76303,2,0,B|54:123|54:123|62:157,1,62.9999980773926,2|0,3:2|0:0,0:0:0:0:
169,0,76474,6,0,B|177:35|177:35|169:69,1,62.9999980773926,2|0,1:2|0:0,0:0:0:0:
51,151,76646,2,0,B|44:124|44:124|52:89,1,62.9999980773926,2|0,3:2|0:0,0:0:0:0:
235,262,76817,6,0,P|191:291|95:217,1,188.999994232178,6|0,1:2|0:0,0:0:0:0:
197,4,77160,2,0,B|199:80|199:80|171:131|171:131|173:224,1,216,4|0,1:3|0:0,0:0:0:0:
383,115,77503,2,0,B|348:105|348:105|311:114,1,72,2|0,1:2|0:0,0:0:0:0:
172,212,77674,2,0,B|207:222|207:222|244:213,1,72,2|0,0:0|0:0,0:0:0:0:
403,112,77846,6,0,L|394:194,1,67.5,12|0,1:3|0:0,0:0:0:0:
413,202,78189,6,0,B|411:192|411:192|416:184|416:184|413:174|413:174|419:167|419:167|415:155|415:155|423:147|423:147|417:133|417:133|424:119|424:119|424:99,1,101.250003862381,12|0,3:0|0:0,0:0:0:0:
353,27,78531,2,0,B|322:22|322:22|285:31,1,56.25,6|0,1:2|0:0,0:0:0:0:
115,125,78703,2,0,B|144:129|144:129|180:121,1,67.5000025749208,0|0,3:0|0:0,0:0:0:0:
353,27,78874,1,6,1:3:0:0:
281,237,79046,1,2,3:0:0:0:
282,223,79131,1,0,0:0:0:0:
283,209,79217,2,0,L|274:283,1,67.5000025749208,2|0,1:0|0:0,0:0:0:0:
104,374,79389,2,0,B|105:343|105:343|111:329|111:329|114:289,1,78.7500007510185,2|0,3:1|0:0,0:0:0:0:
139,31,79560,5,12,1:3:0:0:
139,31,79731,2,0,B|103:22|103:22|52:31,1,78.7500007510185,2|0,0:1|0:0,0:0:0:0:
332,144,79903,1,2,1:0:0:0:
201,285,80074,1,2,3:0:0:0:
203,265,80160,1,0,0:0:0:0:
205,245,80246,6,0,B|106:224|119:315|2:282,1,202.500007724762,6|0,1:2|0:0,0:0:0:0:
270,185,80589,2,0,P|280:294|177:333,1,236.250002253056,4|0,1:3|0:0,0:0:0:0:
137,249,80931,6,0,P|169:242|203:243,1,67.5,12|0,1:3|0:0,0:0:0:0:
268,290,81274,1,2,1:3:0:0:
339,305,81359,1,2,0:0:0:0:
403,271,81445,1,2,3:0:0:0:
432,205,81531,1,2,0:0:0:0:
411,135,81616,1,2,1:3:0:0:
351,94,81702,1,2,0:0:0:0:
279,101,81788,1,2,3:0:0:0:
217,138,81874,1,2,0:0:0:0:
146,122,81960,2,0,B|131:80|131:80|151:26,1,90,2|0,1:0|0:0,0:0:0:0:
368,17,82131,1,2,3:2:0:0:
351,94,82217,1,2,0:0:0:0:
334,171,82303,5,6,1:2:0:0:
430,72,82560,1,2,0:0:0:0:
315,248,82817,1,2,0:0:0:0:
217,125,82989,5,2,1:2:0:0:
167,361,83160,1,2,0:0:0:0:
86,248,83331,1,2,0:0:0:0:
103,246,83416,1,0,0:0:0:0:
121,245,83502,1,2,0:0:0:0:
139,243,83588,1,0,0:0:0:0:
157,242,83674,6,0,L|84:236,1,67.5,12|0,1:3|0:0,0:0:0:0:
19,166,84017,6,0,B|10:132|10:132|20:88,1,67.5000025749208,6|0,1:2|0:0,0:0:0:0:
131,9,84189,2,0,B|165:6|165:6|179:10|179:10|233:9,1,78.7500007510185,2|0,3:0|0:0,0:0:0:0:
324,168,84360,1,4,1:3:0:0:
331,5,84531,1,2,3:0:0:0:
329,26,84617,1,0,0:0:0:0:
327,47,84703,2,0,B|361:44|361:44|375:48|375:48|429:47,1,78.7500007510185,2|0,1:0|0:0,0:0:0:0:
512,215,84874,2,0,B|478:212|478:212|464:216|464:216|410:215,1,78.7500007510185,2|0,0:1|0:0,0:0:0:0:
173,216,85046,5,12,1:3:0:0:
173,216,85217,2,0,B|159:252|159:252|168:300,1,78.7500007510185,2|0,0:1|0:0,0:0:0:0:
61,75,85389,1,12,1:3:0:0:
276,162,85560,1,2,3:0:0:0:
274,178,85646,1,0,0:0:0:0:
272,194,85731,6,0,B|265:159|289:125|289:125|276:62|276:62|291:26|291:26|292:-7,1,202.500007724762,6|0,1:2|0:0,0:0:0:0:
272,208,86074,2,0,B|334:237|334:237|387:211|387:211|438:236|438:236|493:219,1,236.250002253056,12|0,1:3|0:0,0:0:0:0:
233,284,86417,5,6,1:2:0:0:
188,214,86589,1,2,0:0:0:0:
188,214,86674,1,0,0:0:0:0:
188,214,86760,2,0,P|185:189|189:167,1,45,2|0,3:0|0:0,0:0:0:0:
255,89,86931,1,2,0:0:0:0:
221,364,87103,1,6,1:2:0:0:
314,161,87274,1,2,0:0:0:0:
221,364,87446,1,2,3:2:0:0:
183,33,87617,1,6,1:2:0:0:
164,24,87960,5,2,1:2:0:0:
211,271,88131,1,2,1:2:0:0:
311,165,88474,2,0,L|268:160,3,22.5,6|0|2|0,1:2|0:0|3:0|0:0,0:0:0:0:
331,160,88817,6,0,P|311:132|312:229,1,270,12|0,3:0|0:0,0:0:0:0:
289,238,89160,6,0,L|284:324,1,67.5000025749208,2|0,1:2|0:0,0:0:0:0:
221,363,89503,1,2,0:0:0:0:
135,159,89846,2,0,L|140:245,1,67.5000025749208,6|0,1:2|0:0,0:0:0:0:
203,284,90189,1,2,0:0:0:0:
299,79,90531,6,0,L|294:165,1,67.5000025749208,6|0,1:2|0:0,0:0:0:0:
231,204,90874,1,4,3:0:0:0:
236,12,91131,1,0,0:0:0:0:
236,12,91217,1,6,1:2:0:0:
237,290,91731,1,2,0:0:0:0:
237,290,91817,1,0,0:0:0:0:
237,290,91903,5,6,1:2:0:0:
314,330,92074,1,2,0:0:0:0:
389,284,92246,1,2,0:0:0:0:
368,198,92417,1,2,0:0:0:0:
237,290,92589,5,6,1:2:0:0:
160,330,92759,1,2,0:0:0:0:
85,284,92931,1,2,0:0:0:0:
106,198,93103,1,2,0:0:0:0:
237,290,93274,5,6,1:2:0:0:
317,91,93446,1,2,3:0:0:0:
317,91,93531,1,0,0:0:0:0:
317,91,93617,1,2,1:2:0:0:
238,210,93789,1,2,3:0:0:0:
173,16,93960,2,0,P|147:12|135:14,3,33.7500012874604,4|0|2|0,1:3|0:0|0:0|0:0,0:0:0:0:
272,101,94303,2,0,B|301:107|301:107|327:102,3,53.9999983520508,12|0|2|0,1:3|0:0|0:0|0:0,0:0:0:0:
205,157,94646,5,6,1:2:0:0:
126,191,94817,1,2,0:0:0:0:
47,155,94989,1,2,0:0:0:0:
207,0,95331,5,6,1:2:0:0:
241,79,95502,1,2,0:0:0:0:
205,158,95674,1,2,0:0:0:0:
47,155,96017,5,6,1:2:0:0:
126,191,96189,1,2,0:0:0:0:
241,79,96360,1,6,1:2:0:0:
237,303,96617,1,0,0:0:0:0:
237,303,96703,5,6,1:2:0:0:
244,56,97046,1,0,0:0:0:0:
334,139,97217,1,2,0:0:0:0:
334,139,97303,1,0,0:0:0:0:
334,139,97389,5,6,1:2:0:0:
413,106,97560,1,2,0:0:0:0:
477,163,97731,1,2,0:0:0:0:
462,248,97903,1,2,0:0:0:0:
334,139,98074,5,2,1:2:0:0:
258,97,98246,1,2,0:0:0:0:
258,97,98331,1,2,0:0:0:0:
258,97,98417,1,2,0:0:0:0:
254,340,98760,6,0,L|255:269,1,67.5000025749208,12|0,1:3|0:0,0:0:0:0:
257,192,98931,1,2,0:0:0:0:
128,145,99103,2,0,L|138:253,1,67.5000025749208,2|0,3:0|0:0,0:0:0:0:
383,145,99274,2,0,L|373:253,1,67.5000025749208,2|0,3:0|0:0,0:0:0:0:
255,358,99446,6,0,L|258:111,1,236.250002253056,14|0,1:3|0:0,0:0:0:0:
267,106,99789,2,0,L|266:179,1,67.5,12|0,3:0|0:0,0:0:0:0:
129,325,100132,5,2,1:2:0:0:
71,266,100303,1,2,0:0:0:0:
71,266,100389,1,0,0:0:0:0:
71,266,100475,1,2,1:2:0:0:
85,186,100647,1,2,0:0:0:0:
85,186,100732,1,0,0:0:0:0:
85,186,100818,1,2,1:2:0:0:
155,145,100989,2,0,P|177:141|201:146,1,45,2|0,0:0|0:0,0:0:0:0:
269,189,101160,1,2,1:2:0:0:
340,229,101332,1,2,0:0:0:0:
340,229,101418,1,0,0:0:0:0:
340,229,101504,5,6,1:2:0:0:
483,159,101675,1,2,0:0:0:0:
340,229,101847,1,2,1:2:0:0:
386,55,102018,1,2,0:0:0:0:
386,55,102104,1,0,0:0:0:0:
386,55,102189,1,2,1:2:0:0:
317,98,102361,2,0,P|296:101|273:98,1,45,2|0,0:0|0:0,0:0:0:0:
208,56,102532,1,2,1:2:0:0:
135,23,102704,1,2,0:0:0:0:
135,23,102789,1,0,0:0:0:0:
135,23,102875,5,6,1:2:0:0:
63,60,103047,1,2,0:0:0:0:
208,56,103218,1,2,1:2:0:0:
32,131,103389,1,2,0:0:0:0:
242,124,103561,1,2,1:2:0:0:
135,23,103732,1,2,0:2:0:0:
134,248,103904,1,2,1:2:0:0:
135,23,104075,1,2,0:0:0:0:
90,309,104247,5,2,1:2:0:0:
98,317,104332,1,0,0:0:0:0:
109,322,104418,2,0,B|132:327|132:327|156:322,1,45,2|0,0:0|0:0,0:0:0:0:
212,272,104589,2,0,B|217:249|217:249|212:225,1,45,2|0,3:0|0:0,0:0:0:0:
110,332,104761,2,0,B|133:337|133:337|157:332,1,45,2|0,0:0|0:0,0:0:0:0:
224,274,104932,5,6,1:2:0:0:
233,277,105275,1,6,1:2:0:0:
242,280,105618,5,6,1:2:0:0:
311,237,105789,1,2,0:0:0:0:
311,237,105875,1,0,0:0:0:0:
311,237,105961,1,2,1:2:0:0:
381,279,106132,2,0,P|405:284|432:277,1,45,2|0,0:0|0:0,0:0:0:0:
489,222,106304,1,2,1:2:0:0:
512,145,106475,1,2,0:0:0:0:
512,145,106561,1,0,0:0:0:0:
512,145,106647,1,2,1:2:0:0:
484,70,106818,2,0,P|457:67|430:72,1,45,2|0,0:0|0:0,0:0:0:0:
251,126,106989,5,6,1:2:0:0:
404,188,107161,1,2,0:0:0:0:
340,16,107332,1,2,1:2:0:0:
340,16,107504,2,0,P|336:44|339:68,1,45,2|0,0:0|0:0,0:0:0:0:
382,262,107675,1,2,1:2:0:0:
318,296,107847,1,2,0:0:0:0:
318,296,107932,1,0,0:0:0:0:
318,296,108018,1,2,1:2:0:0:
247,248,108189,2,0,P|224:244|197:247,1,45,2|0,0:0|0:0,0:0:0:0:
33,297,108361,5,6,1:2:0:0:
290,370,108532,1,8,3:0:0:0:
186,47,108704,1,2,1:2:0:0:
129,368,108875,1,8,3:0:0:0:
395,239,109047,1,6,1:2:0:0:
91,98,109218,1,10,3:3:0:0:
91,98,109304,1,0,0:0:0:0:
91,98,109389,1,6,1:2:0:0:
320,287,109561,1,2,0:0:0:0:
279,2,109732,5,6,1:2:0:0:
205,356,109904,1,2,0:0:0:0:
91,98,110075,5,6,1:2:0:0:
476,199,110247,1,4,3:0:0:0:
9,267,110418,5,6,1:2:0:0:
397,215,110761,5,12,1:3:0:0:
88,252,111103,6,0,P|75:211|89:165,1,90,6|0,0:0|0:0,0:0:0:0:
235,63,111446,2,0,P|248:104|234:150,1,90,2|0,1:2|0:0,0:0:0:0:
229,166,111703,1,0,0:0:0:0:
220,178,111789,1,2,1:2:0:0:
326,204,111960,1,0,0:0:0:0:
429,166,112131,2,0,P|442:207|428:253,1,90,2|0,1:2|0:0,0:0:0:0:
279,356,112474,6,0,P|266:315|280:269,1,90,2|0,1:2|0:0,0:0:0:0:
306,188,112817,1,2,1:2:0:0:
306,188,112989,1,0,0:0:0:0:
349,29,113160,2,0,P|362:70|348:116,1,90,2|0,1:2|0:0,0:0:0:0:
206,154,113503,1,2,1:2:0:0:
206,154,113674,1,2,0:0:0:0:
57,102,113846,5,2,1:2:0:0:
180,58,114017,1,0,0:0:0:0:
134,216,114189,1,2,1:2:0:0:
134,216,114360,1,2,0:0:0:0:
73,27,114531,1,2,1:2:0:0:
4,125,114703,1,0,0:0:0:0:
134,216,114874,1,0,1:2:0:0:
264,125,115046,1,2,0:0:0:0:
134,216,115217,6,0,P|121:258|133:306,1,90,2|0,1:2|0:0,0:0:0:0:
267,210,115560,2,0,P|277:167|264:125,1,90,2|0,1:2|0:0,0:0:0:0:
148,20,115903,2,0,P|135:62|147:110,1,90,2|0,1:2|0:0,0:0:0:0:
266,236,116246,1,6,1:2:0:0:
504,109,116589,6,0,P|465:94|418:107,1,90,6|0,1:2|0:0,0:0:0:0:
351,197,116931,2,0,P|312:212|265:199,1,90,2|0,1:2|0:0,0:0:0:0:
203,148,117189,1,0,0:0:0:0:
203,148,117274,2,0,P|192:105|206:53,1,90,6|0,1:2|0:0,0:0:0:0:
330,2,117617,2,0,P|341:45|327:97,1,90,2|0,1:2|0:0,0:0:0:0:
190,152,117960,6,0,P|179:109|193:57,1,90,6|0,1:2|0:0,0:0:0:0:
344,0,118303,2,0,P|355:43|341:95,1,90,2|0,1:2|0:0,0:0:0:0:
295,228,118646,1,6,1:2:0:0:
295,228,118817,1,0,0:0:0:0:
369,190,118989,2,0,P|411:179|453:193,1,90,2|0,1:2|0:0,0:0:0:0:
262,302,119331,5,4,1:2:0:0:
180,291,119503,1,2,0:0:0:0:
165,211,119674,1,2,1:2:0:0:
236,172,119846,1,2,0:0:0:0:
295,228,120017,1,2,1:2:0:0:
295,228,120189,1,0,0:0:0:0:
180,291,120360,1,2,1:2:0:0:
180,291,120531,1,0,0:0:0:0:
65,228,120703,6,0,L|14:236,3,45,6|0|2|0,1:2|0:0|0:0|0:0,0:0:0:0:
101,143,121046,2,0,B|106:115|106:115|100:82,1,56.25,4|0,3:0|0:0,0:0:0:0:
177,212,121217,2,0,B|172:240|172:240|178:273,1,56.25,8|0,3:0|0:0,0:0:0:0:
202,121,121389,2,0,L|253:129,3,45,2|0|2|0,1:2|0:0|0:0|0:0,0:0:0:0:
170,24,121731,1,6,0:0:0:0:
278,329,122074,6,0,P|324:338|370:328,1,90,6|0,1:2|0:0,0:0:0:0:
421,261,122417,2,0,P|467:252|513:262,1,90,2|0,1:2|0:0,0:0:0:0:
275,340,122760,2,0,P|321:349|367:339,1,90,2|0,1:2|0:0,0:0:0:0:
418,272,123103,2,0,P|464:263|510:273,1,90,2|0,1:2|0:0,0:0:0:0:
326,241,123446,6,0,P|317:195|327:149,1,90,2|0,1:2|0:0,0:0:0:0:
394,98,123789,2,0,P|403:52|393:6,1,90,2|0,1:2|0:0,0:0:0:0:
315,244,124132,2,0,P|306:198|316:152,1,90,2|0,1:2|0:0,0:0:0:0:
383,101,124474,5,2,1:2:0:0:
307,248,124646,1,2,0:0:0:0:
232,168,124817,6,0,P|186:159|140:169,1,90,6|0,1:2|0:0,0:0:0:0:
89,236,125160,2,0,P|43:245|-3:235,1,90,2|0,1:2|0:0,0:0:0:0:
235,157,125503,2,0,P|189:148|143:158,1,90,6|0,1:2|0:0,0:0:0:0:
92,225,125846,5,6,1:2:0:0:
240,148,126017,1,2,0:0:0:0:
176,366,126189,5,6,1:2:0:0:
221,24,126531,1,4,1:0:0:0:
176,366,126874,1,6,1:2:0:0:
