osu file format v14

[General]
AudioFilename: audio.mp3
AudioLeadIn: 0
PreviewTime: 44931
Countdown: 0
SampleSet: Soft
StackLeniency: 0.3
Mode: 0
LetterboxInBreaks: 0
WidescreenStoryboard: 0

[Editor]
Bookmarks: 100131
DistanceSpacing: 0.4
BeatDivisor: 4
GridSize: 8
TimelineZoom: 1.8

[Metadata]
Title:Blessing Snow
TitleUnicode:Blessing Snow
Artist:Memme
ArtistUnicode:Memme
Creator:Syph
Version:Collab Insane
Source:HIGH5
Tags:parkmemme Akitoshi sahuang Komore Cheesecake Left [C_u_r_i] Cellina
BeatmapID:1486594
BeatmapSetID:688128

[Difficulty]
HPDrainRate:6
CircleSize:3.5
OverallDifficulty:7.7
ApproachRate:9
SliderMultiplier:1.58
SliderTickRate:1

[Events]
//Background and Video events
0,0,"asdadf.png",0,0
//Break Periods
2,56446,61131
//Storyboard Layer 0 (Background)
//Storyboard Layer 1 (Fail)
//Storyboard Layer 2 (Pass)
//Storyboard Layer 3 (Foreground)
//Storyboard Sound Samples

[TimingPoints]
1389,342.857142857143,4,2,0,55,1,0
1389,-166.666666666667,4,2,0,55,0,0
3274,-100,4,2,0,55,0,0
3789,-83.3333333333333,4,2,0,55,0,0
3960,-71.4285714285714,4,2,0,55,0,0
4131,-166.666666666667,4,2,0,55,0,0
5160,-200,4,2,0,55,0,0
5503,-100,4,2,0,55,0,0
6360,-166.666666666667,4,2,0,55,0,0
8760,-100,4,2,0,55,0,0
10131,-111.111111111111,4,2,0,55,0,0
10646,-125,4,2,0,55,0,0
11160,-142.857142857143,4,2,0,55,0,0
11674,-166.666666666667,4,2,0,55,0,0
12189,-100,4,2,0,55,0,0
13731,-125,4,2,0,55,0,0
14760,-83.3333333333333,4,2,0,55,0,0
14931,-100,4,2,0,55,0,0
15789,-83.3333333333333,4,2,0,55,0,0
16131,-71.4285714285714,4,2,0,55,0,0
17503,-83.3333333333333,4,2,0,55,0,0
17846,-100,4,2,0,55,0,0
18189,-83.3333333333333,4,2,0,55,0,0
22989,-100,4,2,0,55,0,0
23331,-83.3333333333333,4,2,0,55,0,0
28817,-100,4,2,0,55,0,0
33960,-83.3333333333333,4,2,0,55,0,0
34303,-100,4,2,0,55,0,0
39446,-125,4,2,0,55,0,0
39789,-100,4,2,0,55,0,0
45274,-83.3333333333333,4,2,0,55,0,0
61731,-100,4,2,0,55,0,0
64474,-83.3333333333333,4,2,0,55,0,0
65160,-76.9230769230769,4,2,0,55,0,0
65503,-83.3333333333333,4,2,0,55,0,0
66874,-200,4,2,0,55,0,0
67217,-90.9090909090909,4,2,0,55,0,0
68246,-76.9230769230769,4,2,0,55,0,0
68931,-90.9090909090909,4,2,0,55,0,0
69274,-76.9230769230769,4,2,0,55,0,0
69960,-90.9090909090909,4,2,0,55,0,0
71674,-100,4,2,0,55,0,0
72360,-200,4,2,0,55,0,0
72703,-90.9090909090909,4,2,0,55,0,0
73389,-90.9090909090909,4,2,0,55,0,0
73731,-76.9230769230769,4,2,0,55,0,0
75446,-90.9090909090909,4,2,0,55,0,0
76817,-76.9230769230769,4,2,0,55,0,0
77846,-200,4,2,0,55,0,0
78189,-90.9090909090909,4,2,0,55,0,0
79389,-76.9230769230769,4,2,0,55,0,0
80246,-90.9090909090909,4,2,0,55,0,0
80931,-76.9230769230769,4,2,0,55,0,0
81617,-90.9090909090909,4,2,0,55,0,0
82303,-76.9230769230769,4,2,0,55,0,0
83674,-90.9090909090909,4,2,0,55,0,0
84703,-76.9230769230769,4,2,0,55,0,0
85731,-66.6666666666667,4,2,0,55,0,0
87789,-90.9090909090909,4,2,0,55,0,0
88474,-66.6666666666667,4,2,0,55,0,0
88646,-76.9230769230769,4,2,0,55,0,0
89160,-125,4,2,0,55,0,0
98760,-100,4,2,0,55,0,0
100131,-83.3333333333333,4,2,0,55,0,0
111103,-100,4,2,0,55,0,0
116246,-125,4,2,0,55,0,0
116589,-100,4,2,0,55,0,0

[Colours]
Combo1 : 176,194,255
Combo2 : 255,210,166
Combo3 : 255,164,182
Combo4 : 219,167,254

[HitObjects]
116,97,1217,6,0,L|122:147,1,39.5,4|4,3:0|3:0,0:0:0:0:
89,207,1389,6,0,P|132:180|187:191,3,94.7999971069337,6|2|2|2,1:2|0:0|0:0|0:0,0:0:0:0:
316,246,2760,6,0,L|237:237,1,71.0999978302003,6|0,1:2|0:0,0:0:0:0:
235,237,3103,1,2,0:0:0:0:
367,165,3274,6,0,L|230:151,1,118.5,4|0,3:0|0:0,0:0:0:0:
233,150,3617,2,0,P|230:115|232:95,1,39.5,4|0,1:3|0:0,0:0:0:0:
307,36,3789,6,0,P|308:60|306:84,1,47.3999985534668,2|0,0:0|0:0,0:0:0:0:
217,161,3960,6,0,P|214:126|220:96,1,55.299998312378,0|0,3:0|0:0,0:0:0:0:
318,25,4131,6,0,P|371:21|415:48,2,94.7999971069337,6|2|2,1:2|0:0|0:0,0:0:0:0:
318,25,5160,2,0,L|321:93,1,59.25,2|0,0:0|0:0,0:0:0:0:
320,84,5503,6,0,L|326:187,1,79,6|0,1:2|0:0,0:0:0:0:
328,238,5760,1,2,0:0:0:0:
330,253,5846,1,2,0:0:0:0:
436,153,6017,2,0,L|441:213,1,39.5,4|2,1:3|0:0,0:0:0:0:
425,275,6189,1,0,0:0:0:0:
370,291,6274,1,2,0:0:0:0:
330,253,6360,6,0,P|281:255|244:278,1,71.0999978302003,4|0,1:3|0:0,0:0:0:0:
254,270,6703,2,0,L|260:309,1,23.6999992767334,8|0,3:0|0:0,0:0:0:0:
186,340,6874,6,0,L|175:224,3,94.7999971069337,6|2|2|2,1:2|0:0|0:0|0:0,0:0:0:0:
123,188,8246,6,0,P|152:170|197:171,1,71.0999978302003,6|0,1:2|0:0,0:0:0:0:
197,170,8589,1,2,0:0:0:0:
46,226,8760,6,0,P|40:172|58:134,1,79,4|2,0:3|0:0,0:0:0:0:
226,51,9103,1,2,0:0:0:0:
210,47,9188,1,0,0:0:0:0:
194,45,9274,5,2,0:0:0:0:
222,36,9359,1,0,0:0:0:0:
251,38,9445,1,2,0:0:0:0:
278,50,9531,1,0,0:0:0:0:
299,71,9617,2,0,L|355:62,4,39.5,6|0|2|0|2,1:2|0:0|0:0|0:0|0:0,0:0:0:0:
345,140,10131,6,0,L|402:131,4,35.5499989151001,6|0|2|0|2,1:2|0:0|0:0|0:0|0:0,0:0:0:0:
389,210,10646,6,0,L|440:202,4,31.6,6|0|2|0|2,1:2|0:0|3:0|0:0|0:0,0:0:0:0:
432,282,11160,6,0,L|482:275,4,27.649999156189,6|0|2|0|2,1:2|0:0|0:0|0:0|0:0,0:0:0:0:
467,357,11674,6,0,L|507:351,4,23.6999992767334,6|0|2|0|2,1:2|0:0|0:3|0:0|0:3,0:0:0:0:
343,290,12189,6,0,P|289:242|205:291,1,158,6|0,1:2|0:0,0:0:0:0:
221,346,12703,2,0,P|226:301|205:253,1,79,0|0,1:0|0:0,0:0:0:0:
285,222,13046,2,0,P|247:195|195:189,1,79,4|2,3:0|0:0,0:0:0:0:
203,105,13389,2,0,P|160:124|129:166,1,79,4|2,3:0|0:0,0:0:0:0:
140,273,13731,6,0,P|166:235|171:191,1,63.2,4|0,3:0|0:0,0:0:0:0:
169,200,14074,2,0,P|149:157|113:132,1,63.2,8|0,3:0|0:0,0:0:0:0:
120,137,14417,2,0,P|73:132|34:151,1,63.2,4|0,3:0|0:0,0:0:0:0:
44,145,14760,2,0,P|23:166|15:186,1,47.3999985534668,2|0,1:2|0:0,0:0:0:0:
19,326,14931,6,0,P|89:335|136:236,1,158,6|0,1:2|0:0,0:0:0:0:
154,196,15446,2,0,P|137:255|142:282,1,79,4|0,3:0|0:0,0:0:0:0:
227,254,15789,6,0,P|269:298|304:308,1,94.7999971069337,8|0,3:0|3:0,0:0:0:0:
311,218,16131,6,0,P|370:203|401:162,1,110.599996624756,6|8,3:0|3:0,0:0:0:0:
313,24,16474,6,0,P|296:82|316:129,1,110.599996624756,6|2,1:2|0:0,0:0:0:0:
322,134,16703,1,0,0:0:0:0:
322,134,16760,1,0,0:0:0:0:
322,134,16817,2,0,P|333:89|325:64,1,55.299998312378,2|0,0:0|0:0,0:0:0:0:
224,22,16989,2,0,P|213:67|221:92,1,55.299998312378,2|0,3:0|0:0,0:0:0:0:
322,229,17160,5,2,0:0:0:0:
349,227,17245,1,0,0:0:0:0:
375,217,17331,1,2,0:0:0:0:
396,200,17417,1,0,0:0:0:0:
410,176,17503,5,14,1:3:0:0:
424,194,17588,1,0,0:0:0:0:
445,206,17674,1,2,0:0:0:0:
468,210,17760,1,0,0:0:0:0:
491,207,17846,6,0,L|479:82,1,118.5,12|0,3:0|0:0,0:0:0:0:
479,89,18189,2,0,L|406:76,1,47.3999985534668,6|0,1:2|0:0,0:0:0:0:
474,6,18360,1,2,0:0:0:0:
352,112,18531,1,2,0:0:0:0:
320,127,18616,1,0,0:0:0:0:
285,125,18702,1,2,0:0:0:0:
256,106,18788,1,0,0:0:0:0:
240,75,18873,1,2,1:2:0:0:
352,112,19046,1,2,0:0:0:0:
346,159,19131,1,0,0:0:0:0:
340,206,19217,6,0,L|442:197,1,94.7999971069337,2|2,1:2|0:0,0:0:0:0:
256,221,19560,1,2,1:2:0:0:
256,219,19646,1,0,0:0:0:0:
459,304,19817,1,2,0:0:0:0:
459,304,19903,1,4,3:0:0:0:
435,306,19988,1,0,0:0:0:0:
411,309,20074,1,2,0:0:0:0:
388,311,20160,1,0,0:0:0:0:
364,314,20245,1,2,1:2:0:0:
256,221,20417,1,2,0:0:0:0:
185,317,20589,6,0,B|247:347|285:294|285:294|260:305|245:300,1,142.199995660401,12|0,3:0|0:0,0:0:0:0:
256,221,20931,1,6,1:2:0:0:
259,197,21016,1,0,0:0:0:0:
262,173,21102,1,2,0:0:0:0:
122,258,21274,1,2,0:0:0:0:
103,288,21359,1,0,0:0:0:0:
99,323,21445,1,2,0:0:0:0:
109,357,21531,1,0,0:0:0:0:
131,384,21617,2,0,P|153:332|142:287,1,94.7999971069337,2|2,1:2|0:0,0:0:0:0:
105,228,21874,1,0,0:0:0:0:
105,228,21960,6,0,P|99:181|120:139,1,94.7999971069337,2|2,1:2|0:0,0:0:0:0:
184,91,22217,1,0,0:0:0:0:
184,91,22303,2,0,L|281:95,1,94.7999971069337,2|2,1:2|0:0,0:0:0:0:
358,100,22560,1,0,0:0:0:0:
358,100,22646,1,2,1:2:0:0:
306,215,22817,2,0,L|315:152,1,47.3999985534668,2|0,0:0|0:0,0:0:0:0:
428,50,22989,6,0,P|444:109|410:171,1,118.5,6|0,1:2|0:0,0:0:0:0:
407,282,23331,6,0,P|384:225|427:156,1,142.199995660401,6|0,1:2|0:0,0:0:0:0:
506,124,23674,2,0,L|492:244,1,94.7999971069337,2|2,1:2|0:0,0:0:0:0:
276,234,24017,1,6,1:2:0:0:
293,218,24102,1,0,0:0:0:0:
314,208,24188,1,0,0:0:0:0:
338,207,24274,1,0,0:0:0:0:
360,213,24359,1,2,1:2:0:0:
382,358,24531,1,2,0:0:0:0:
335,361,24616,1,0,0:0:0:0:
298,333,24703,6,0,P|349:311|407:336,1,94.7999971069337,6|0,1:2|0:0,0:0:0:0:
320,177,25046,1,2,1:2:0:0:
320,177,25131,1,0,0:0:0:0:
186,220,25303,1,0,0:0:0:0:
186,220,25389,1,6,1:2:0:0:
188,243,25474,1,0,0:0:0:0:
190,267,25560,1,0,0:0:0:0:
193,290,25646,1,0,0:0:0:0:
195,314,25731,5,2,1:2:0:0:
199,278,25816,1,2,0:0:0:0:
203,243,25902,1,2,0:0:0:0:
208,208,25988,1,2,0:0:0:0:
212,172,26074,6,0,P|132:155|102:180,1,94.7999971069337,6|2,1:2|0:0,0:0:0:0:
73,222,26331,1,0,0:0:0:0:
73,222,26417,2,0,L|80:271,1,47.3999985534668,2|0,1:2|0:0,0:0:0:0:
174,331,26589,2,0,L|157:202,1,94.7999971069337,2|4,0:0|3:0,0:0:0:0:
65,80,26931,1,2,0:0:0:0:
65,80,27017,1,0,0:0:0:0:
65,80,27103,1,2,1:2:0:0:
73,222,27274,1,2,0:0:0:0:
151,99,27446,5,6,1:2:0:0:
14,152,27617,1,2,0:0:0:0:
154,191,27789,1,2,1:2:0:0:
65,80,27960,1,2,0:0:0:0:
73,222,28131,1,6,1:2:0:0:
317,111,28474,1,2,0:0:0:0:
317,111,28646,1,0,0:0:0:0:
317,111,28817,5,6,1:2:0:0:
396,146,29160,1,2,1:2:0:0:
358,232,29503,1,4,3:0:0:0:
279,197,29846,1,2,1:2:0:0:
396,146,30189,5,4,3:0:0:0:
358,232,30531,1,2,1:2:0:0:
279,198,30874,1,4,3:0:0:0:
317,111,31217,1,2,1:2:0:0:
358,232,31389,1,2,0:0:0:0:
237,349,31560,5,4,3:0:0:0:
208,268,31903,1,2,1:2:0:0:
288,282,32246,1,4,3:0:0:0:
237,349,32589,1,2,1:2:0:0:
237,349,32760,1,0,0:0:0:0:
154,331,32931,6,0,L|57:340,1,79,2|2,1:2|3:0,0:0:0:0:
60,344,33189,1,0,0:0:0:0:
45,351,33274,2,0,L|52:280,1,39.5,2|0,1:3|0:0,0:0:0:0:
106,219,33446,2,0,L|109:258,1,39.5,0|0,3:0|0:0,0:0:0:0:
38,166,33617,2,0,L|46:71,1,79,0|0,3:0|3:0,0:0:0:0:
46,71,33874,1,0,0:0:0:0:
48,55,33960,2,0,P|97:74|41:73,1,142.199995660401,2|0,3:0|0:0,0:0:0:0:
131,72,34303,5,6,1:2:0:0:
217,56,34989,1,6,1:2:0:0:
304,38,35674,5,6,1:2:0:0:
217,56,36017,1,6,3:0:0:0:
131,72,36360,1,6,1:2:0:0:
47,90,36703,1,2,0:0:0:0:
192,140,37046,5,6,1:2:0:0:
182,232,37731,1,6,1:2:0:0:
105,285,38417,5,6,1:2:0:0:
182,232,38760,1,6,1:2:0:0:
192,140,39103,1,6,1:2:0:0:
131,72,39446,2,0,P|90:80|25:92,1,94.8,2|0,1:2|0:0,0:0:0:0:
217,56,39789,5,6,1:2:0:0:
307,22,40474,1,6,1:2:0:0:
388,81,41160,5,6,1:2:0:0:
307,22,41503,1,6,3:0:0:0:
217,56,41846,1,6,1:2:0:0:
198,154,42189,1,2,0:0:0:0:
358,271,42531,5,6,1:2:0:0:
319,185,43217,1,2,1:2:0:0:
269,266,43903,2,0,L|285:355,1,79,6|0,1:2|3:0,0:0:0:0:
371,348,44246,2,0,L|357:270,1,79,6|2,1:2|3:2,0:0:0:0:
239,191,44589,5,6,1:2:0:0:
206,213,44674,1,0,0:0:0:0:
188,244,44760,1,0,0:0:0:0:
184,275,44846,1,0,0:0:0:0:
190,301,44931,1,12,3:0:0:0:
203,320,45017,1,0,0:0:0:0:
219,331,45103,1,0,0:0:0:0:
233,337,45189,1,0,0:0:0:0:
269,266,45274,5,6,1:2:0:0:
184,275,45446,1,2,0:0:0:0:
269,266,45617,1,2,1:2:0:0:
119,214,45960,5,2,1:2:0:0:
269,266,46131,1,2,0:0:0:0:
119,214,46302,1,2,1:2:0:0:
319,194,46646,5,6,1:2:0:0:
184,275,46817,1,2,0:0:0:0:
180,118,46989,2,0,L|285:129,1,94.7999971069337,2|2,1:2|0:0,0:0:0:0:
319,194,47246,1,0,0:0:0:0:
340,212,47331,6,0,L|445:201,1,94.7999971069337,2|2,1:2|0:0,0:0:0:0:
460,68,47674,2,0,P|394:68|359:113,1,94.7999971069337,2|2,1:2|0:0,0:0:0:0:
402,295,48017,5,6,1:2:0:0:
434,202,48189,1,2,0:0:0:0:
340,212,48360,1,2,1:2:0:0:
402,295,48531,1,2,0:0:0:0:
434,202,48703,5,2,1:2:0:0:
340,212,48874,1,2,0:0:0:0:
306,304,49046,1,2,1:2:0:0:
363,384,49217,1,2,0:0:0:0:
434,202,49389,5,2,1:2:0:0:
306,304,49560,1,2,0:0:0:0:
285,144,49731,1,2,3:0:0:0:
434,202,49903,1,2,0:0:0:0:
223,231,50074,5,6,1:2:0:0:
465,120,50417,1,6,1:2:0:0:
185,128,50760,5,6,1:2:0:0:
285,144,50932,1,2,0:0:0:0:
185,128,51103,1,2,1:2:0:0:
365,209,51446,5,2,1:2:0:0:
223,231,51618,1,2,0:0:0:0:
365,209,51789,1,2,1:2:0:0:
133,256,52131,5,6,1:2:0:0:
299,287,52303,1,2,0:0:0:0:
133,256,52474,2,0,L|33:268,1,94.7999971069337,2|2,1:2|0:0,0:0:0:0:
0,198,52731,1,0,0:0:0:0:
0,168,52817,2,0,P|29:131|74:117,1,94.7999971069337,2|2,1:2|0:0,0:0:0:0:
198,206,53160,2,0,P|215:250|205:296,1,94.7999971069337,2|2,1:2|0:0,0:0:0:0:
156,129,53503,5,6,1:2:0:0:
241,131,53674,1,8,3:0:0:0:
329,132,53846,1,4,3:0:0:0:
414,134,54017,1,8,3:0:0:0:
433,119,54189,5,6,1:2:0:0:
329,132,54360,1,10,3:3:0:0:
230,151,54531,1,6,1:2:0:0:
130,167,54703,1,2,0:0:0:0:
300,234,54874,5,6,1:2:0:0:
277,45,55046,1,2,0:0:0:0:
130,167,55217,1,4,3:0:0:0:
329,132,55389,1,8,3:0:0:0:
153,67,55560,1,6,1:2:0:0:
190,258,55903,5,6,0:0:0:0:
424,209,56246,1,12,1:3:0:0:
94,270,61731,6,0,P|141:274|193:279,1,79,6|0,1:2|0:0,0:0:0:0:
203,191,62074,2,0,P|156:187|104:182,1,79,4|0,1:3|0:0,0:0:0:0:
231,383,62417,2,0,P|286:325|265:256,1,158,8|4,3:0|1:3,0:0:0:0:
265,256,63103,5,12,3:0:0:0:
365,272,63274,1,8,3:0:0:0:
323,93,63446,5,4,3:0:0:0:
223,77,63617,1,8,3:0:0:0:
343,182,63789,5,4,3:0:0:0:
366,179,63874,1,0,0:0:0:0:
389,177,63960,1,8,3:0:0:0:
412,175,64046,1,0,0:0:0:0:
435,172,64131,2,0,P|468:126|402:83,1,118.5,12|0,1:3|0:0,0:0:0:0:
429,85,64474,6,0,P|379:80|309:64,1,94.7999971069337,6|0,1:2|0:0,0:0:0:0:
154,164,64817,2,0,P|163:210|167:257,1,94.7999971069337,2|0,1:2|0:0,0:0:0:0:
233,313,65074,1,0,0:0:0:0:
233,313,65160,6,0,B|119:301|183:348|36:335,1,154.049992948151,6|0,1:2|0:0,0:0:0:0:
68,338,65503,2,0,P|76:371|75:408,1,47.3999985534668,2|0,1:2|0:0,0:0:0:0:
64,218,65674,1,4,3:0:0:0:
233,313,65846,6,0,P|276:307|336:304,1,94.7999971069337,6|0,1:2|0:0,0:0:0:0:
381,151,66189,2,0,P|338:157|278:160,1,94.7999971069337,4|0,3:0|0:0,0:0:0:0:
412,345,66531,2,0,P|466:312|437:220,1,142.199995660401,6|0,1:2|0:0,0:0:0:0:
461,240,66874,6,0,L|468:171,1,59.25,12|0,1:3|0:0,0:0:0:0:
368,21,67217,6,0,L|381:159,1,130.350003977966,12|0,3:0|0:0,0:0:0:0:
266,183,67560,2,0,L|343:190,1,43.4500013259888,6|0,1:2|0:0,0:0:0:0:
377,231,67731,1,2,3:0:0:0:
285,319,67903,5,4,3:0:0:0:
181,152,68074,2,0,L|177:195,1,43.4500013259888,2|0,3:0|0:0,0:0:0:0:
102,342,68246,2,0,B|74:329|74:329|70:245,1,102.699995298767,2|2,1:0|1:0,0:0:0:0:
50,78,68589,6,0,B|78:91|78:91|82:175,1,102.699995298767,4|2,3:0|0:1,0:0:0:0:
168,285,68931,1,6,1:3:0:0:
70,257,69103,2,0,L|10:263,1,43.4500013259888,2|0,3:0|0:0,0:0:0:0:
177,195,69274,6,0,B|299:177|241:258|384:232,1,205.399990597535,6|6,1:2|1:2,0:0:0:0:
370,234,69789,2,0,P|366:267|362:310,1,51.3499976493837,0|0,0:0|0:0,0:0:0:0:
471,246,69960,6,0,P|472:152|388:120,1,173.800005303955,12|6,1:3|1:2,0:0:0:0:
335,148,70474,1,0,3:0:0:0:
364,285,70646,2,0,B|249:277|300:312|166:303,1,173.800005303955,12|12,3:0|1:3,0:0:0:0:
111,182,71160,1,2,3:0:0:0:
109,292,71331,5,6,1:2:0:0:
196,196,71503,1,2,3:2:0:0:
109,292,71674,2,0,P|66:299|-1:302,1,79,2|2,1:2|3:2,0:0:0:0:
192,304,72017,2,0,P|250:267|321:279,1,118.5,6|0,1:2|0:0,0:0:0:0:
297,268,72360,6,0,P|293:308|291:340,1,59.25,12|0,1:3|0:0,0:0:0:0:
458,305,72703,6,0,P|433:243|358:243,1,130.350003977966,12|0,3:0|0:0,0:0:0:0:
297,268,73046,2,0,L|291:216,1,43.4500013259888,6|0,1:2|0:0,0:0:0:0:
281,123,73217,1,2,3:0:0:0:
190,238,73389,6,0,L|98:234,1,86.9000026519776,4|2,1:3|3:0,0:0:0:0:
12,190,73646,1,0,0:0:0:0:
12,190,73731,2,0,L|20:257,1,51.3499976493837,2|0,1:0|0:0,0:0:0:0:
74,372,73903,2,0,L|66:305,1,51.3499976493837,2|0,0:1|0:0,0:0:0:0:
182,140,74074,6,0,B|202:189|202:189|185:253,1,102.699995298767,4|2,1:3|0:1,0:0:0:0:
155,319,74417,2,0,L|227:325,1,51.3499976493837,2|0,1:3|0:0,0:0:0:0:
307,358,74589,1,2,0:0:0:0:
347,355,74674,1,0,0:0:0:0:
388,352,74760,6,0,B|420:327|420:327|409:243,1,102.699995298767,14|0,1:3|0:0,0:0:0:0:
379,190,75017,1,0,0:0:0:0:
379,190,75103,2,0,L|248:205,1,102.699995298767,12|0,3:0|0:0,0:0:0:0:
351,97,75446,5,6,1:2:0:0:
351,97,75789,2,0,L|290:89,1,43.4500013259888,6|0,1:2|0:0,0:0:0:0:
276,201,75960,2,0,L|215:209,1,43.4500013259888,2|0,3:2|0:0,0:0:0:0:
83,152,76131,5,6,1:2:0:0:
192,79,76303,2,0,L|187:145,1,43.4500013259888,2|0,3:2|0:0,0:0:0:0:
153,195,76474,2,0,L|148:261,1,43.4500013259888,2|0,1:2|0:0,0:0:0:0:
114,311,76646,2,0,L|109:377,1,43.4500013259888,2|0,3:2|0:0,0:0:0:0:
201,307,76817,6,0,B|329:292|259:357|419:335,2,205.399990597535,6|4|2,1:2|1:3|1:2,0:0:0:0:
201,307,77846,6,0,P|210:348|209:377,1,59.25,12|0,1:3|0:0,0:0:0:0:
282,229,78189,6,0,P|223:206|224:119,1,130.350003977966,12|0,3:0|0:0,0:0:0:0:
275,104,78531,1,6,1:2:0:0:
172,20,78703,2,0,P|175:50|178:87,1,43.4500013259888,0|0,3:0|0:0,0:0:0:0:
134,210,78874,6,0,L|25:203,1,86.9000026519776,6|2,1:3|3:0,0:0:0:0:
51,208,79131,1,0,0:0:0:0:
51,208,79217,2,0,L|59:288,1,43.4500013259888,2|0,1:0|0:0,0:0:0:0:
167,355,79389,2,0,L|162:303,1,51.3499976493837,2|0,3:1|0:0,0:0:0:0:
294,136,79560,6,0,B|269:166|269:166|287:254,1,102.699995298767,12|2,1:3|0:1,0:0:0:0:
354,321,79903,2,0,L|463:317,1,102.699995298767,2|2,1:0|3:0,0:0:0:0:
460,321,80160,1,0,0:0:0:0:
460,321,80246,6,0,P|465:230|476:161,1,130.350003977966,6|0,1:2|0:0,0:0:0:0:
385,36,80589,2,0,P|392:79|399:137,1,86.9000026519776,4|0,1:3|0:0,0:0:0:0:
373,204,80846,1,0,0:0:0:0:
373,204,80931,6,0,B|271:196|315:243|193:233,1,154.049992948151,12|0,1:3|0:0,0:0:0:0:
151,267,81274,5,2,1:3:0:0:
144,247,81360,1,2,0:0:0:0:
144,226,81446,1,2,3:0:0:0:
148,206,81531,1,2,0:0:0:0:
158,192,81617,6,0,L|150:123,4,43.4500013259888,2|2|2|2|2,1:3|0:0|3:0|0:0|1:0,0:0:0:0:
39,214,82131,1,2,3:2:0:0:
39,214,82217,1,2,0:0:0:0:
39,214,82303,6,0,B|10:164|10:164|29:104,1,102.699995298767,6|0,1:2|0:0,0:0:0:0:
32,110,82560,2,0,L|93:118,1,51.3499976493837,2|0,0:0|0:0,0:0:0:0:
71,299,82817,2,0,L|10:291,1,51.3499976493837,2|0,0:0|0:0,0:0:0:0:
167,365,82989,6,0,P|170:338|165:300,1,51.3499976493837,2|0,1:2|0:0,0:0:0:0:
268,224,83160,2,0,P|265:251|270:289,1,51.3499976493837,2|0,0:0|0:0,0:0:0:0:
313,355,83331,1,2,0:0:0:0:
337,328,83417,1,0,0:0:0:0:
372,321,83503,1,2,0:0:0:0:
407,325,83589,1,0,0:0:0:0:
436,345,83674,6,0,P|409:277|464:244,1,130.350003977966,12|0,1:3|0:0,0:0:0:0:
462,250,84017,2,0,L|458:184,1,43.4500013259888,6|0,1:2|0:0,0:0:0:0:
363,173,84189,2,0,L|359:107,1,43.4500013259888,2|0,3:0|0:0,0:0:0:0:
268,224,84360,5,4,1:3:0:0:
235,211,84446,1,0,0:0:0:0:
200,215,84531,1,2,3:0:0:0:
172,236,84617,1,0,0:0:0:0:
161,269,84703,2,0,P|133:262|95:259,1,51.3499976493837,2|0,1:0|0:0,0:0:0:0:
35,141,84874,2,0,L|101:135,1,51.3499976493837,2|0,0:1|0:0,0:0:0:0:
234,19,85046,6,0,B|202:46|202:46|220:129,1,102.699995298767,12|2,1:3|0:1,0:0:0:0:
343,259,85389,2,0,B|375:232|375:232|357:149,1,102.699995298767,12|2,1:3|3:0,0:0:0:0:
366,176,85646,1,0,0:0:0:0:
366,176,85731,6,0,P|425:183|493:185,1,118.500004520416,6|0,1:2|0:0,0:0:0:0:
276,337,86074,2,0,P|217:330|149:328,1,118.500004520416,12|0,1:3|0:0,0:0:0:0:
69,339,86417,5,6,1:2:0:0:
58,335,86589,1,2,0:0:0:0:
58,323,86760,1,2,3:0:0:0:
69,320,86931,1,2,0:0:0:0:
76,329,87103,5,6,1:2:0:0:
57,178,87274,1,2,0:0:0:0:
125,242,87446,1,2,3:2:0:0:
144,91,87617,1,6,1:2:0:0:
144,91,87960,6,0,L|75:84,1,43.4500013259888,2|0,1:2|0:0,0:0:0:0:
219,189,88131,2,0,L|288:182,1,43.4500013259888,2|0,1:2|0:0,0:0:0:0:
210,198,88474,6,0,L|297:189,1,59.2500022602082,6|0,1:2|0:0,0:0:0:0:
393,171,88646,1,2,3:0:0:0:
393,171,88731,1,0,0:0:0:0:
393,171,88817,2,0,P|317:197|327:282,1,154.049992948151,12|0,3:0|0:0,0:0:0:0:
355,331,89160,6,0,P|409:326|487:294,1,126.4,2|2,1:2|0:0,0:0:0:0:
157,331,89846,2,0,P|103:326|25:294,1,126.4,6|2,1:2|0:0,0:0:0:0:
94,69,90531,2,0,L|108:153,1,63.2,6|0,1:2|0:0,0:0:0:0:
120,210,90874,2,0,P|182:211|208:164,1,94.8,4|0,3:0|0:0,0:0:0:0:
206,176,91217,1,6,1:2:0:0:
355,53,91903,6,0,P|409:58|487:90,1,126.4,6|2,1:2|0:0,0:0:0:0:
157,53,92589,2,0,P|103:58|25:90,1,126.4,6|2,1:2|0:0,0:0:0:0:
104,267,93274,2,0,L|119:176,1,63.2,6|2,1:2|3:0,0:0:0:0:
117,192,93531,1,0,0:0:0:0:
117,192,93617,2,0,P|151:180|199:185,1,63.2,2|2,1:2|3:0,0:0:0:0:
311,255,93960,2,0,P|282:261|268:261,1,31.6,4|0,1:3|0:0,0:0:0:0:
373,202,94131,1,2,0:0:0:0:
383,220,94216,1,0,0:0:0:0:
389,240,94302,1,12,1:3:0:0:
390,261,94388,1,0,0:0:0:0:
386,281,94473,1,0,0:0:0:0:
378,300,94559,1,0,0:0:0:0:
365,317,94646,6,0,P|347:258|378:198,1,126.4,6|2,1:2|0:0,0:0:0:0:
138,202,95331,2,0,P|164:257|147:317,1,126.4,6|2,1:2|0:0,0:0:0:0:
98,129,96017,2,0,P|135:117|182:132,1,63.2,6|0,1:2|0:0,0:0:0:0:
225,169,96360,2,0,L|339:160,1,94.8,6|0,1:2|0:0,0:0:0:0:
332,161,96703,1,6,1:2:0:0:
470,169,97217,1,2,0:0:0:0:
467,181,97303,1,0,0:0:0:0:
465,193,97389,5,6,1:2:0:0:
388,129,97560,1,2,0:0:0:0:
328,205,97731,1,2,0:0:0:0:
405,269,97902,1,2,0:0:0:0:
388,129,98074,1,2,1:2:0:0:
310,68,98246,2,0,L|264:73,1,31.6,2|2,0:0|0:0,0:0:0:0:
217,121,98417,2,0,L|97:111,1,94.8,2|0,0:0|0:0,0:0:0:0:
109,113,98760,5,12,1:3:0:0:
89,326,99103,2,0,L|99:255,1,39.5,2|0,3:0|0:0,0:0:0:0:
167,227,99274,2,0,L|157:156,1,39.5,2|0,3:0|0:0,0:0:0:0:
109,113,99446,2,0,P|106:61|177:16,1,118.5,14|0,1:3|0:0,0:0:0:0:
167,18,99789,2,0,L|160:64,3,39.5,12|0|0|0,3:0|0:0|0:0|0:0,0:0:0:0:
217,121,100131,5,2,1:2:0:0:
302,112,100303,1,2,0:0:0:0:
217,121,100474,1,2,1:2:0:0:
367,173,100817,5,2,1:2:0:0:
217,121,100988,1,2,0:0:0:0:
367,173,101159,1,2,1:2:0:0:
167,193,101503,5,6,1:2:0:0:
302,112,101674,1,2,0:0:0:0:
306,269,101846,2,0,L|201:258,1,94.7999971069337,2|2,1:2|0:0,0:0:0:0:
167,193,102103,1,0,0:0:0:0:
146,175,102188,6,0,L|41:186,1,94.7999971069337,2|2,1:2|0:0,0:0:0:0:
26,319,102531,2,0,P|92:319|127:274,1,94.7999971069337,2|2,1:2|0:0,0:0:0:0:
84,92,102874,5,6,1:2:0:0:
52,185,103046,1,2,0:0:0:0:
146,175,103217,1,2,1:2:0:0:
84,92,103388,1,2,0:0:0:0:
52,185,103560,5,2,1:2:0:0:
146,175,103731,1,2,0:2:0:0:
180,83,103903,1,2,1:2:0:0:
123,3,104074,1,2,0:0:0:0:
52,185,104246,5,2,1:2:0:0:
180,83,104417,1,2,0:0:0:0:
201,243,104588,1,2,3:0:0:0:
52,185,104760,1,2,0:0:0:0:
263,156,104931,5,6,1:2:0:0:
21,267,105274,1,6,1:2:0:0:
301,259,105617,5,6,1:2:0:0:
201,243,105789,1,2,0:0:0:0:
301,259,105960,1,2,1:2:0:0:
121,178,106303,5,2,1:2:0:0:
263,156,106475,1,2,0:0:0:0:
121,178,106646,1,2,1:2:0:0:
353,131,106988,5,6,1:2:0:0:
187,100,107160,1,2,0:0:0:0:
353,131,107331,2,0,L|453:119,1,94.7999971069337,2|2,1:2|0:0,0:0:0:0:
486,189,107588,1,0,0:0:0:0:
486,219,107674,2,0,P|457:256|412:270,1,94.7999971069337,2|2,1:2|0:0,0:0:0:0:
288,181,108017,2,0,P|271:137|281:91,1,94.7999971069337,2|2,1:2|0:0,0:0:0:0:
330,258,108360,5,6,1:2:0:0:
245,256,108531,1,8,3:0:0:0:
157,255,108703,1,2,1:2:0:0:
72,253,108874,1,8,3:0:0:0:
53,268,109046,5,6,1:2:0:0:
157,255,109217,1,10,3:3:0:0:
256,236,109388,1,6,1:2:0:0:
356,220,109560,1,2,0:0:0:0:
186,153,109731,5,6,1:2:0:0:
209,342,109903,1,2,0:0:0:0:
356,220,110074,1,6,1:2:0:0:
157,255,110246,1,4,3:0:0:0:
333,320,110417,1,6,1:2:0:0:
296,129,110760,5,12,1:3:0:0:
62,178,111103,2,0,L|75:45,1,118.5,6|0,0:0|0:0,0:0:0:0:
76,44,111446,2,0,P|119:23|166:46,1,79,2|0,1:2|0:0,0:0:0:0:
159,39,111703,1,0,0:0:0:0:
171,49,111789,2,0,P|214:70|261:47,1,79,2|0,1:2|0:0,0:0:0:0:
394,26,112131,1,2,1:2:0:0:
394,26,112303,1,0,0:0:0:0:
344,214,112474,6,0,B|314:187|314:187|324:61,2,158,2|2|2,1:2|1:2|1:2,0:0:0:0:
344,214,113503,1,2,1:2:0:0:
440,197,113674,1,2,0:0:0:0:
361,310,113846,6,0,L|263:296,1,79,2|0,1:2|0:0,0:0:0:0:
121,245,114189,2,0,L|199:233,1,79,2|2,1:2|0:0,0:0:0:0:
106,331,114531,1,2,1:2:0:0:
40,217,114703,1,0,0:0:0:0:
154,147,114874,1,0,1:2:0:0:
220,261,115046,1,2,0:0:0:0:
40,217,115217,6,0,L|48:109,1,79,2|0,1:2|0:0,0:0:0:0:
147,42,115560,2,0,L|152:120,1,79,2|0,1:2|0:0,0:0:0:0:
240,228,115903,2,0,L|253:91,1,118.5,2|0,1:2|0:0,0:0:0:0:
251,110,116246,2,0,P|301:121|343:77,1,94.8,6|0,1:2|0:0,0:0:0:0:
373,23,116589,6,0,L|497:35,1,118.5,6|0,1:2|0:0,0:0:0:0:
501,46,116931,2,0,P|499:104|477:129,1,79,2|0,1:2|0:0,0:0:0:0:
475,129,117189,1,0,0:0:0:0:
462,138,117274,2,0,P|464:196|486:221,1,79,6|0,1:2|0:0,0:0:0:0:
479,349,117617,2,0,L|373:339,1,79,2|0,1:2|0:0,0:0:0:0:
247,274,117960,6,0,B|274:243|274:243|415:256,2,158,6|2|6,1:2|1:2|1:2,0:0:0:0:
247,274,118989,1,2,1:2:0:0:
326,72,119331,5,4,1:2:0:0:
233,93,119503,1,2,0:0:0:0:
140,114,119674,1,2,1:2:0:0:
47,137,119846,1,2,0:0:0:0:
115,23,120017,5,2,1:2:0:0:
164,208,120360,1,2,1:2:0:0:
115,23,120703,5,6,1:2:0:0:
143,14,120788,1,0,0:0:0:0:
172,16,120874,1,2,0:0:0:0:
198,29,120960,1,0,0:0:0:0:
218,51,121045,1,4,3:0:0:0:
237,72,121131,1,0,0:0:0:0:
264,85,121217,1,8,3:0:0:0:
293,88,121303,1,0,0:0:0:0:
321,79,121389,2,0,L|313:36,3,39.5,2|0|2|0,1:2|0:0|0:0|0:0,0:0:0:0:
388,130,121731,2,0,L|369:271,1,118.5,6|0,0:0|0:0,0:0:0:0:
372,263,122074,5,6,1:2:0:0:
276,286,122417,1,2,1:2:0:0:
372,263,122760,1,2,1:2:0:0:
276,286,123103,1,2,1:2:0:0:
372,263,123446,5,2,1:2:0:0:
349,165,123789,1,2,1:2:0:0:
253,188,124132,1,2,1:2:0:0:
372,263,124474,5,2,1:2:0:0:
370,127,124646,1,2,0:0:0:0:
253,188,124817,5,6,1:2:0:0:
134,167,125160,1,2,1:2:0:0:
253,188,125503,1,6,1:2:0:0:
134,167,125846,2,0,L|145:235,1,39.5,6|0,1:2|0:0,0:0:0:0:
154,284,126017,2,0,L|165:352,1,39.5,2|0,0:0|0:0,0:0:0:0:
328,236,126189,6,0,B|300:212|300:212|200:225,1,118.5,6|0,1:2|0:0,0:0:0:0:
154,284,126531,2,0,P|215:313|265:299,1,118.5,4|0,1:0|0:0,0:0:0:0:
219,222,126874,1,6,1:2:0:0:
