osu file format v14

[General]
AudioFilename: audio.mp3
AudioLeadIn: 0
PreviewTime: 44931
Countdown: 1
SampleSet: Normal
StackLeniency: 0.7
Mode: 1
LetterboxInBreaks: 0
WidescreenStoryboard: 1

[Editor]
Bookmarks: 12703,13046,13389,13731,14074,14417,14760,14931,23331,24017,24703,25389,26074,37046,37731,38417,38760,39103,39789,40474,41160,41846,42189,42531,43217,43903
DistanceSpacing: 1
BeatDivisor: 2
GridSize: 32
TimelineZoom: 1.3

[Metadata]
Title:Blessing Snow
TitleUnicode:Blessing Snow
Artist:Memme
ArtistUnicode:Memme
Creator:Neppy5000
Version:Futsuu
Source:
Tags:
BeatmapID:1882718
BeatmapSetID:897530

[Difficulty]
HPDrainRate:6
CircleSize:4
OverallDifficulty:6
ApproachRate:10
SliderMultiplier:1.4
SliderTickRate:1

[Events]
//Background and Video events
0,0,"Shuuzo.jpg",0,0
//Break Periods
//Storyboard Layer 0 (Background)
//Storyboard Layer 1 (Fail)
//Storyboard Layer 2 (Pass)
//Storyboard Layer 3 (Foreground)
//Storyboard Sound Samples

[TimingPoints]
1389,342.857142857143,4,1,1,100,1,0
1389,-133.333333333333,4,1,1,100,0,0
5503,-100,4,1,1,100,0,0
6531,-133.333333333333,4,1,1,100,0,0
9103,-100,4,1,1,100,0,1
28131,-100,4,1,1,100,0,0
28231,-133.333333333333,4,1,1,100,0,0
38331,-100,4,1,1,100,0,0
45274,-100,4,1,1,100,0,1
56246,-100,4,1,1,100,0,0
56417,-133.333333333333,4,1,1,100,0,0
64474,-100,4,1,1,100,0,0
67217,-100,4,1,1,100,0,1
88817,-100,4,1,1,100,0,0
99789,-100,4,1,1,100,0,1
110417,-100,4,1,1,100,0,0
111103,-133.333333333333,4,1,1,100,0,0
120703,-100,4,1,1,100,0,0
122417,-133.333333333333,4,1,1,100,0,0
125846,-100,4,1,1,100,0,0

[HitObjects]
256,192,1217,5,0,0:0:0:0:
256,192,1389,1,4,0:0:0:0:
256,192,2760,1,4,0:0:0:0:
256,192,3274,1,4,0:0:0:0:
256,192,3617,1,4,0:0:0:0:
256,192,4131,1,4,0:0:0:0:
256,192,5503,1,4,0:0:0:0:
256,192,5675,1,8,0:0:0:0:
256,192,5846,1,8,0:0:0:0:
256,192,6189,1,8,0:0:0:0:
256,192,6360,1,8,0:0:0:0:
256,192,6531,1,0,0:0:0:0:
256,192,6874,1,4,0:0:0:0:
256,192,8246,1,4,0:0:0:0:
256,192,8760,1,4,0:0:0:0:
256,192,9103,1,4,0:0:0:0:
256,192,9446,1,8,0:0:0:0:
256,192,9617,1,12,0:0:0:0:
256,192,10131,1,12,0:0:0:0:
256,192,10646,1,12,0:0:0:0:
256,192,11160,1,4,0:0:0:0:
256,192,11674,1,4,0:0:0:0:
256,192,12017,1,12,0:0:0:0:
256,192,12189,1,4,0:0:0:0:
256,192,12703,1,0,0:0:0:0:
256,192,13046,1,0,0:0:0:0:
256,192,13389,1,8,0:0:0:0:
256,192,13731,1,8,0:0:0:0:
256,192,14074,1,8,0:0:0:0:
256,192,14417,1,0,0:0:0:0:
256,192,14760,1,0,0:0:0:0:
256,192,14931,1,12,0:0:0:0:
256,192,15446,1,8,0:0:0:0:
256,192,15789,1,8,0:0:0:0:
256,192,16131,1,0,0:0:0:0:
256,192,16474,1,8,0:0:0:0:
256,192,16817,1,0,0:0:0:0:
256,192,16989,1,8,0:0:0:0:
256,192,17160,1,8,0:0:0:0:
256,192,17503,1,0,0:0:0:0:
256,192,17846,1,8,0:0:0:0:
256,192,18189,1,0,0:0:0:0:
256,192,18360,1,0,0:0:0:0:
256,192,18531,1,8,0:0:0:0:
256,192,18874,1,8,0:0:0:0:
256,192,19217,1,0,0:0:0:0:
256,192,19560,1,0,0:0:0:0:
256,192,19731,1,0,0:0:0:0:
256,192,19903,1,8,0:0:0:0:
256,192,20246,1,8,0:0:0:0:
256,192,20417,1,8,0:0:0:0:
256,192,20589,1,0,0:0:0:0:
256,192,20931,1,0,0:0:0:0:
256,192,21103,1,0,0:0:0:0:
256,192,21274,1,0,0:0:0:0:
256,192,21617,1,8,0:0:0:0:
256,192,21960,1,8,0:0:0:0:
256,192,22303,1,8,0:0:0:0:
256,192,22646,1,0,0:0:0:0:
256,192,22989,1,8,0:0:0:0:
256,192,23331,1,12,0:0:0:0:
256,192,24017,1,12,0:0:0:0:
256,192,24703,1,4,0:0:0:0:
256,192,25389,1,4,0:0:0:0:
256,192,26074,1,4,0:0:0:0:
256,192,26417,1,0,0:0:0:0:
256,192,26589,1,0,0:0:0:0:
256,192,26760,1,8,0:0:0:0:
256,192,27103,1,8,0:0:0:0:
256,192,27274,1,8,0:0:0:0:
256,192,27446,1,0,0:0:0:0:
256,192,27789,1,0,0:0:0:0:
256,192,28131,1,0,0:0:0:0:
256,192,28474,1,8,0:0:0:0:
256,192,28646,1,8,0:0:0:0:
256,192,28817,1,8,0:0:0:0:
256,192,29160,1,0,0:0:0:0:
256,192,29503,1,8,0:0:0:0:
256,192,29846,1,0,0:0:0:0:
256,192,30189,1,8,0:0:0:0:
256,192,30531,1,0,0:0:0:0:
256,192,30874,1,8,0:0:0:0:
256,192,31217,1,8,0:0:0:0:
256,192,31389,1,8,0:0:0:0:
256,192,31560,1,8,0:0:0:0:
256,192,31903,1,0,0:0:0:0:
256,192,32246,1,8,0:0:0:0:
256,192,32589,1,8,0:0:0:0:
256,192,32760,1,8,0:0:0:0:
256,192,32931,1,0,0:0:0:0:
256,192,33274,1,8,0:0:0:0:
256,192,33617,1,8,0:0:0:0:
256,192,33960,1,0,0:0:0:0:
256,192,34303,1,4,0:0:0:0:
256,192,34989,1,12,0:0:0:0:
256,192,35674,1,12,0:0:0:0:
256,192,36360,1,12,0:0:0:0:
256,192,36703,1,4,0:0:0:0:
256,192,37046,1,4,0:0:0:0:
256,192,37731,1,4,0:0:0:0:
256,192,38417,1,12,0:0:0:0:
256,192,38760,1,4,0:0:0:0:
256,192,39103,1,4,0:0:0:0:
256,192,39446,1,8,0:0:0:0:
256,192,39789,1,4,0:0:0:0:
256,192,40474,1,4,0:0:0:0:
256,192,41160,1,12,0:0:0:0:
256,192,41846,1,12,0:0:0:0:
256,192,42189,1,4,0:0:0:0:
256,192,42531,1,4,0:0:0:0:
256,192,43217,1,4,0:0:0:0:
256,192,43903,1,4,0:0:0:0:
256,192,44246,1,12,0:0:0:0:
256,192,44417,1,12,0:0:0:0:
256,192,44589,1,4,0:0:0:0:
256,192,44931,1,8,0:0:0:0:
256,192,45274,1,0,0:0:0:0:
256,192,45446,1,0,0:0:0:0:
256,192,45617,1,0,0:0:0:0:
256,192,45960,1,0,0:0:0:0:
256,192,46131,1,0,0:0:0:0:
256,192,46303,1,0,0:0:0:0:
256,192,46646,1,0,0:0:0:0:
256,192,46817,1,8,0:0:0:0:
256,192,46989,1,0,0:0:0:0:
256,192,47331,1,8,0:0:0:0:
256,192,48017,1,8,0:0:0:0:
256,192,48189,1,8,0:0:0:0:
256,192,48360,1,8,0:0:0:0:
256,192,48703,1,8,0:0:0:0:
256,192,48874,1,0,0:0:0:0:
256,192,49046,1,0,0:0:0:0:
256,192,49389,1,8,0:0:0:0:
256,192,49560,1,0,0:0:0:0:
256,192,49731,1,0,0:0:0:0:
256,192,50074,1,0,0:0:0:0:
256,192,50417,1,8,0:0:0:0:
256,192,50760,1,0,0:0:0:0:
256,192,50931,1,0,0:0:0:0:
256,192,51103,1,0,0:0:0:0:
256,192,51446,1,0,0:0:0:0:
256,192,51617,1,0,0:0:0:0:
256,192,51789,1,0,0:0:0:0:
256,192,52131,1,0,0:0:0:0:
256,192,52303,1,8,0:0:0:0:
256,192,52474,1,0,0:0:0:0:
256,192,52817,1,8,0:0:0:0:
256,192,53503,1,8,0:0:0:0:
256,192,53674,1,8,0:0:0:0:
256,192,53846,1,8,0:0:0:0:
256,192,54189,1,8,0:0:0:0:
256,192,54360,1,0,0:0:0:0:
256,192,54531,1,0,0:0:0:0:
256,192,54874,1,8,0:0:0:0:
256,192,55046,1,8,0:0:0:0:
256,192,55217,1,8,0:0:0:0:
256,192,55560,1,0,0:0:0:0:
256,192,55903,1,12,0:0:0:0:
256,192,56246,1,4,0:0:0:0:
256,192,56589,1,0,0:0:0:0:
256,192,56931,1,8,0:0:0:0:
256,192,57274,1,0,0:0:0:0:
256,192,57617,1,8,0:0:0:0:
256,192,57960,1,0,0:0:0:0:
256,192,58303,1,8,0:0:0:0:
256,192,58646,1,8,0:0:0:0:
256,192,58817,1,8,0:0:0:0:
256,192,58989,1,8,0:0:0:0:
256,192,59331,1,0,0:0:0:0:
256,192,59674,1,8,0:0:0:0:
256,192,60017,1,8,0:0:0:0:
256,192,60189,1,8,0:0:0:0:
256,192,60360,1,0,0:0:0:0:
256,192,60703,1,8,0:0:0:0:
256,192,61046,1,8,0:0:0:0:
256,192,61389,1,0,0:0:0:0:
256,192,61731,1,8,0:0:0:0:
256,192,62074,1,0,0:0:0:0:
256,192,62417,1,8,0:0:0:0:
256,192,62760,1,0,0:0:0:0:
256,192,63103,1,8,0:0:0:0:
256,192,63446,1,0,0:0:0:0:
256,192,63789,1,8,0:0:0:0:
256,192,64131,1,0,0:0:0:0:
256,192,64474,1,12,0:0:0:0:
256,192,64817,1,12,0:0:0:0:
256,192,65160,1,12,0:0:0:0:
256,192,65503,1,4,0:0:0:0:
256,192,65846,1,4,0:0:0:0:
256,192,66189,1,4,0:0:0:0:
256,192,66531,1,4,0:0:0:0:
256,192,66874,1,8,0:0:0:0:
256,192,67217,1,4,0:0:0:0:
256,192,67560,1,0,0:0:0:0:
256,192,67731,1,8,0:0:0:0:
256,192,67903,1,0,0:0:0:0:
256,192,68246,1,0,0:0:0:0:
256,192,68417,1,8,0:0:0:0:
256,192,68760,1,0,0:0:0:0:
256,192,69274,1,4,0:0:0:0:
256,192,69617,1,4,0:0:0:0:
256,192,69960,1,8,0:0:0:0:
256,192,70303,1,0,0:0:0:0:
256,192,70474,1,8,0:0:0:0:
256,192,70646,1,0,0:0:0:0:
256,192,71160,1,8,0:0:0:0:
256,192,71331,1,8,0:0:0:0:
256,192,71503,1,0,0:0:0:0:
256,192,71846,1,0,0:0:0:0:
256,192,72017,1,0,0:0:0:0:
256,192,72360,1,8,0:0:0:0:
256,192,72703,1,4,0:0:0:0:
256,192,73046,1,0,0:0:0:0:
256,192,73217,1,8,0:0:0:0:
256,192,73389,1,0,0:0:0:0:
256,192,73731,1,8,0:0:0:0:
256,192,74246,1,0,0:0:0:0:
256,192,74589,1,0,0:0:0:0:
256,192,74760,1,8,0:0:0:0:
256,192,75103,1,8,0:0:0:0:
256,192,75446,1,0,0:0:0:0:
256,192,75789,1,8,0:0:0:0:
256,192,75960,1,8,0:0:0:0:
256,192,76131,1,8,0:0:0:0:
256,192,76474,1,0,0:0:0:0:
256,192,76646,1,0,0:0:0:0:
256,192,76817,1,12,0:0:0:0:
256,192,77160,1,4,0:0:0:0:
256,192,77503,1,4,0:0:0:0:
256,192,77846,1,8,0:0:0:0:
256,192,78189,1,4,0:0:0:0:
256,192,78531,1,0,0:0:0:0:
256,192,78703,1,8,0:0:0:0:
256,192,78874,1,0,0:0:0:0:
256,192,79217,1,0,0:0:0:0:
256,192,79389,1,8,0:0:0:0:
256,192,79731,1,0,0:0:0:0:
256,192,80246,1,4,0:0:0:0:
256,192,80589,1,4,0:0:0:0:
256,192,80931,1,8,0:0:0:0:
256,192,81274,1,8,0:0:0:0:
256,192,81446,1,8,0:0:0:0:
256,192,81617,1,8,0:0:0:0:
256,192,81960,1,0,0:0:0:0:
256,192,82303,1,8,0:0:0:0:
256,192,82817,1,0,0:0:0:0:
256,192,82989,1,8,0:0:0:0:
256,192,83331,1,8,0:0:0:0:
256,192,83674,1,4,0:0:0:0:
256,192,84017,1,0,0:0:0:0:
256,192,84189,1,8,0:0:0:0:
256,192,84360,1,0,0:0:0:0:
256,192,84703,1,0,0:0:0:0:
256,192,84874,1,8,0:0:0:0:
256,192,85217,1,0,0:0:0:0:
256,192,85389,1,8,0:0:0:0:
256,192,85731,1,4,0:0:0:0:
256,192,86074,1,4,0:0:0:0:
256,192,86417,1,4,0:0:0:0:
256,192,86589,1,8,0:0:0:0:
256,192,86931,1,8,0:0:0:0:
256,192,87103,1,8,0:0:0:0:
256,192,87446,1,0,0:0:0:0:
256,192,87960,1,8,0:0:0:0:
256,192,88131,1,0,0:0:0:0:
256,192,88474,1,0,0:0:0:0:
256,192,88817,1,8,0:0:0:0:
256,192,89160,1,8,0:0:0:0:
256,192,89846,1,8,0:0:0:0:
256,192,90531,1,0,0:0:0:0:
256,192,90703,1,8,0:0:0:0:
256,192,90874,1,0,0:0:0:0:
256,192,91217,1,8,0:0:0:0:
256,192,91903,1,8,0:0:0:0:
256,192,92074,1,8,0:0:0:0:
256,192,92246,1,8,0:0:0:0:
256,192,92589,1,8,0:0:0:0:
256,192,92760,1,0,0:0:0:0:
256,192,92931,1,0,0:0:0:0:
256,192,93274,1,12,0:0:0:0:
256,192,93446,1,4,0:0:0:0:
256,192,93617,1,4,0:0:0:0:
256,192,93960,1,4,0:0:0:0:
256,192,94303,1,8,0:0:0:0:
256,192,94646,1,8,0:0:0:0:
256,192,95331,1,8,0:0:0:0:
256,192,96017,1,0,0:0:0:0:
256,192,96189,1,0,0:0:0:0:
256,192,96360,1,0,0:0:0:0:
256,192,96703,1,8,0:0:0:0:
256,192,97217,1,8,0:0:0:0:
256,192,97389,1,0,0:0:0:0:
256,192,97560,1,8,0:0:0:0:
256,192,97903,1,8,0:0:0:0:
256,192,98246,1,0,0:0:0:0:
256,192,98417,1,8,0:0:0:0:
256,192,98760,1,4,0:0:0:0:
256,192,99103,1,8,0:0:0:0:
256,192,99274,1,8,0:0:0:0:
256,192,99446,1,4,0:0:0:0:
256,192,99789,1,8,0:0:0:0:
256,192,100131,1,0,0:0:0:0:
256,192,100303,1,0,0:0:0:0:
256,192,100474,1,0,0:0:0:0:
256,192,100817,1,0,0:0:0:0:
256,192,100989,1,0,0:0:0:0:
256,192,101160,1,0,0:0:0:0:
256,192,101503,1,0,0:0:0:0:
256,192,101674,1,8,0:0:0:0:
256,192,101846,1,0,0:0:0:0:
256,192,102189,1,8,0:0:0:0:
256,192,102874,1,8,0:0:0:0:
256,192,103046,1,8,0:0:0:0:
256,192,103217,1,8,0:0:0:0:
256,192,103560,1,8,0:0:0:0:
256,192,103731,1,0,0:0:0:0:
256,192,103903,1,0,0:0:0:0:
256,192,104246,1,8,0:0:0:0:
256,192,104417,1,0,0:0:0:0:
256,192,104589,1,0,0:0:0:0:
256,192,104931,1,0,0:0:0:0:
256,192,105274,1,8,0:0:0:0:
256,192,105617,1,0,0:0:0:0:
256,192,105789,1,0,0:0:0:0:
256,192,105960,1,0,0:0:0:0:
256,192,106303,1,0,0:0:0:0:
256,192,106474,1,0,0:0:0:0:
256,192,106646,1,0,0:0:0:0:
256,192,106989,1,0,0:0:0:0:
256,192,107160,1,8,0:0:0:0:
256,192,107331,1,0,0:0:0:0:
256,192,107674,1,8,0:0:0:0:
256,192,108360,1,8,0:0:0:0:
256,192,108531,1,8,0:0:0:0:
256,192,108703,1,8,0:0:0:0:
256,192,109046,1,8,0:0:0:0:
256,192,109217,1,0,0:0:0:0:
256,192,109389,1,0,0:0:0:0:
256,192,109731,1,8,0:0:0:0:
256,192,109903,1,8,0:0:0:0:
256,192,110074,1,0,0:0:0:0:
256,192,110417,1,0,0:0:0:0:
256,192,110760,1,8,0:0:0:0:
256,192,111103,1,8,0:0:0:0:
256,192,111446,1,8,0:0:0:0:
256,192,111789,1,0,0:0:0:0:
256,192,112131,1,8,0:0:0:0:
256,192,112474,1,8,0:0:0:0:
256,192,112817,1,0,0:0:0:0:
256,192,113160,1,0,0:0:0:0:
256,192,113503,1,0,0:0:0:0:
256,192,113674,1,0,0:0:0:0:
256,192,113846,1,8,0:0:0:0:
256,192,114189,1,0,0:0:0:0:
256,192,114360,1,8,0:0:0:0:
256,192,114531,1,8,0:0:0:0:
256,192,114874,1,8,0:0:0:0:
256,192,115046,1,8,0:0:0:0:
256,192,115217,1,8,0:0:0:0:
256,192,115560,1,8,0:0:0:0:
256,192,115903,1,0,0:0:0:0:
256,192,116246,1,12,0:0:0:0:
256,192,116589,1,12,0:0:0:0:
256,192,117274,1,12,0:0:0:0:
256,192,117960,1,12,0:0:0:0:
256,192,118646,1,4,0:0:0:0:
256,192,119331,1,4,0:0:0:0:
256,192,119674,1,8,0:0:0:0:
256,192,119846,1,8,0:0:0:0:
256,192,120017,1,8,0:0:0:0:
256,192,120360,1,0,0:0:0:0:
256,192,120703,1,0,0:0:0:0:
256,192,120874,1,0,0:0:0:0:
256,192,121046,1,8,0:0:0:0:
256,192,121389,1,8,0:0:0:0:
256,192,121560,1,8,0:0:0:0:
256,192,121731,1,12,0:0:0:0:
256,192,122074,1,4,0:0:0:0:
256,192,122417,1,0,0:0:0:0:
256,192,122760,1,8,0:0:0:0:
256,192,123103,1,0,0:0:0:0:
256,192,123446,1,8,0:0:0:0:
256,192,123789,1,0,0:0:0:0:
256,192,124131,1,8,0:0:0:0:
256,192,124474,1,8,0:0:0:0:
256,192,124646,1,8,0:0:0:0:
256,192,124817,1,8,0:0:0:0:
256,192,125160,1,0,0:0:0:0:
256,192,125503,1,8,0:0:0:0:
256,192,125846,1,4,0:0:0:0:
256,192,126017,1,4,0:0:0:0:
256,192,126189,1,12,0:0:0:0:
256,192,126531,1,4,0:0:0:0:
256,192,126874,1,12,0:0:0:0:
