osu file format v14

[General]
AudioFilename: audio.mp3
AudioLeadIn: 0
PreviewTime: 6675
Countdown: 0
SampleSet: Soft
StackLeniency: 0.2
Mode: 0
LetterboxInBreaks: 0
WidescreenStoryboard: 0

[Editor]
Bookmarks: 2311,6675,8857,26311,27880,43675,52493,53039,53584,54130,54675,55220,55766,56039,61220,61766,78675,79220,93948,96130,111039,111402,111948,128857
DistanceSpacing: 0.3
BeatDivisor: 4
GridSize: 8
TimelineZoom: 2.4

[Metadata]
Title:Barrier
TitleUnicode:Barrier
Artist:Memme
ArtistUnicode:Memme
Creator:Typ4
Version:Breakthrough
Source:O2Jam
Tags:music&beat parkmemme
BeatmapID:2114461
BeatmapSetID:1010096

[Difficulty]
HPDrainRate:3
CircleSize:4
OverallDifficulty:8.2
ApproachRate:9.6
SliderMultiplier:2.34
SliderTickRate:1

[Events]
//Background and Video events
0,0,"owo.jpg",0,0
//Break Periods
//Storyboard Layer 0 (Background)
//Storyboard Layer 1 (Fail)
//Storyboard Layer 2 (Pass)
//Storyboard Layer 3 (Foreground)
//Storyboard Layer 4 (Overlay)
//Storyboard Sound Samples

[TimingPoints]
130,272.727272727273,4,2,1,80,1,0
2311,-200,4,2,1,80,0,0
2584,-333.333333333333,4,2,1,80,0,0
2857,-250,4,2,1,80,0,0
3061,-250,4,2,1,5,0,0
3130,-200,4,2,1,80,0,0
3402,-250,4,2,1,80,0,0
3607,-250,4,2,1,5,0,0
3675,-200,4,2,1,80,0,0
3948,-250,4,2,1,80,0,0
4152,-250,4,2,1,5,0,0
4220,-200,4,2,1,80,0,0
4698,-200,4,2,1,5,0,0
4766,-133.333333333333,4,2,1,80,0,0
5039,-200,4,2,1,80,0,0
5243,-200,4,2,1,5,0,0
5311,-133.333333333333,4,2,1,80,0,0
5584,-200,4,2,1,80,0,0
5789,-200,4,2,1,5,0,0
5857,-133.333333333333,4,2,1,80,0,0
6130,-100,4,2,1,80,0,0
6539,-100,4,2,1,5,0,0
6675,-100,4,2,4,80,0,0
7857,-100,4,2,1,5,0,0
7948,-100,4,2,1,80,0,0
8130,-100,4,2,1,5,0,0
8220,-100,4,2,1,80,0,0
8493,-100,4,2,1,5,0,0
8584,-80,4,2,4,80,0,0
9130,-100,4,2,1,80,0,0
9402,-133.333333333333,4,2,1,80,0,0
10766,-80,4,2,1,80,0,0
10948,-80,4,2,1,5,0,0
11039,-80,4,2,1,80,0,0
11220,-80,4,2,1,5,0,0
11311,-100,4,2,1,80,0,0
11402,-100,4,2,1,5,0,0
11493,-100,4,2,1,100,0,0
11584,-133.333333333333,4,2,1,80,0,0
12130,-80,4,2,1,80,0,0
12948,-71.4285714285714,4,2,1,80,0,0
13220,-100,4,2,1,80,0,0
13493,-133.333333333333,4,2,1,80,0,0
14039,-100,4,2,1,80,0,0
14493,-133.333333333333,4,2,1,80,0,0
14766,-100,4,2,1,80,0,0
15039,-80,4,2,1,80,0,0
15402,-125,4,2,1,80,0,0
15948,-100,4,2,1,80,0,0
16402,-100,4,2,4,80,0,0
16675,-133.333333333333,4,2,4,80,0,0
17039,-100,4,2,1,80,0,0
17311,-71.4285714285714,4,2,1,80,0,0
17493,-71.4285714285714,4,2,1,5,0,0
17584,-100,4,2,1,80,0,0
18130,-133.333333333333,4,2,1,80,0,0
19220,-100,4,2,1,80,0,0
19493,-80,4,2,1,80,0,0
20039,-100,4,2,1,80,0,0
20311,-133.333333333333,4,2,1,80,0,0
20857,-80,4,2,1,80,0,0
21584,-80,4,2,1,5,0,0
21675,-71.4285714285714,4,2,1,80,0,0
21857,-71.4285714285714,4,2,1,5,0,0
21948,-80,4,2,1,80,0,0
22220,-133.333333333333,4,2,1,80,0,0
22493,-80,4,2,1,80,0,0
22675,-80,4,2,1,5,0,0
22766,-133.333333333333,4,2,1,80,0,0
22948,-100,4,2,1,80,0,0
23220,-114.942528735632,4,2,1,80,0,0
23493,-100,4,2,1,80,0,0
23857,-100,4,2,3,80,0,0
24130,-100,4,2,1,80,0,0
25493,-133.333333333333,4,2,1,80,0,0
25766,-100,4,2,1,80,0,0
26311,-133.333333333333,4,2,1,80,0,0
41039,-80,4,2,1,80,0,0
41311,-80,4,2,3,80,0,0
41584,-100,4,2,3,80,0,0
43220,-80,4,2,3,80,0,0
43402,-80,4,2,1,5,0,0
43493,-80,4,2,1,80,0,0
43675,-181.818181818182,4,2,1,80,0,0
44039,-200,4,2,2,80,0,0
45675,-80,4,2,2,80,0,0
45857,-80,4,2,2,5,0,0
45948,-80,4,2,2,80,0,0
46220,-200,4,2,2,80,0,0
47311,-80,4,2,2,80,0,0
47584,-76.9230769230769,4,2,2,80,0,0
47857,-71.4285714285714,4,2,2,80,0,0
48675,-200,4,2,2,80,0,0
50039,-100,4,2,2,80,0,0
51675,-80,4,2,2,80,0,0
52493,-133.333333333333,4,2,1,80,0,1
53039,-100,4,2,1,80,0,0
53584,-133.333333333333,4,2,1,80,0,1
54130,-100,4,2,1,80,0,0
54675,-125,4,2,1,80,0,1
55220,-100,4,2,1,80,0,0
55766,-200,4,2,1,80,0,1
56039,-100,4,2,1,80,0,0
56857,-133.333333333333,4,2,1,80,0,0
58948,-80,4,2,1,80,0,0
59311,-100,4,2,1,80,0,0
59493,-125,4,2,1,80,0,0
59766,-166.666666666667,4,2,1,80,0,0
60130,-100,4,2,1,80,0,0
60675,-200,4,2,1,80,0,0
61130,-200,4,2,1,5,0,0
61220,-80,4,2,3,80,0,0
61766,-66.6666666666667,4,2,3,80,0,1
62311,-66.6666666666667,4,2,3,80,0,1
63948,-71.4285714285714,4,2,3,80,0,1
64220,-76.9230769230769,4,2,3,80,0,1
64493,-83.3333333333333,4,2,3,80,0,1
64766,-66.6666666666667,4,2,3,80,0,1
65584,-100,4,2,3,80,0,1
65857,-80,4,2,3,80,0,1
66130,-66.6666666666667,4,2,3,80,0,1
66675,-66.6666666666667,4,2,3,80,0,1
69948,-80,4,2,3,80,0,1
70493,-66.6666666666667,4,2,3,80,0,1
71039,-66.6666666666667,4,2,3,80,0,1
72675,-71.4285714285714,4,2,3,80,0,1
72948,-76.9230769230769,4,2,3,80,0,1
73220,-83.3333333333333,4,2,3,80,0,1
73493,-66.6666666666667,4,2,3,80,0,1
74857,-100,4,2,3,80,0,1
75130,-125,4,2,3,80,0,1
75948,-100,4,2,3,80,0,1
76493,-100,4,2,4,80,0,1
76766,-80,4,2,4,80,0,1
77039,-80,4,2,1,80,0,1
77220,-80,4,2,4,80,0,1
77766,-80,4,2,2,80,0,0
79220,-66.6666666666667,4,2,3,80,0,1
79402,-66.6666666666667,4,2,3,80,0,1
81402,-83.3333333333333,4,2,4,80,0,1
81675,-66.6666666666667,4,2,3,80,0,1
81948,-83.3333333333333,4,2,4,80,0,1
82220,-57.1428571428571,4,2,3,80,0,1
82766,-66.6666666666667,4,2,3,80,0,1
85493,-133.333333333333,4,2,3,80,0,1
85766,-62.5,4,2,3,80,0,1
86039,-117.647058823529,4,2,3,80,0,1
86311,-58.8235294117647,4,2,3,80,0,1
87402,-166.666666666667,4,2,3,80,0,1
87857,-166.666666666667,4,2,3,5,0,1
87948,-66.6666666666667,4,2,3,80,0,1
88220,-66.6666666666667,4,2,3,80,0,1
90130,-83.3333333333333,4,2,4,80,0,1
90402,-66.6666666666667,4,2,3,80,0,1
90675,-83.3333333333333,4,2,4,80,0,1
90948,-66.6666666666667,4,2,4,80,0,1
93675,-66.6666666666667,4,2,4,80,0,0
93948,-133.333333333333,4,2,3,80,0,1
94130,-133.333333333333,4,2,4,5,0,1
94220,-125,4,2,3,80,0,1
94402,-125,4,2,4,5,0,0
94493,-133.333333333333,4,2,3,80,0,1
94675,-133.333333333333,4,2,4,5,0,1
94766,-125,4,2,3,80,0,1
94948,-66.6666666666667,4,2,4,80,0,0
95039,-133.333333333333,4,2,3,80,0,1
95220,-133.333333333333,4,2,4,5,0,1
95311,-125,4,2,3,80,0,1
95493,-66.6666666666667,4,2,4,80,0,0
95584,-133.333333333333,4,2,3,80,0,1
96039,-100,4,2,4,80,0,0
96675,-133.333333333333,4,2,1,80,0,0
96880,-133.333333333333,4,2,1,5,0,0
96948,-133.333333333333,4,2,1,80,0,0
97425,-133.333333333333,4,2,1,5,0,0
97493,-133.333333333333,4,2,1,80,0,0
97970,-133.333333333333,4,2,1,5,0,0
98039,-133.333333333333,4,2,1,80,0,0
98516,-133.333333333333,4,2,1,5,0,0
98584,-133.333333333333,4,2,1,80,0,0
99061,-133.333333333333,4,2,1,5,0,0
99130,-133.333333333333,4,2,1,80,0,0
99675,-133.333333333333,4,2,3,80,0,0
99948,-133.333333333333,4,2,3,80,0,0
100402,-133.333333333333,4,2,4,80,0,0
100766,-166.666666666667,4,2,1,80,0,0
101039,-133.333333333333,4,2,1,80,0,0
101243,-133.333333333333,4,2,1,5,0,0
101311,-133.333333333333,4,2,1,80,0,0
104311,-166.666666666667,4,2,1,80,0,0
104584,-133.333333333333,4,2,1,80,0,0
105675,-166.666666666667,4,2,1,80,0,0
105948,-133.333333333333,4,2,3,80,0,0
106220,-166.666666666667,4,2,1,80,0,0
106493,-133.333333333333,4,2,1,80,0,0
106766,-166.666666666667,4,2,1,80,0,0
107039,-133.333333333333,4,2,1,80,0,0
109220,-80,4,2,1,80,0,0
110220,-66.6666666666667,4,2,1,80,0,0
110857,-100,4,2,1,80,0,0
111130,-133.333333333333,4,2,3,80,0,0
111857,-133.333333333333,4,2,4,5,0,0
111948,-133.333333333333,4,2,4,80,0,0
114948,-100,4,2,4,80,0,0
115766,-133.333333333333,4,2,4,80,0,0
119039,-100,4,2,4,80,0,0
120130,-133.333333333333,4,2,4,80,0,0
123675,-100,4,2,4,80,0,0
124493,-133.333333333333,4,2,4,80,0,0
127766,-333.333333333333,4,2,4,80,0,0
128039,-80,4,2,4,80,0,0
128857,-80,4,2,4,5,0,0

[Colours]
Combo1 : 40,187,242
Combo2 : 255,128,64
Combo3 : 0,249,124
Combo4 : 250,207,63

[HitObjects]
256,0,2311,5,0,3:0:0:0:
256,0,2584,2,0,L|258:42,1,35.099998928833,0|0,0:0|0:0,0:0:0:0:
163,40,2857,6,0,B|155:78|155:78|164:108,1,70.2,0|0,0:0|0:0,0:0:0:0:
342,104,3130,2,0,L|338:45,1,58.5,0|0,0:0|0:0,0:0:0:0:
118,187,3402,6,0,B|136:221|136:221|163:238,1,70.2,0|0,3:0|0:0,0:0:0:0:
351,240,3675,2,0,L|347:181,1,58.5,0|0,0:0|0:0,0:0:0:0:
112,369,3948,6,0,B|148:382|148:382|179:379,1,70.2,0|0,0:0|0:0,0:0:0:0:
356,379,4221,2,0,L|352:320,1,58.5,0|0,0:0|0:0,0:0:0:0:
49,128,4493,6,0,L|43:221,1,87.75,0|0,3:0|0:0,0:0:0:0:
51,224,4766,2,0,L|45:317,1,87.75,0|0,0:0|0:0,0:0:0:0:
177,256,5039,6,0,L|171:163,1,87.75,0|0,0:0|0:0,0:0:0:0:
179,160,5312,2,0,L|173:67,1,87.75,0|0,0:0|0:0,0:0:0:0:
463,128,5584,6,0,L|469:221,1,87.75,0|0,3:0|0:0,0:0:0:0:
461,224,5857,2,0,L|467:317,1,87.75,0|0,0:0|0:0,0:0:0:0:
288,147,6130,6,0,B|233:122|231:69|256:7|308:-3|366:4|396:62|386:101|377:113|377:113|357:99|329:90,1,351,0|0,0:0|0:0,0:0:0:0:
288,147,6675,6,0,B|290:185|290:185|294:186|294:186|297:237,1,78,8|0,0:0|0:0,0:0:0:0:
301,332,6857,1,8,0:0:0:0:
128,344,6948,6,0,B|166:345|166:345|167:342|167:342|218:344,1,78,8|0,0:0|0:0,0:0:0:0:
313,350,7130,1,8,0:0:0:0:
199,228,7220,5,8,0:0:0:0:
121,237,7311,1,8,0:0:0:0:
43,247,7402,1,8,0:0:0:0:
29,170,7493,1,8,0:0:0:0:
382,303,7675,6,0,B|425:301|450:268|450:268|462:309|504:325,1,156,10|0,0:0|0:0,0:0:0:0:
271,178,7948,2,0,B|314:179|339:212|339:212|351:171|393:155,1,156,2|0,0:0|0:0,0:0:0:0:
512,50,8220,1,2,0:0:0:0:
498,49,8311,2,0,P|420:41|343:24,1,156,2|0,0:0|0:0,0:0:0:0:
265,37,8584,2,0,P|319:99|328:12,1,195,10|0,0:0|0:0,0:0:0:0:
44,27,8857,6,0,B|46:61|46:61|47:77|47:77|52:97|52:97|48:118|48:118|54:138|54:138|51:162|51:162|56:187|56:187|58:221,1,195,6|0,0:0|0:0,0:0:0:0:
57,219,9130,6,0,P|98:206|158:200,1,78,0|0,0:0|0:0,0:0:0:0:
8,329,9311,1,0,0:0:0:0:
20,323,9402,2,0,P|60:342|85:368,1,58.500002231598,8|0,0:0|0:0,0:0:0:0:
158,295,9584,1,0,0:0:0:0:
175,293,9675,2,0,B|287:285|240:370|354:352,1,175.500006694794,0|0,0:0|0:0,0:0:0:0:
501,225,10129,5,0,0:0:0:0:
508,306,10220,2,0,L|513:377,1,58.500002231598,0|0,0:0|0:0,0:0:0:0:
426,146,10402,5,0,0:0:0:0:
414,285,10493,2,0,L|419:227,1,58.500002231598,8|0,0:0|0:0,0:0:0:0:
512,54,10675,5,0,0:0:0:0:
426,146,10766,2,0,B|389:127|389:127|375:93|375:93|330:88|330:88|331:83|331:83|330:88|330:88|252:79,1,195,0|0,0:0|0:0,0:0:0:0:
37,34,11039,6,0,P|13:113|108:103,1,195,0|0,0:0|0:0,0:0:0:0:
195,38,11311,6,0,P|185:80|190:113,1,78,0|0,0:0|0:0,0:0:0:0:
280,243,11493,1,0,0:0:0:0:
290,251,11584,2,0,P|300:285|291:318,1,58.500002231598,8|0,0:0|0:0,0:0:0:0:
182,279,11766,1,0,0:0:0:0:
103,275,11857,2,0,B|74:274|74:274|77:271|77:271|74:274|74:274|45:273,1,58.500002231598,0|0,0:0|0:0,0:0:0:0:
182,279,12039,1,0,0:0:0:0:
318,202,12130,6,0,B|357:238|357:238|354:334|354:334|311:364|311:364,1,195,0|0,0:0|0:0,0:0:0:0:
182,279,12402,2,0,B|178:233|178:233|175:230|175:230|171:172,1,97.5,0|0,0:0|0:0,0:0:0:0:
314,119,12584,1,0,0:0:0:0:
390,160,12675,6,0,P|404:227|318:194,1,195,8|0,0:0|0:0,0:0:0:0:
136,103,12948,6,0,P|208:35|216:118,1,218.399993334961,0|0,0:0|0:0,0:0:0:0:
68,292,13220,6,0,B|181:279|181:279|158:288|147:325,1,156,0|0,0:0|0:0,0:0:0:0:
55,195,13493,6,0,L|191:181,1,117.000004463196,0|0,0:0|0:0,0:0:0:0:
315,344,13766,2,0,L|236:336,1,58.500002231598,8|0,0:0|0:0,0:0:0:0:
338,243,13948,1,0,0:0:0:0:
352,244,14039,2,0,B|384:247|408:278|407:315|407:315|402:380,1,156,0|0,0:0|0:0,0:0:0:0:
501,251,14311,5,0,0:0:0:0:
501,251,14493,5,0,0:0:0:0:
512,153,14584,2,0,P|510:125|496:83,1,58.500002231598,0|0,0:0|0:0,0:0:0:0:
423,241,14766,5,0,0:0:0:0:
419,144,14857,2,0,P|383:119|342:113,1,78,8|0,0:0|0:0,0:0:0:0:
346,232,15039,5,0,0:0:0:0:
266,106,15130,2,0,B|163:92|204:179|69:159,1,195,2|0,0:0|0:0,0:0:0:0:
20,84,15402,6,0,B|95:37|95:37|83:152|83:152|78:159|78:159|81:167|81:167|66:289,1,312,6|0,0:0|0:0,0:0:0:0:
9,384,15948,6,0,L|-2:297,1,78,8|0,0:0|0:0,0:0:0:0:
204,308,16130,1,0,0:0:0:0:
202,323,16220,1,0,0:0:0:0:
69,257,16402,6,0,B|163:271|136:215|224:231,1,156,8|0,0:0|0:0,0:0:0:0:
310,233,16675,1,0,0:0:0:0:
310,233,16766,2,0,L|305:167,1,58.500002231598,8|0,0:0|0:0,0:0:0:0:
313,323,16948,1,0,0:0:0:0:
411,365,17039,5,10,0:0:0:0:
418,279,17130,1,2,0:0:0:0:
425,194,17220,1,2,0:0:0:0:
432,107,17311,2,0,B|395:104|395:104|383:103|372:98|372:98|371:101|371:101|330:98|330:98|286:95|251:141|287:200|341:186|344:150,1,218.399993334961,2|0,0:0|0:0,0:0:0:0:
222,40,17584,6,0,L|225:1,4,39,0|0|0|0|0,0:0|0:0|0:0|0:0|0:0,0:0:0:0:
222,40,17857,2,0,B|175:76|175:76|194:185,1,156,0|0,0:0|0:0,0:0:0:0:
86,276,18130,6,0,B|63:224|63:224|89:169,1,117.000004463196,10|0,0:0|0:0,0:0:0:0:
220,310,18402,2,0,P|169:320|118:358,1,117.000004463196,0|0,0:0|0:0,0:0:0:0:
292,227,18675,5,0,0:0:0:0:
292,227,18857,5,0,0:0:0:0:
299,308,18948,2,0,L|305:375,1,58.500002231598,0|0,0:0|0:0,0:0:0:0:
386,220,19130,5,0,0:0:0:0:
398,359,19220,2,0,B|429:344|429:344|421:266,1,78,8|0,0:0|0:0,0:0:0:0:
454,68,19402,5,0,0:0:0:0:
511,184,19493,2,0,B|494:177|494:177|407:185|407:185|368:187|340:162|336:130,1,195,2|0,0:0|0:0,0:0:0:0:
156,44,19766,6,0,B|206:54|240:98|240:98|259:52|314:26,1,195,2|0,0:0|0:0,0:0:0:0:
119,129,20039,2,0,B|122:165|122:165|118:165|118:165|122:166|122:166|126:225,1,78,0|0,0:0|0:0,0:0:0:0:
133,354,20220,1,0,0:0:0:0:
132,342,20311,2,0,B|130:311|130:311|132:312|132:312|130:310|130:310|127:266,1,58.500002231598,8|0,0:0|0:0,0:0:0:0:
26,120,20493,1,0,0:0:0:0:
25,132,20584,2,0,B|23:163|23:163|20:163|20:163|23:164|23:164|20:208,1,58.500002231598,0|0,0:0|0:0,0:0:0:0:
13,358,20766,1,0,0:0:0:0:
128,287,20857,6,0,B|266:273|266:273|240:287|229:313,1,195,2|0,0:0|0:0,0:0:0:0:
446,377,21130,2,0,B|395:384|395:384|358:343,1,97.5,2|0,0:0|0:0,0:0:0:0:
412,203,21311,1,0,0:0:0:0:
425,204,21402,6,0,B|460:194|478:170|478:170|456:320,1,195,10|0,0:0|0:0,0:0:0:0:
266,273,21675,2,0,B|220:266|220:266|189:261|166:209|206:170|238:175|238:175|292:184,1,218.399993334961,2|0,0:0|0:0,0:0:0:0:
459,299,21948,6,0,B|453:229|453:229|456:212|456:212|442:191|442:191|447:173|447:173|440:88,1,195,2|0,0:0|0:0,0:0:0:0:
501,0,22220,2,0,B|513:16|513:16|408:4,1,117.000004463196
98,27,22493,6,0,B|209:10|164:87|285:70,1,195,8|0,0:0|0:0,0:0:0:0:
360,70,22766,2,0,B|358:96|358:96|361:96|361:96|360:128,1,58.500002231598,0|0,0:0|0:0,0:0:0:0:
374,280,22948,5,0,0:0:0:0:
364,275,23039,2,0,P|340:237|339:194,1,78,0|0,0:0|0:0,0:0:0:0:
457,357,23220,5,0,0:0:0:0:
451,347,23311,2,0,P|456:311|472:282,1,67.8600005695038,0|0,0:0|0:0,0:0:0:0:
324,370,23493,5,0,0:0:0:0:
321,381,23584,5,8,0:0:0:0:
268,364,23675,1,0,0:0:0:0:
202,321,23766,1,0,0:0:0:0:
177,238,23857,5,8,0:0:0:0:
212,151,23948,1,0,0:0:0:0:
140,78,24039,1,0,0:0:0:0:
38,77,24130,6,0,B|138:73|138:73|140:77|140:77|138:73|138:73|285:67,1,234,2|0,0:0|0:0,0:0:0:0:
397,177,24584,1,0,0:0:0:0:
385,179,24675,2,0,B|306:175,1,78,8|0,0:0|0:0,0:0:0:0:
405,62,24857,1,0,0:0:0:0:
421,61,24948,1,0,0:0:0:0:
512,254,25130,6,0,L|337:267,1,156
163,341,25402,1,0,0:0:0:0:
156,331,25493,2,0,L|150:254,1,58.500002231598,0|0,0:0|0:0,0:0:0:0:
145,145,25675,1,0,0:0:0:0:
192,74,25766,6,0,P|224:118|191:216,1,156,8|0,0:0|0:0,0:0:0:0:
97,214,26039,2,0,P|64:169|97:71,1,156,8|0,0:0|0:0,0:0:0:0:
192,74,26311,6,0,B|292:53|243:133|383:100,1,175.500006694794,6|0,0:0|0:0,0:0:0:0:
472,30,26766,1,0,0:0:0:0:
472,30,26857,2,0,P|452:66|470:147,1,117.000004463196,8|0,0:0|0:0,0:0:0:0:
505,242,27130,2,0,P|527:294|513:350,1,117.000004463196,0|0,0:0|0:0,0:0:0:0:
322,271,27402,6,0,B|441:296|441:296|379:332,1,175.500006694794
207,270,27857,1,0,0:0:0:0:
207,270,27948,2,0,P|197:227|230:159,1,117.000004463196,8|0,0:0|0:0,0:0:0:0:
322,271,28220,2,0,P|334:312|304:384,1,117.000004463196
198,379,28493,6,0,L|79:366,1,117.000004463196
0,300,28766,1,0,0:0:0:0:
207,270,28948,2,0,P|162:261|129:238,1,58.500002231598,0|8,0:0|0:0,0:0:0:0:
0,174,29220,2,0,P|63:165|124:132,1,117.000004463196
187,3,29493,6,0,B|192:29|192:29|190:68|190:68|198:100|198:100|195:148|195:148|208:199,1,175.500006694794
203,176,29857,2,0,P|247:162|316:182,1,117.000004463196
379,384,30130,2,0,L|390:267,1,117.000004463196,8|0,0:0|0:0,0:0:0:0:
313,180,30402,2,0,L|324:63,1,117.000004463196,8|0,0:0|0:0,0:0:0:0:
512,213,30675,6,0,B|451:212|451:212|412:251|412:251|341:247,1,175.500006694794
194,207,31130,1,0,0:0:0:0:
194,207,31220,2,0,P|181:152|207:98,1,117.000004463196,8|0,0:0|0:0,0:0:0:0:
273,254,31493,2,0,L|282:376,1,117.000004463196
288,165,31766,1,0,0:0:0:0:
193,378,32039,2,0,L|183:259,1,117.000004463196
78,139,32311,1,8,0:0:0:0:
78,139,32584,2,0,P|86:74|84:11,1,117.000004463196
0,226,32857,1,0,0:0:0:0:
195,31,33130,6,0,L|200:96,1,58.500002231598,0|0,0:0|0:0,0:0:0:0:
206,165,33311,1,0,0:0:0:0:
277,23,33402,6,0,L|282:88,1,58.500002231598,8|0,0:0|0:0,0:0:0:0:
289,167,33583,1,0,0:0:0:0:
359,16,33675,6,0,L|364:81,1,58.500002231598,0|0,0:0|0:0,0:0:0:0:
372,170,33856,1,0,0:0:0:0:
509,32,33948,5,0,0:0:0:0:
449,285,34130,2,0,L|463:108,1,175.500006694794,0|0,0:0|0:0,0:0:0:0:
449,285,34493,2,0,L|355:293,1,58.500002231598,8|0,0:0|0:0,0:0:0:0:
305,296,34675,1,0,0:0:0:0:
305,296,34766,2,0,B|220:303|220:303|253:343,1,117.000004463196,0|0,0:0|0:0,0:0:0:0:
132,383,35039,6,0,B|156:283|82:325|110:211,1,175.500006694794,0|0,0:0|0:0,0:0:0:0:
212,138,35493,1,0,0:0:0:0:
212,138,35584,2,0,P|226:178|178:239,1,117.000004463196,8|0,0:0|0:0,0:0:0:0:
37,152,35857,2,0,P|25:92|63:47,1,117.000004463196
173,21,36130,2,0,B|210:45|210:45|358:15,1,175.500006694794,0|0,0:0|0:0,0:0:0:0:
409,123,36584,1,0,0:0:0:0:
409,123,36675,2,0,L|271:102,1,117.000004463196,8|0,0:0|0:0,0:0:0:0:
477,46,36948,1,0,0:0:0:0:
312,241,37130,1,0,0:0:0:0:
320,252,37220,6,0,L|457:235,1,117.000004463196
495,163,37493,1,0,0:0:0:0:
259,183,37675,1,0,0:0:0:0:
259,183,37766,2,0,P|229:239|247:315,1,117.000004463196,8|0,0:0|0:0,0:0:0:0:
313,356,38039,2,0,L|437:372,1,117.000004463196,0|0,0:0|0:0,0:0:0:0:
512,307,38311,5,0,0:0:0:0:
336,314,38493,5,0,0:0:0:0:
335,302,38584,1,0,0:0:0:0:
178,376,38766,5,0,0:0:0:0:
172,365,38857,1,8,0:0:0:0:
335,302,39039,5,0,0:0:0:0:
333,290,39130,2,0,P|326:260|340:203,1,58.500002231598,8|0,0:0|0:0,0:0:0:0:
398,180,39311,1,8,0:0:0:0:
328,232,39402,6,0,L|235:225,1,87.750003347397,10|0,0:0|0:0,0:0:0:0:
114,260,39675,2,0,B|154:225|154:225|164:122,1,131.625005021095,0|0,0:0|0:0,0:0:0:0:
18,62,39948,6,0,L|28:175,1,87.750003347397,8|0,0:0|0:0,0:0:0:0:
139,122,40220,2,0,L|143:62,2,58.500002231598,0|0|0,0:0|0:0|0:0,0:0:0:0:
128,262,40493,5,0,0:0:0:0:
118,333,40584,1,0,0:0:0:0:
63,289,40675,1,0,0:0:0:0:
103,289,40766,6,0,L|225:291,1,117.000004463196,0|0,0:0|0:0,0:0:0:0:
292,373,41039,6,0,P|331:290|450:357,1,195,8|0,0:0|0:0,0:0:0:0:
371,366,41311,1,8,0:0:0:0:
371,366,41584,6,0,B|357:354|339:333|333:309|332:299|332:299|340:295|340:295|330:290|330:290|336:261|355:231|377:218|377:218|379:209|379:209|386:213|386:213|411:205|450:209|481:233|481:233|483:242|483:242|489:244|489:244|502:268|506:290|500:316,1,390,10|0,0:0|0:0,0:0:0:0:
512,129,42130,6,0,B|414:74|327:125|327:125|251:172|139:139,1,390,10|0,0:0|0:0,0:0:0:0:
0,19,42675,6,0,B|13:225|13:225|9:224|9:224|13:225|13:225|19:289|62:351|149:343,1,390,10|0,0:0|0:0,0:0:0:0:
320,286,43220,2,0,B|293:247|255:225|198:236|198:236|210:311,1,195,10|0,0:0|0:0,0:0:0:0:
221,384,43493,1,0,0:0:0:0:
320,286,43675,6,8,B|338:278|338:278|356:285|356:285|371:276|371:276|388:281|388:281|402:273|402:273|418:276|418:276|433:269|433:269|449:272|449:272|463:267|463:267|483:270|483:270,1,171.600005236817,10|8,0:0|0:0,0:0:0:0:
461,162,44311,6,0,L|520:158,1,39,0|0,0:0|0:0,0:0:0:0:
338,173,44493,1,0,0:0:0:0:
338,173,44584,2,0,L|397:169,1,39,8|0,0:0|0:0,0:0:0:0:
204,184,44766,1,0,0:0:0:0:
204,184,44857,2,0,L|263:180,1,39,0|0,0:0|0:0,0:0:0:0:
70,193,45039,1,0,0:0:0:0:
70,193,45130,1,8,0:0:0:0:
133,49,45402,5,0,0:0:0:0:
133,49,45584,1,2,0:0:0:0:
196,95,45675,2,0,L|415:103,1,195,10|0,0:0|0:0,0:0:0:0:
512,41,45948,6,0,B|478:40|439:66|435:107|435:107|430:205,1,195,0|0,0:0|0:0,0:0:0:0:
456,354,46220,6,0,L|449:299,1,39,8|0,0:0|0:0,0:0:0:0:
368,367,46402,1,0,0:0:0:0:
368,367,46493,2,0,L|361:312,1,39,0|0,0:0|0:0,0:0:0:0:
287,209,46675,1,0,0:0:0:0:
287,209,46766,2,0,L|280:264,1,39,8|0,0:0|0:0,0:0:0:0:
199,196,46948,1,0,0:0:0:0:
199,196,47039,1,0,0:0:0:0:
199,196,47311,6,0,P|148:231|195:178,1,195,10|0,0:0|0:0,0:0:0:0:
345,125,47584,6,0,P|383:176|282:151,1,202.799990716553,10|0,0:0|0:0,0:0:0:0:
233,90,47857,6,0,B|194:80|194:46|215:15|245:17|245:17|381:31,1,218.399993334961,10|0,0:0|0:0,0:0:0:0:
512,19,48130,6,0,P|476:108|459:238,1,218.399993334961,10|0,0:0|0:0,0:0:0:0:
461,360,48402,2,0,P|472:366|517:364,4,54.5999983337403,8|0|0|0|0,0:0|0:0|0:0|0:0|0:0,0:0:0:0:
343,333,48675,6,0,L|340:371,1,39,0|0,0:0|0:0,0:0:0:0:
253,324,48857,1,0,0:0:0:0:
253,324,48948,2,0,L|250:362,1,39,8|0,0:0|0:0,0:0:0:0:
163,317,49130,1,0,0:0:0:0:
163,317,49221,2,0,L|160:355,1,39,0|0,0:0|0:0,0:0:0:0:
58,242,49402,5,0,0:0:0:0:
58,242,49493,1,8,0:0:0:0:
165,228,49675,1,0,0:0:0:0:
165,228,49766,1,8,0:0:0:0:
269,215,49948,1,8,0:0:0:0:
269,215,50039,6,0,P|343:218|386:284,1,156,8|0,0:0|0:0,0:0:0:0:
477,213,50311,6,0,B|484:164|484:164|494:148|494:148|482:126|482:126|493:111|493:111|499:56,1,156,10|0,0:0|0:0,0:0:0:0:
483,52,50584,2,0,P|416:41|374:129,1,156,8|0,0:0|0:0,0:0:0:0:
271,0,50857,1,0,0:0:0:0:
255,149,51039,1,0,0:0:0:0:
258,133,51130,1,8,0:0:0:0:
271,0,51311,1,0,0:0:0:0:
269,18,51402,6,0,P|220:56|136:28,1,156,10|0,0:0|0:0,0:0:0:0:
136,29,51675,6,0,P|165:98|172:142,1,97.5,10|0,0:0|0:0,0:0:0:0:
101,363,51857,1,0,0:0:0:0:
45,308,51948,2,0,P|57:260|78:217,1,97.5,10|0,0:0|0:0,0:0:0:0:
305,194,52130,1,0,0:0:0:0:
348,279,52220,2,0,P|222:265|169:209,1,195,10|0,0:0|0:0,0:0:0:0:
450,121,52493,6,0,B|501:76|501:76|493:135|493:135|497:136|497:136|493:135|493:135|485:189|485:189|481:189|481:189|485:189|485:189|481:222|481:222|483:229|483:229|480:233|480:233|470:295,1,292.50001115799,6|0,0:0|0:0,0:0:0:0:
454,376,53039,5,10,0:0:0:0:
423,352,53130,1,0,0:0:0:0:
383,327,53220,1,0,0:0:0:0:
331,307,53311,1,0,0:0:0:0:
269,296,53402,1,0,0:0:0:0:
198,297,53493,1,0,0:0:0:0:
130,336,53584,6,0,B|155:264|153:175|94:136|29:165|27:219|65:254,1,292.50001115799,6|0,0:0|0:0,0:0:0:0:
192,112,54130,5,10,0:0:0:0:
236,100,54220,1,0,0:0:0:0:
290,107,54311,1,0,0:0:0:0:
342,140,54402,1,0,0:0:0:0:
412,142,54493,1,0,0:0:0:0:
485,116,54584,1,0,0:0:0:0:
503,46,54675,6,0,P|390:10|433:155,1,312,6|0,0:0|0:0,0:0:0:0:
512,242,55220,5,10,0:0:0:0:
450,250,55311,1,0,0:0:0:0:
381,236,55402,1,0,0:0:0:0:
318,188,55493,1,0,0:0:0:0:
249,136,55584,1,0,0:0:0:0:
156,123,55675,1,0,0:0:0:0:
54,137,55766,6,0,P|24:159|-1:200,1,78,6|0,0:0|0:0,0:0:0:0:
99,301,56039,5,10,0:0:0:0:
89,263,56130,1,8,0:0:0:0:
92,224,56220,1,8,0:0:0:0:
174,237,56311,5,10,0:0:0:0:
172,261,56402,1,8,0:0:0:0:
178,284,56493,1,8,0:0:0:0:
259,268,56584,5,10,0:0:0:0:
257,260,56675,1,8,0:0:0:0:
258,252,56766,1,8,0:0:0:0:
347,263,56857,5,10,0:0:0:0:
470,331,57039,1,0,0:0:0:0:
470,331,57130,2,0,P|499:361|505:393,1,58.500002231598,0|0,0:0|0:0,0:0:0:0:
437,239,57311,1,0,0:0:0:0:
437,239,57402,2,0,P|470:236|502:251,1,58.500002231598,2|0,0:0|0:0,0:0:0:0:
352,184,57584,1,0,0:0:0:0:
352,184,57675,2,0,P|361:152|385:128,1,58.500002231598,0|0,0:0|0:0,0:0:0:0:
267,120,57857,1,0,0:0:0:0:
259,6,57948,5,2,0:0:0:0:
79,139,58130,5,0,0:0:0:0:
194,128,58220,1,0,0:0:0:0:
129,61,58402,5,0,0:0:0:0:
140,197,58493,1,2,0:0:0:0:
141,208,58584,1,0,0:0:0:0:
142,219,58675,1,0,0:0:0:0:
143,230,58766,2,0,B|148:298,1,58.500002231598,0|0,0:0|0:0,0:0:0:0:
5,381,58948,6,0,B|14:343|4:301|4:301|53:301|83:338|94:371|94:371|239:365,1,292.5,14|0,0:0|0:0,0:0:0:0:
302,291,59311,6,0,P|298:327|286:373,1,78,0|0,3:0|3:0,3:0:0:0:
413,216,59493,5,0,0:0:0:0:
408,224,59584,2,0,P|413:262|423:285,1,62.4,8|0,3:0|3:0,3:0:0:0:
264,140,59766,5,0,0:0:0:0:
269,146,59857,2,0,P|267:173|260:199,1,46.7999985717774,8|0,3:0|3:0,3:0:0:0:
430,58,60039,5,0,0:0:0:0:
423,100,60130,5,8,3:0:0:0:
396,27,60220,1,8,3:0:0:0:
472,41,60311,1,8,3:0:0:0:
400,113,60402,5,8,3:0:0:0:
415,12,60493,1,8,3:0:0:0:
487,82,60584,1,8,3:0:0:0:
430,58,60675,6,0,B|316:38|374:124|234:97,1,195,14|0,3:0|0:0,0:0:0:0:
127,48,61220,6,0,B|117:26|117:26|114:60,10,48.75,8|0|0|0|0|0|0|0|0|0|0,3:2|3:0|3:2|3:0|3:2|3:0|3:2|3:0|3:2|3:0|3:2,3:0:0:0:
128,301,61766,6,0,P|75:332|3:311,1,117.000004463196,14|0,1:2|0:0,0:0:0:0:
57,239,61948,1,0,0:0:0:0:
249,183,62039,6,0,P|302:213|320:286,1,117.000004463196,0|0,0:0|0:0,0:0:0:0:
221,269,62220,1,0,0:0:0:0:
82,153,62311,6,0,P|81:91|135:39,1,117.000004463196,8|0,0:0|0:0,0:0:0:0:
170,123,62493,1,0,0:0:0:0:
128,301,62584,6,0,B|204:355|204:355|392:320,1,234.000008926392,0|0,0:0|0:0,0:0:0:0:
410,144,62857,2,0,B|382:195|382:195|400:258,1,117.000004463196,2|0,0:2|0:0,0:0:0:0:
431,384,63039,1,0,0:0:0:0:
497,326,63130,2,0,B|500:274|500:274|483:212|483:212|508:159|508:159|513:93,1,234.000008926392
349,38,63402,6,0,B|316:38|277:1|277:1|322:170,1,234.000008926392,8|0,0:0|0:0,0:0:0:0:
216,242,63675,6,0,P|274:225|338:259,1,117.000004463196,0|0,0:0|0:0,0:0:0:0:
267,334,63857,1,0,0:0:0:0:
109,222,63948,6,0,P|85:185|83:117,1,109.199996667481,2|0,0:0|0:0,0:0:0:0:
177,151,64130,1,0,0:0:0:0:
136,313,64220,6,0,P|115:351|69:383,1,101.399995358277,0|0,0:0|0:0,0:0:0:0:
43,148,64402,1,0,0:0:0:0:
311,148,64493,6,0,L|302:241,1,93.5999971435548,8|0,0:0|0:0,0:0:0:0:
177,151,64675,1,0,0:0:0:0:
394,56,64766,6,0,B|401:111|401:111|404:111|404:111|401:111|401:111|405:148|405:148|402:150|402:150|405:149|405:149|422:299,1,234.000008926392,10|0,0:0|0:0,0:0:0:0:
430,374,65039,6,0,B|406:363|406:363|378:369|378:369|352:360|352:360|325:367|325:367|303:356|303:356|273:363|273:363|250:349|250:349|221:354|221:354|202:346,1,234.000008926392,10|0,0:0|0:0,0:0:0:0:
27,286,65311,6,0,B|-3:232|85:161|191:209|159:288,1,234.000008926392,10|0,0:0|0:0,0:0:0:0:
103,356,65584,6,0,L|98:308,4,39,12|0|0|0|0,0:2|0:0|0:0|0:0|0:0,0:0:0:0:
87,170,65857,6,0,L|81:106,4,48.75,12|0|0|0|0,0:2|0:0|0:0|0:0|0:0,0:0:0:0:
259,124,66130,6,0,P|226:154|204:232,1,117.000004463196,10|0,1:2|0:0,0:0:0:0:
246,304,66311,1,0,0:0:0:0:
386,269,66402,6,0,P|353:239|331:161,1,117.000004463196
373,89,66583,1,0,0:0:0:0:
512,128,66675,6,0,P|479:158|457:236,1,117.000004463196,8|0,0:0|0:0,0:0:0:0:
499,308,66856,1,0,0:0:0:0:
288,367,66948,6,0,B|344:354|371:291|371:291|389:354|462:382,1,234.000008926392
499,308,67220,2,0,P|492:258|455:197,1,117.000004463196,2|0,0:0|0:0,0:0:0:0:
363,144,67402,1,0,0:0:0:0:
463,31,67493,2,0,B|474:71|506:80|506:80|321:54,1,234.000008926392
197,42,67766,6,0,B|157:80|98:23|155:-42|230:-2|256:57|253:183,1,234.000008926392,8|0,0:0|0:0,0:0:0:0:
112,278,68039,2,0,B|169:273|169:273|171:270|171:270|241:265,1,117.000004463196
370,249,68220,5,0,0:0:0:0:
273,206,68311,2,0,B|260:262|260:262|292:329,1,117.000004463196,2|0,0:0|0:0,0:0:0:0:
370,249,68493,5,0,0:0:0:0:
467,292,68584,2,0,B|480:235|480:235|448:168,1,117.000004463196
370,249,68766,5,0,0:0:0:0:
493,360,68857,2,0,B|487:284|487:284|497:235|497:235|476:187|476:187|470:116,1,234.000008926392,8|0,0:0|0:0,0:0:0:0:
512,40,69130,2,0,P|465:87|293:49,1,234.000008926392,8|0,0:0|0:0,0:0:0:0:
168,108,69402,2,0,P|158:45|189:4,1,117.000004463196,10|0,0:0|0:0,0:0:0:0:
264,168,69584,1,0,0:0:0:0:
167,209,69675,2,0,P|90:187|52:31,1,234.000008926392,10|0,0:0|0:0,0:0:0:0:
280,31,69948,6,0,B|276:51|276:51|282:61|282:61|276:87,10,48.75,0|0|0|0|0|0|0|0|0|0|0,3:0|3:0|3:0|3:0|3:0|3:0|3:0|3:0|3:0|3:0|3:0,3:0:0:0:
168,108,70493,6,0,P|175:169|207:246,1,117.000004463196,14|0,1:2|0:0,0:0:0:0:
345,366,70675,5,0,0:0:0:0:
263,320,70766,2,0,P|269:261|288:206,1,117.000004463196
475,199,70948,5,0,0:0:0:0:
510,285,71039,2,0,L|371:271,1,117.000004463196,8|0,0:0|0:0,0:0:0:0:
367,161,71220,5,0,0:0:0:0:
414,80,71311,2,0,B|341:85|341:85|342:82|342:82|341:85|341:85|279:90|279:90|244:101|239:138|239:138|245:115|270:103,1,234.000008926392
74,37,71584,6,0,B|112:58|112:58|125:151,1,117.000004463196,2|0,0:0|0:0,0:0:0:0:
139,282,71766,1,0,0:0:0:0:
0,219,71857,6,0,B|127:172|81:299|231:259,1,234.000008926392,8|0,0:0|0:0,0:0:0:0:
405,224,72130,6,0,P|332:171|331:282,1,234.000008926392,8|0,0:0|0:0,0:0:0:0:
491,374,72402,6,0,B|496:321|496:321|491:313|491:313|496:249,1,117.000004463196
502,116,72584,1,0,0:0:0:0:
401,23,72675,6,0,B|405:72|405:72|401:80|401:80|405:139,1,109.199996667481,2|0,0:0|0:0,0:0:0:0:
411,261,72857,1,0,0:0:0:0:
305,348,72948,6,0,B|309:303|309:303|305:296|305:296|309:242,1,101.399995358277
313,129,73130,1,0,0:0:0:0:
116,73,73220,6,0,B|99:115|99:115|114:169,1,93.5999971435548,8|0,0:0|0:0,0:0:0:0:
226,123,73402,1,0,0:0:0:0:
116,73,73493,6,0,B|41:45|41:45|89:223,1,234.000008926392,10|0,0:0|0:0,0:0:0:0:
50,375,73766,6,0,P|88:288|200:396,1,234.000008926392,10|0,0:0|0:0,0:0:0:0:
374,328,74039,6,0,B|335:383|335:383|279:340|279:340|315:285|315:285|347:308,1,234.000008926392,10|0,0:0|0:0,0:0:0:0:
422,215,74311,6,0,B|453:216|497:241|504:302|504:302|506:234|455:179|388:170|354:193|354:193|323:211|254:205|209:144|244:82|285:57,1,585.00002231598,10|0,0:0|0:0,0:0:0:0:
497,31,74857,6,0,P|486:61|486:112,2,78,10|0|0,0:0|0:0|0:0,0:0:0:0:
384,45,75130,2,0,P|395:84|412:108,2,62.4
281,59,75402,5,8,0:0:0:0:
250,64,75493,1,0,0:0:0:0:
219,69,75584,1,0,0:0:0:0:
146,46,75675,5,0,0:0:0:0:
114,43,75766,1,0,0:0:0:0:
83,39,75857,1,0,0:0:0:0:
13,78,75948,5,2,0:0:0:0:
12,124,76039,1,0,0:0:0:0:
30,175,76130,1,0,0:0:0:0:
85,202,76220,1,0,0:0:0:0:
141,244,76311,1,0,0:0:0:0:
153,320,76402,1,0,0:0:0:0:
94,378,76493,6,0,P|118:349|239:373,1,156,10|0,0:0|0:0,0:0:0:0:
243,384,76766,2,0,P|257:267|306:183,1,195,2|0,0:0|0:0,0:0:0:0:
402,148,77039,1,8,0:0:0:0:
402,148,77220,2,0,P|401:223|338:150,1,195,10|0,0:0|0:0,0:0:0:0:
321,53,77493,2,0,B|358:45|358:45|389:65|389:65|432:59|432:59|467:78|467:78|504:69|504:69,1,195,2|0,0:0|0:0,0:0:0:0:
136,86,77766,5,10,0:0:0:0:
213,249,77857,1,2,0:0:0:0:
214,261,78039,5,2,0:0:0:0:
308,123,78130,1,2,0:0:0:0:
308,139,78402,6,0,B|375:180|375:180|373:219|373:219|376:220|376:220|373:219|373:219|366:335,1,195,2|0,0:0|0:0,0:0:0:0:
180,381,78675,6,0,L|173:331,10,48.75,0|0|0|0|0|0|0|0|0|0|0,3:0|3:0|3:0|3:0|3:0|3:0|3:0|3:0|3:0|3:0|3:0,3:0:0:0:
111,261,79220,6,0,B|159:228|159:228|236:258,1,117.000004463196,14|0,1:2|0:0,0:0:0:0:
38,384,79402,1,0,0:0:0:0:
25,303,79493,2,0,B|16:247|16:247|19:241|19:241|9:172,1,117.000004463196,8|0,0:0|0:0,0:0:0:0:
33,98,79675,2,0,B|127:31|127:31|241:78,1,234.000008926392,8|0,0:0|0:0,0:0:0:0:
309,238,79948,1,0,0:0:0:0:
309,238,80039,2,0,P|330:173|369:142,1,117.000004463196,8|0,0:0|0:0,0:0:0:0:
430,241,80220,1,0,0:0:0:0:
326,345,80311,5,10,0:0:0:0:
302,347,80402,1,0,0:0:0:0:
278,350,80493,1,0,0:0:0:0:
434,367,80584,6,0,P|438:310|502:109,1,234.000008926392
512,63,80857,6,0,B|498:56|498:56|476:62|476:62|462:54|462:54|442:59|442:59|423:51|423:51|402:59|402:59|384:50|384:50|362:58|362:58|340:48|340:48|314:54|314:54|295:46,1,234.000008926392,8|0,0:0|0:0,0:0:0:0:
106,61,81130,6,0,P|187:16|141:114,1,234.000008926392
94,227,81402,6,0,P|101:248|104:272,1,46.7999985717774,10|0,0:0|0:0,0:0:0:0:
84,233,81493,2,0,P|90:263|84:290,1,46.7999985717774,2|0,0:0|0:0,0:0:0:0:
74,238,81584,2,0,P|74:271|62:296,1,46.7999985717774,2|0,0:0|0:0,0:0:0:0:
5,169,81675,6,0,B|125:152|67:250|235:216,1,234.000008926392,2|0,0:0|0:0,0:0:0:0:
403,209,81948,6,0,P|411:186|432:169,1,46.7999985717774,10|0,0:0|0:0,0:0:0:0:
403,209,82039,2,0,P|379:213|353:203,1,46.7999985717774,2|0,0:0|0:0,0:0:0:0:
403,209,82130,2,0,P|418:227|423:254,1,46.7999985717774,10|0,0:0|0:0,0:0:0:0:
496,196,82220,6,0,B|455:146|482:128|574:73|458:-68|323:-3|311:87|351:135|383:164|383:164|431:212|409:334|323:367|223:326|184:253|237:165|237:165,1,750.75000715971,10|0,0:0|0:0,0:0:0:0:
232,107,82766,6,0,B|217:73|185:68|161:80|161:80|185:83|201:92,1,117.000004463196,2|0,0:0|0:0,0:3:0:0:
311,225,82948,1,0,0:0:0:0:
98,288,83039,6,0,B|57:248|82:182|168:170|220:215|190:286,1,234.000008926392,8|0,0:0|0:0,0:0:0:0:
6,131,83311,2,0,B|121:118|121:118|121:114|121:114|122:118|122:118|260:104,1,234.000008926392
346,5,83584,2,0,B|317:22|314:51|314:51|319:117,1,117.000004463196,2|0,0:0|0:0,0:0:0:0:
457,184,83766,1,0,0:0:0:0:
508,92,83857,2,0,B|447:71|447:71|393:101,1,117.000004463196,8|0,0:0|0:0,0:0:0:0:
349,334,84039,6,0,P|443:370|432:254,1,234.000008926392
331,211,84311,1,0,0:0:0:0:
315,212,84402,2,0,B|269:213|269:213|267:209|267:209|268:213|268:213|188:217,1,117.000004463196,8|0,0:0|0:0,0:0:0:0:
99,222,84584,1,0,0:0:0:0:
206,330,84675,5,10,0:0:0:0:
229,331,84766,1,0,0:0:0:0:
252,333,84857,1,0,0:0:0:0:
94,377,84948,6,0,B|82:254|82:254|69:226|69:226|76:193|76:193|67:96,1,234.000008926392
291,48,85220,6,0,L|286:116,2,58.500002231598,10|0|0,0:0|0:0|0:0,0:0:0:0:
168,21,85402,1,0,0:0:0:0:
168,21,85493,2,0,L|179:152,1,117.000004463196,8|0,0:0|0:0,0:0:0:0:
328,119,85766,6,0,L|323:191,2,62.4,10|0|0,0:0|0:0|0:0,0:0:0:0:
143,90,85948,1,0,0:0:0:0:
143,90,86039,2,8,L|154:221,1,117.000004463196,8|0,0:0|0:0,0:0:0:0:
381,284,86311,6,0,B|416:278|416:278|418:281|418:281|451:277,2,66.3000012645722,10|0|0,0:0|0:0|0:0,0:0:0:0:
127,217,86493,5,0,0:0:0:0:
127,217,86584,2,0,B|89:246|67:300|84:373|84:373|79:339|131:291,1,265.200005058289,8|0,0:0|0:0,0:0:0:0:
443,291,86857,5,10,3:2:0:0:
337,338,86948,1,0,3:0:0:0:
361,220,87039,1,0,3:0:0:0:
397,318,87130,5,0,3:0:0:0:
346,275,87220,1,0,3:0:0:0:
408,251,87311,1,0,3:0:0:0:
382,279,87402,6,0,B|345:159|444:189|414:39,1,233.999992858887
341,37,87948,6,0,B|291:42|291:42|285:39|285:39|280:43|280:43|223:49,1,117.000004463196,14|0,1:2|0:0,0:0:0:0:
48,70,88130,1,0,0:0:0:0:
115,24,88220,2,0,B|142:56|142:56|152:146,1,117.000004463196,8|0,0:0|0:0,0:0:0:0:
14,231,88402,2,0,B|189:211|189:211|153:271,1,234.000008926392
270,354,88675,1,0,0:0:0:0:
270,354,88766,2,0,P|265:284|297:228,1,117.000004463196,8|0,0:0|0:0,0:0:0:0:
377,163,88948,1,0,0:0:0:0:
472,231,89039,5,2,0:0:0:0:
469,254,89130,1,0,0:0:0:0:
466,276,89220,1,0,0:0:0:0:
497,133,89311,6,0,B|415:126|415:126|382:107|382:107|347:116|347:116|262:108,1,234.000008926392
180,42,89584,6,0,P|229:48|146:126,1,234.000008926392,8|0,0:0|0:0,0:0:0:0:
34,26,89857,6,0,B|43:105|43:105|55:103|55:103|50:114|46:138|46:138|57:259,1,234.000008926392
43,384,90130,6,0,P|26:364|1:356,1,46.7999985717774,10|0,0:0|0:0,0:0:0:0:
54,370,90220,2,0,P|38:341|13:324,1,46.7999985717774,2|0,0:0|0:0,0:0:0:0:
67,363,90311,2,0,P|58:333|47:313,1,46.7999985717774,2|0,0:0|0:0,0:0:0:0:
134,292,90402,6,0,B|176:290|224:312|241:385|241:385|211:346|173:344,1,234.000008926392,2|0,0:0|0:0,0:0:0:0:
287,245,90675,6,0,B|288:270|288:270|298:297,1,46.7999985717774,10|0,0:0|0:0,0:0:0:0:
287,245,90766,2,0,B|264:233|264:233|236:228,1,46.7999985717774,2|0,0:0|0:0,0:0:0:0:
287,245,90857,2,0,B|308:231|308:231|326:209,1,46.7999985717774,2|0,0:0|0:0,0:0:0:0:
188,163,90948,6,0,B|251:142|265:80|265:80|294:135|359:140,1,234.000008926392,2|0,0:0|0:0,0:0:0:0:
511,102,91220,6,0,B|460:37|460:37|444:213,1,234.000008926392,8|0,0:0|0:0,0:0:0:0:
426,382,91493,2,0,P|411:321|443:269,1,117.000004463196,2|0,0:0|0:0,0:0:0:0:
497,333,91675,1,0,0:0:0:0:
321,372,91766,6,0,B|286:290|286:290|335:141,1,234.000008926392,8|0,0:0|0:0,0:0:0:0:
182,0,92039,6,0,B|180:27|180:27|190:31|190:31|186:51|186:51|195:54|195:54|192:76|192:76|200:81|200:81|196:107|196:107|204:111|204:111|200:137|200:137|207:139|207:139|204:164|204:164|217:170|217:170|212:208,1,234.000008926392
30,206,92311,6,0,B|86:185|86:185|146:226,1,117.000004463196,10|0,0:0|0:0,0:0:0:0:
214,326,92493,1,0,0:0:0:0:
132,316,92584,2,0,B|74:307|74:307|70:309|70:309|68:303|68:303|66:305|66:305|10:299,1,117.000004463196,8|0,0:0|0:0,0:0:0:0:
14,120,92766,2,0,B|84:96|84:96|247:129,1,234.000008926392
383,153,93040,1,0,0:0:0:0:
383,153,93130,2,0,P|376:94|352:37,1,117.000004463196,8|0,0:0|0:0,0:0:0:0:
486,83,93311,1,0,0:0:0:0:
436,250,93402,5,2,0:0:0:0:
434,273,93493,1,0,0:0:0:0:
432,296,93584,1,0,0:0:0:0:
483,175,93675,6,0,B|347:132|402:262|236:198,1,234.000008926392,10|0,0:0|0:0,0:0:0:0:
83,130,93948,6,0,P|124:107|195:147,1,117.000004463196,6|0,0:0|0:0,0:0:0:0:
191,124,94220,2,0,P|132:97|80:120,1,124.8,8|0,0:0|0:0,0:0:0:0:
88,300,94493,6,0,P|47:275|45:200,1,117.000004463196,6|0,0:0|0:0,0:0:0:0:
30,212,94765,2,0,P|36:276|99:309,1,117.000004463196,8|0,0:0|0:0,0:0:0:0:
254,205,95039,6,0,P|253:252|183:293,1,117.000004463196,6|0,0:0|0:0,0:0:0:0:
206,301,95311,2,0,P|258:263|263:206,1,124.8,8|0,0:0|0:0,0:0:0:0:
140,209,95584,6,0,B|150:403|150:403,1,175.500006694794,14|0,0:0|0:0,0:0:0:0:
337,318,96039,6,0,P|395:253|375:374,1,312,14|0,0:0|0:0,0:0:0:0:
386,182,96584,1,0,0:0:0:0:
381,170,96675,6,0,P|369:115|365:34,1,131.625005021095,8|0,0:0|0:0,0:0:0:0:
364,39,96948,2,0,B|324:31|324:31|318:33|318:33|263:24,1,87.750003347397
229,132,97220,6,0,P|217:187|218:270,1,131.625005021095,2|0,0:0|0:0,0:0:0:0:
216,262,97493,2,0,B|176:270|176:270|170:268|170:268|115:277,1,87.750003347397
24,103,97766,6,0,P|57:70|132:107,1,131.625005021095,8|0,0:0|0:0,0:0:0:0:
128,97,98039,2,0,P|114:140|115:198,1,87.750003347397
0,322,98311,6,0,P|53:312|110:378,1,131.625005021095,2|0,0:0|0:0,0:0:0:0:
106,360,98584,2,0,B|145:359|145:359|155:354|155:354|217:352,1,87.750003347397
219,259,98857,6,0,P|274:270|321:203,1,131.625005021095,8|0,0:0|0:0,0:0:0:0:
320,218,99130,2,0,B|359:219|359:219|369:224|369:224|431:226,1,87.750003347397
388,384,99402,6,0,P|374:343|387:289,1,87.750003347397,2|0,0:0|0:0,0:0:0:0:
478,299,99675,2,0,P|492:340|479:394,1,87.750003347397,8|0,0:0|0:0,0:0:0:0:
320,218,99948,2,0,B|314:145|314:145|325:118|325:118|317:29,1,175.500006694794,10|0,0:0|0:0,0:0:0:0:
413,8,100402,1,8,0:0:0:0:
512,118,100493,5,2,0:0:0:0:
512,118,100766,2,0,P|462:111|424:92,1,70.1999978576661
512,199,101039,6,0,L|368:202,1,131.625005021095,8|0,0:0|0:0,0:0:0:0:
358,211,101311,2,0,B|346:169|346:169|358:126,1,87.750003347397
254,160,101584,6,0,L|151:154,1,87.750003347397,2|0,0:0|0:0,0:0:0:0:
82,147,101857,1,0,0:0:0:0:
82,147,101993,2,0,B|70:188|70:188|82:231,1,87.750003347397,0|8,0:0|0:0,0:0:0:0:
278,295,102266,2,0,B|190:271|211:352|97:328,1,175.500006694794
82,147,102675,6,0,P|159:150|71:229,1,263.250010042191,6|0,0:0|0:0,0:0:0:0:
177,190,103220,2,0,B|240:185|240:185|271:164|271:164|315:200|315:200|358:180|358:180|428:175,1,263.250010042191,6|0,0:0|0:0,0:0:0:0:
510,123,103766,2,0,P|415:172|512:218,1,263.250010042191,6|0,2:0|2:0,2:0:0:0:
510,123,104311,6,0,P|484:91|439:76,1,70.1999978576661,6|0,0:0|0:0,0:0:0:0:
349,124,104584,2,0,P|292:126|262:146,1,87.750003347397,2|0,0:0|0:0,0:0:0:0:
332,384,104857,5,2,0:0:0:0:
332,384,105130,2,0,L|343:281,1,87.750003347397
237,229,105402,6,0,L|246:316,1,87.750003347397,10|0,0:0|0:0,0:0:0:0:
153,246,105675,2,0,L|160:320,1,70.1999978576661
353,169,105948,6,0,L|343:256,1,87.750003347397,8|0,0:0|0:0,0:0:0:0:
437,186,106221,2,0,L|430:260,1,70.1999978576661
172,65,106493,6,0,L|181:152,1,87.750003347397,10|0,0:0|0:0,0:0:0:0:
88,82,106766,2,0,L|95:156,1,70.1999978576661
367,27,107039,6,0,P|314:33|295:106,1,117.000004463196,2|0,0:0|0:0,0:0:0:0:
301,101,107311,2,0,L|298:192,1,58.500002231598
305,307,107493,2,0,L|480:297,1,175.500006694794,2|0,0:0|0:0,0:0:0:0:
474,314,107857,2,0,B|458:273|458:273|468:187,1,117.000004463196
512,120,108130,6,0,B|473:123|473:123|470:120|470:120|472:123|472:123|411:129,1,87.750003347397,2|0,0:0|0:0,0:0:0:0:
342,135,108402,2,0,B|301:138|301:138|303:141|303:141|300:138|300:138|261:141,1,87.750003347397
126,92,108675,2,0,B|175:142|175:142|155:248,1,175.500006694794,8|0,0:0|0:0,0:0:0:0:
0,322,109130,1,0,0:0:0:0:
33,317,109220,6,0,L|286:281,1,195,10|0,0:0|0:0,0:0:0:0:
372,356,109493,2,0,P|312:297|370:182,1,195,10|0,0:0|0:0,0:0:0:0:
436,181,109766,1,10,0:0:0:0:
484,220,109857,1,8,0:0:0:0:
496,283,109948,1,8,0:0:0:0:
468,337,110039,1,8,0:0:0:0:
339,199,110220,6,0,B|335:150|258:77|258:77|291:95|372:98,1,234.000008926392,10|0,0:0|0:0,0:0:0:0:
512,66,110493,2,0,B|390:93|423:-23|288:14,1,234.000008926392,8|0,0:0|0:0,0:0:0:0:
134,47,110766,5,8,0:0:0:0:
114,61,110857,2,0,L|124:143,1,78,8|0,0:0|0:0,0:0:0:0:
215,173,111039,5,8,0:0:0:0:
235,187,111130,2,0,L|228:260,1,57.7200014091797,8|0,0:0|0:0,0:0:0:0:
73,376,111402,6,0,B|79:341|102:320|137:323|137:323|158:325|158:325|159:322|159:322|158:325|158:325|211:330|211:330|213:334|213:334|212:331|212:331|246:334|246:334|277:337|307:319|309:286,1,292.50001115799,8|0,0:0|0:0,0:0:0:0:
382,153,111948,5,6,0:0:0:0:
395,237,112130,1,0,0:0:0:0:
395,237,112220,2,0,L|404:302,1,58.500002231598
417,382,112402,1,0,0:0:0:0:
417,382,112493,1,8,0:0:0:0:
501,96,112675,5,0,0:0:0:0:
501,96,112766,2,0,L|432:92,1,58.500002231598
357,90,112948,1,0,0:0:0:0:
357,90,113039,2,0,L|288:86,1,58.500002231598,2|0,0:0|0:0,0:0:0:0:
212,79,113220,1,0,0:0:0:0:
212,79,113311,2,0,L|159:77,4,29.250001115799
125,167,113584,6,0,L|178:165,4,29.250001115799,8|0|0|0|0,0:0|0:0|0:0|0:0|0:0,0:0:0:0:
17,67,113857,2,0,P|44:120|16:178,1,117.000004463196
0,187,114130,1,10,0:0:0:0:
47,296,114311,1,0,0:0:0:0:
47,296,114402,2,0,L|42:364,1,58.500002231598
147,339,114584,1,0,0:0:0:0:
146,327,114675,1,8,0:0:0:0:
146,327,114857,5,0,0:0:0:0:
146,317,114948,2,0,P|228:301|290:341,1,156,2|0,0:0|0:0,0:0:0:0:
233,205,115220,2,0,P|205:284|140:317,1,156,10|0,0:0|0:0,0:0:0:0:
286,336,115493,2,0,P|231:272|234:199,1,156,2|0,0:0|0:0,0:0:0:0:
317,224,115766,6,0,L|320:194,4,29.250001115799,2|0|0|0|0,0:0|0:0|0:0|0:0|0:0,0:0:0:0:
382,120,116039,2,0,L|388:166,4,29.250001115799
397,242,116311,6,0,P|453:223|498:263,1,117.000004463196,8|0,0:0|0:0,0:0:0:0:
437,313,116584,1,0,0:0:0:0:
469,137,116766,1,0,0:0:0:0:
469,137,117039,1,0,0:0:0:0:
476,127,117130,2,0,L|470:54,1,58.500002231598
382,120,117311,1,0,0:0:0:0:
389,110,117402,2,0,L|383:37,1,58.500002231598,8|0,0:0|0:0,0:0:0:0:
295,101,117584,1,0,0:0:0:0:
210,95,117675,6,0,L|170:92,4,29.250001115799
292,188,117948,2,0,L|289:227,4,29.250001115799,2|0|0|0|0,0:0|0:0|0:0|0:0|0:0,0:0:0:0:
173,212,118220,1,0,0:0:0:0:
227,311,118402,1,0,0:0:0:0:
227,311,118493,2,0,L|154:303,1,58.500002231598,8|0,0:0|0:0,0:0:0:0:
67,293,118675,1,0,0:0:0:0:
67,293,118766,2,0,L|-6:285,1,58.500002231598
109,384,118948,1,0,0:0:0:0:
8,286,119039,6,0,B|73:278|73:278|82:272|82:272|101:278|101:278|111:273|111:273|187:264,1,156,2|0,0:0|0:0,0:0:0:0:
347,206,119311,2,0,B|367:240|367:240|359:282,1,78,10|0,0:0|0:0,0:0:0:0:
223,187,119493,1,0,0:0:0:0:
216,179,119584,2,0,B|196:145|196:145|204:103,1,78,10|0,0:0|0:0,0:0:0:0:
374,185,119766,1,0,0:0:0:0:
381,193,119857,2,0,B|402:238|402:238|369:356,1,156,10|0,0:0|0:0,0:0:0:0:
251,293,120130,6,0,L|247:258,10,29.250001115799,8|0|0|0|0|0|0|0|0|0|0,0:0|0:0|0:0|0:0|0:0|0:0|0:0|0:0|0:0|0:0|0:0,0:0:0:0:
331,126,120675,6,0,P|362:112|393:114,1,58.500002231598,10|0,0:0|0:0,0:0:0:0:
261,83,120857,1,0,0:0:0:0:
261,83,120948,2,0,P|256:47|265:25,1,58.500002231598
178,123,121130,1,0,0:0:0:0:
106,84,121220,1,0,0:0:0:0:
106,84,121402,1,0,0:0:0:0:
72,164,121493,2,0,L|78:237,1,58.500002231598
194,132,121675,1,0,0:0:0:0:
160,212,121766,2,0,L|166:285,1,58.500002231598,10|0,0:0|0:0,0:0:0:0:
284,180,121948,1,0,0:0:0:0:
255,313,122039,6,0,L|250:260,4,29.250001115799
358,324,122311,2,0,L|355:353,4,29.250001115799
173,374,122584,1,0,0:0:0:0:
14,260,122766,1,0,0:0:0:0:
18,172,122857,2,0,L|20:102,1,58.500002231598,10|0,0:0|0:0,0:0:0:0:
120,267,123039,1,0,0:0:0:0:
124,179,123130,2,0,L|126:109,1,58.500002231598
78,0,123311,1,0,0:0:0:0:
78,0,123584,1,0,0:0:0:0:
81,9,123675,6,0,P|150:40|222:13,1,156
415,102,123948,6,0,P|346:71|274:98,1,156,10|0,0:0|0:0,0:0:0:0:
214,275,124220,6,0,P|211:202|186:96,1,156
341,161,124493,6,0,L|340:198,4,29.250001115799
337,311,124766,2,0,L|337:281,4,29.250001115799
458,210,125039,1,10,0:0:0:0:
467,328,125220,1,0,0:0:0:0:
468,345,125311,1,0,0:0:0:0:
457,193,125493,1,0,0:0:0:0:
457,193,125766,5,0,0:0:0:0:
458,210,125857,2,0,P|452:246|418:273,1,58.500002231598
328,245,126039,1,0,0:0:0:0:
343,253,126130,2,0,P|368:287|378:326,1,58.500002231598,10|0,0:0|0:0,0:0:0:0:
296,372,126311,1,0,0:0:0:0:
204,363,126402,2,0,B|168:350|168:350|132:362|132:362|93:349,1,117.000004463196
204,363,126675,6,0,B|165:366|165:366|133:346|133:346|92:349,1,117.000004463196
3,356,126948,1,0,0:0:0:0:
45,263,127130,1,0,0:0:0:0:
45,263,127220,1,0,0:0:0:0:
85,162,127402,1,0,0:0:0:0:
85,162,127493,1,0,0:0:0:0:
0,51,127675,1,0,0:0:0:0:
77,75,127766,2,0,L|132:70,1,46.7999985717774,8|0,3:0|0:0,0:0:0:0:
356,44,128039,6,0,B|332:85|332:85|339:151,1,97.5,10|0,0:0|0:0,0:0:0:0:
350,245,128220,1,8,0:0:0:0:
123,70,128311,6,0,B|154:105|154:105|161:171,1,97.5,10|0,0:0|0:0,0:0:0:0:
171,266,128492,1,8,0:0:0:0:
242,52,128584,6,0,B|268:350,1,292.5,6|0,0:0|0:0,0:0:0:0:
