osu file format v14

[General]
AudioFilename: BSpower BigBang.mp3
AudioLeadIn: 0
PreviewTime: 121300
Countdown: 0
SampleSet: Soft
StackLeniency: 0.7
Mode: 0
LetterboxInBreaks: 1
WidescreenStoryboard: 0

[Editor]
DistanceSpacing: 0.9
BeatDivisor: 4
GridSize: 4
TimelineZoom: 1.6

[Metadata]
Title:BSpower BigBang
TitleUnicode:BSpower BigBang
Artist:Memme
ArtistUnicode:Memme
Creator:ragingkrane
Version:Extra
Source:O2jam
Tags:park memme dubstep badass wobs electronic song>map animals horse cow thing
BeatmapID:972158
BeatmapSetID:453335

[Difficulty]
HPDrainRate:6
CircleSize:4
OverallDifficulty:9
ApproachRate:9.3
SliderMultiplier:1.8
SliderTickRate:1

[Events]
//Background and Video events
0,0,"water_blue_eyes_fish_anime_chinese_dress_anime_girls_xiao_black_hair_Wallpaper_1920x1200_www.wallpaperswa.com.jpg",0,0
//Break Periods
//Storyboard Layer 0 (Background)
//Storyboard Layer 1 (Fail)
//Storyboard Layer 2 (Pass)
//Storyboard Layer 3 (Foreground)
//Storyboard Sound Samples

[TimingPoints]
1300,315.789473684211,4,2,1,100,1,0
1300,-133.333333333333,4,2,1,100,0,0
3194,-76.9230769230769,4,2,1,100,0,0
3510,-100,4,2,1,100,0,0
3826,-133.333333333333,4,2,1,100,0,0
10142,-100,4,2,1,100,0,0
11405,-100,4,2,1,100,0,0
12352,-133.333333333333,4,2,1,100,0,0
12668,-100,4,2,1,100,0,0
21510,-66.6666666666667,4,2,1,100,0,0
21826,-100,4,2,1,100,0,0
72036,-100,4,2,1,100,0,0

[Colours]
Combo1 : 60,191,255
Combo2 : 249,0,0
Combo3 : 255,114,9
Combo4 : 255,206,11

[HitObjects]
400,217,984,5,0,0:0:0:0:
400,217,1142,1,0,0:0:0:0:
400,217,1300,2,0,L|352:161,1,67.5000025749208,4|0,1:0|0:0,0:0:0:0:
352,297,1615,2,0,L|320:377,1,67.5000025749208,2|0,0:0|0:0,0:0:0:0:
448,297,1852,1,0,0:0:0:0:
448,297,1931,2,0,L|504:297,2,33.7500012874604,2|0|2,0:0|0:0|0:0,0:0:0:0:
360,217,2247,6,0,P|328:225|288:249,1,67.5000025749208,0|0,1:0|0:0,0:0:0:0:
247,352,2563,1,2,0:0:0:0:
356,375,2721,1,0,0:0:0:0:
356,375,2800,1,0,0:0:0:0:
356,375,2878,2,0,L|356:287,1,67.5000025749208,2|0,0:0|0:0,0:0:0:0:
307,151,3194,2,0,B|248:135|191:174|191:174|162:156|147:136,1,175.499991966248,8|0,1:0|0:0,0:0:0:0:
221,224,3510,2,0,P|228:177|217:122,1,90,2|0,0:0|0:0,0:0:0:0:
56,61,3826,6,0,L|60:143,1,67.5000025749208,0|0,1:0|0:0,0:0:0:0:
139,260,4142,2,0,L|130:344,1,67.5000025749208
45,252,4457,1,2,0:0:0:0:
229,278,4615,1,0,0:0:0:0:
229,278,4694,1,0,0:0:0:0:
229,278,4773,2,0,P|235:239|236:187,1,67.5000025749208,0|0,1:0|0:0,0:0:0:0:
146,58,5089,2,0,P|146:96|151:140,1,67.5000025749208,0|2,0:0|0:0,0:0:0:0:
228,80,5405,1,2,0:0:0:0:
64,147,5563,5,2,0:0:0:0:
55,182,5642,1,2,0:0:0:0:
63,211,5721,1,8,1:0:0:0:
259,252,5878,1,0,0:0:0:0:
180,90,6036,1,2,0:0:0:0:
97,217,6194,1,0,0:0:0:0:
295,151,6352,6,0,P|300:114|295:53,1,67.5000025749208,0|0,1:0|0:0,0:0:0:0:
136,114,6668,1,0,0:0:0:0:
210,174,6826,1,0,0:0:0:0:
205,30,6984,2,0,L|114:27,1,67.5000025749208
36,124,7221,1,0,0:0:0:0:
36,124,7300,2,0,L|40:217,1,67.5000025749208,0|0,1:0|0:0,0:0:0:0:
136,279,7615,6,0,L|140:195,1,67.5000025749208,0|2,0:0|0:0,0:0:0:0:
186,334,7852,1,0,0:0:0:0:
184,357,7931,2,0,P|138:359|88:350,1,67.5000025749208
260,223,8247,2,0,P|298:223|336:230,1,67.5000025749208,8|0,1:0|0:0,0:0:0:0:
389,369,8563,1,0,0:0:0:0:
288,297,8721,1,0,0:0:0:0:
419,212,8878,6,0,L|406:306,1,67.5000025749208,0|0,1:0|0:0,0:0:0:0:
331,130,9194,2,0,L|344:37,1,67.5000025749208
456,119,9510,1,0,0:0:0:0:
456,119,9589,1,0,0:0:0:0:
456,119,9668,1,0,0:0:0:0:
456,119,9747,1,0,0:0:0:0:
456,119,9826,2,0,P|423:122|396:119,1,33.7500012874604,0|0,1:0|0:0,0:0:0:0:
349,43,9984,2,0,L|283:40,1,33.7500012874604
220,230,10142,6,0,L|220:106,1,90,2|0,1:0|0:0,0:0:0:0:
220,53,10378,1,0,0:0:0:0:
220,53,10457,1,0,0:0:0:0:
36,168,10615,2,0,L|132:163,1,90,8|0,0:0|0:0,0:0:0:0:
174,316,10931,1,0,0:0:0:0:
169,312,11010,1,0,0:0:0:0:
163,306,11089,1,2,0:0:0:0:
331,345,11247,5,0,0:0:0:0:
329,354,11326,1,0,0:0:0:0:
327,361,11405,2,0,B|339:289|339:289|314:261|315:206,1,135,12|0,0:0|0:0,0:0:0:0:
427,162,11721,2,0,P|425:188|419:215,1,45,2|0,0:0|0:0,0:0:0:0:
295,90,11878,1,0,0:0:0:0:
302,63,11957,1,0,0:0:0:0:
329,46,12036,1,8,1:0:0:0:
472,83,12194,5,0,0:0:0:0:
472,83,12273,1,0,0:0:0:0:
472,83,12352,2,0,L|476:137,1,33.7500012874604,2|0,0:0|0:0,0:0:0:0:
431,203,12510,2,0,L|432:250,1,33.7500012874604,2|0,0:0|0:0,0:0:0:0:
382,339,12668,6,0,L|264:339,1,90,8|0,0:0|0:0,0:0:0:0:
136,315,12984,2,0,P|120:279|115:256,1,45,2|0,0:0|0:0,0:0:0:0:
227,107,13142,1,0,0:0:0:0:
227,107,13221,1,0,0:0:0:0:
227,107,13299,2,0,L|223:217,1,90,8|0,1:0|0:0,0:0:0:0:
111,134,13536,1,0,0:0:0:0:
111,134,13615,2,0,P|104:78|162:15,1,135,8|0,0:0|0:0,0:0:0:0:
227,107,13931,6,0,L|301:104,1,45,0|0,1:0|0:0,0:0:0:0:
488,233,14089,1,0,0:0:0:0:
460,234,14168,1,0,0:0:0:0:
430,235,14247,1,2,0:0:0:0:
277,352,14405,1,0,1:0:0:0:
340,157,14563,1,8,0:0:0:0:
408,346,14721,1,0,0:0:0:0:
242,240,14878,1,0,0:0:0:0:
430,235,15036,1,0,1:0:0:0:
226,353,15194,6,0,P|220:305|239:228,1,90,8|0,0:0|0:0,0:0:0:0:
226,264,15431,1,0,0:0:0:0:
225,263,15510,2,0,L|275:260,1,45,2|0,0:0|0:0,0:0:0:0:
369,294,15668,2,0,L|414:290,1,45,2|0,0:0|0:0,0:0:0:0:
323,158,15826,2,0,B|286:179|286:179|229:149|168:167,1,135,8|0,0:0|0:0,0:0:0:0:
100,199,16142,2,0,P|86:143|161:77,1,135,2|0,0:0|0:0,0:0:0:0:
224,191,16457,6,0,L|221:297,1,90,8|0,1:0|0:0,0:0:0:0:
52,349,16773,1,2,0:0:0:0:
152,186,16931,1,2,0:0:0:0:
208,360,17089,1,8,1:0:0:0:
45,232,17247,1,0,0:0:0:0:
230,101,17405,2,0,L|223:226,1,90,8|0,1:0|0:0,0:0:0:0:
167,24,17721,6,0,P|210:2|261:2,1,90,8|0,0:0|0:0,0:0:0:0:
443,147,18036,1,2,0:0:0:0:
266,189,18194,1,2,0:0:0:0:
380,69,18352,1,8,1:0:0:0:
459,244,18510,1,0,0:0:0:0:
234,241,18668,2,0,B|224:192|224:192|238:118,1,90,8|0,0:0|0:0,0:0:0:0:
406,58,18984,6,0,L|398:131,1,45,0|0,1:0|0:0,0:0:0:0:
229,44,19142,1,0,0:0:0:0:
255,46,19221,1,0,0:0:0:0:
281,45,19300,1,8,0:0:0:0:
365,205,19457,1,0,0:0:0:0:
226,151,19615,2,0,L|136:148,1,90,8|0,1:0|0:0,0:0:0:0:
66,319,19931,6,0,L|60:220,1,90,2|0,0:0|1:0,0:0:0:0:
225,120,20168,1,0,0:0:0:0:
225,120,20247,2,0,L|135:117,1,90,4|0,0:0|1:0,0:0:0:0:
39,113,20484,1,0,1:0:0:0:
39,113,20563,1,0,1:0:0:0:
307,137,20721,1,0,1:0:0:0:
129,28,20878,1,0,1:0:0:0:
130,237,21036,1,0,1:0:0:0:
130,237,21115,1,0,1:0:0:0:
130,237,21194,1,0,1:0:0:0:
316,155,21352,1,0,1:0:0:0:
128,60,21510,6,0,B|138:128|138:128|118:188|118:188|130:274,1,202.500007724762,4|0,1:0|0:0,0:0:0:0:
139,369,21826,1,0,1:0:0:0:
247,251,21984,2,0,L|186:253,1,45,2|0,0:0|0:0,0:0:0:0:
40,258,22142,1,0,1:0:0:0:
213,160,22300,2,0,L|276:158,1,45,2|0,0:0|0:0,0:0:0:0:
440,150,22457,1,0,1:0:0:0:
315,9,22615,1,0,0:0:0:0:
119,132,22773,2,0,L|127:242,1,90,0|0,1:0|0:0,0:0:0:0:
101,299,23010,1,0,0:0:0:0:
101,299,23089,1,8,0:0:0:0:
53,70,23247,6,0,P|95:48|121:45,1,45,2|0,0:0|0:0,0:0:0:0:
178,127,23405,2,0,L|291:122,1,90,0|2,1:0|0:0,0:0:0:0:
341,120,23642,1,0,0:0:0:0:
341,120,23721,2,0,L|335:230,1,90,8|0,0:0|0:0,0:0:0:0:
320,372,24036,5,0,1:0:0:0:
432,227,24194,1,2,0:0:0:0:
432,227,24273,1,0,0:0:0:0:
432,227,24352,1,8,0:0:0:0:
243,223,24510,1,2,0:0:0:0:
401,313,24668,1,2,1:0:0:0:
357,161,24826,2,0,L|354:232,1,45,2|0,0:0|0:0,0:0:0:0:
386,65,24984,2,0,P|338:62|267:105,1,90,8|2,0:0|0:0,0:0:0:0:
206,191,25300,6,0,L|313:192,1,90,0|2,0:0|0:0,0:0:0:0:
175,217,25536,1,0,0:0:0:0:
152,245,25615,1,8,0:0:0:0:
157,94,25773,1,8,0:0:0:0:
109,318,25931,2,0,L|226:311,1,90,0|2,0:0|0:0,0:0:0:0:
336,219,26247,2,0,P|352:153|352:134,1,45,8|0,1:0|0:0,0:0:0:0:
148,64,26405,2,0,L|156:121,1,45,0|0,1:0|0:0,0:0:0:0:
48,272,26563,2,0,P|76:219|118:189,1,90,4|0,1:0|0:0,0:0:0:0:
167,297,26878,6,0,L|215:294,1,45,0|0,1:0|0:0,0:0:0:0:
320,325,27036,1,0,0:0:0:0:
331,333,27115,1,0,0:0:0:0:
343,344,27194,2,0,L|395:342,1,45,0|0,1:0|0:0,0:0:0:0:
380,187,27352,1,0,0:0:0:0:
361,209,27431,1,0,0:0:0:0:
336,230,27510,2,0,L|268:229,1,45,8|0,0:0|0:0,0:0:0:0:
422,114,27668,2,0,L|490:110,1,45,8|0,0:0|0:0,0:0:0:0:
322,46,27825,6,0,L|217:48,1,90,4|0,0:0|0:0,0:0:0:0:
73,382,28142,2,0,L|174:378,1,90,0|0,1:0|0:0,0:0:0:0:
161,143,28458,2,0,L|155:189,1,45,2|0,0:0|0:0,0:0:0:0:
142,276,28615,1,0,1:0:0:0:
420,198,28773,6,0,L|261:197,1,135,8|0,0:0|0:0,0:0:0:0:
433,320,29089,2,0,P|451:269|440:213,1,90,4|0,0:0|0:0,0:0:0:0:
306,302,29326,1,0,0:0:0:0:
306,302,29405,2,0,P|249:321|220:362,1,90,0|0,1:0|0:0,0:0:0:0:
309,171,29642,1,0,0:0:0:0:
309,171,29721,2,0,P|301:115|317:48,1,90,0|2,1:0|0:0,0:0:0:0:
421,113,30036,2,0,L|481:113,2,45,0|2|0,0:0|0:0|0:0,0:0:0:0:
257,107,30352,5,4,1:0:0:0:
223,104,30430,1,0,0:0:0:0:
189,101,30509,1,0,0:0:0:0:
156,99,30588,1,0,0:0:0:0:
122,96,30667,1,4,1:0:0:0:
50,238,30826,1,0,0:0:0:0:
187,182,30984,1,4,1:0:0:0:
46,70,31142,5,0,0:0:0:0:
46,70,31221,1,0,0:0:0:0:
46,70,31300,2,0,L|39:124,1,45,6|0,1:0|0:0,0:0:0:0:
135,266,31457,2,0,L|119:198,1,45,2|0,1:0|0:0,0:0:0:0:
207,81,31615,5,4,1:0:0:0:
302,253,31773,1,0,0:0:0:0:
302,253,31852,1,0,0:0:0:0:
302,253,31931,2,0,L|297:357,1,90,0|2,0:0|1:0,0:0:0:0:
400,206,32247,2,0,L|390:106,1,90,0|2,0:0|1:0,0:0:0:0:
266,47,32563,2,0,L|271:108,1,45,2|0,0:0|0:0,0:0:0:0:
183,212,32721,2,0,L|194:151,1,45
92,29,32878,5,0,1:0:0:0:
12,213,33036,1,2,0:0:0:0:
12,213,33115,1,0,0:0:0:0:
12,213,33194,1,0,0:0:0:0:
200,218,33352,1,0,1:0:0:0:
69,150,33510,1,2,0:0:0:0:
101,327,33668,1,0,1:0:0:0:
206,103,33826,5,2,0:0:0:0:
205,136,33904,1,0,0:0:0:0:
204,170,33983,1,0,0:0:0:0:
203,204,34062,1,0,0:0:0:0:
206,241,34142,2,0,P|262:224|298:230,1,90,0|0,1:0|0:0,0:0:0:0:
181,269,34378,1,0,0:0:0:0:
153,295,34457,2,0,P|116:249|104:200,1,90,0|0,0:0|1:0,0:0:0:0:
350,284,34773,2,0,P|370:218|370:185,1,90,2|0,0:0|1:0,0:0:0:0:
187,99,35089,2,0,P|178:142|185:187,1,90,2|0,0:0|0:0,0:0:0:0:
283,129,35405,6,0,P|290:84|281:40,1,90,2|0,1:0|0:0,0:0:0:0:
181,107,35642,1,0,0:0:0:0:
181,107,35721,1,0,0:0:0:0:
301,242,35878,1,0,1:0:0:0:
411,133,36036,2,0,B|421:81|421:81|408:22,1,90,2|0,0:0|1:0,0:0:0:0:
302,171,36352,2,0,B|292:223|292:223|305:282,1,90,0|2,0:0|1:0,0:0:0:0:
414,384,36668,5,0,1:0:0:0:
510,271,36826,2,0,P|513:233|509:196,1,45
391,171,36984,2,0,L|296:170,1,90,0|2,0:0|1:0,0:0:0:0:
182,73,37300,2,0,L|288:73,1,90,0|2,0:0|1:0,0:0:0:0:
23,151,37615,1,2,0:0:0:0:
90,37,37773,1,0,0:0:0:0:
190,170,37931,6,0,L|185:260,1,90,0|0,1:0|0:0,0:0:0:0:
264,131,38168,1,0,0:0:0:0:
190,170,38247,2,0,P|183:126|208:64,1,90,0|0,0:0|1:0,0:0:0:0:
323,202,38563,2,0,L|318:292,1,90,2|0,0:0|1:0,0:0:0:0:
293,64,38878,1,0,0:0:0:0:
326,68,38956,1,0,0:0:0:0:
360,72,39035,1,0,0:0:0:0:
393,76,39114,1,0,0:0:0:0:
427,80,39193,5,0,1:0:0:0:
205,169,39352,1,0,0:0:0:0:
172,180,39431,1,0,0:0:0:0:
140,187,39510,2,0,P|85:169|47:141,1,90,0|2,0:0|1:0,0:0:0:0:
129,85,39826,1,0,0:0:0:0:
69,258,39984,1,0,1:0:0:0:
340,287,40142,1,2,0:0:0:0:
305,108,40300,1,0,1:0:0:0:
224,211,40457,5,0,0:0:0:0:
399,196,40615,1,0,0:0:0:0:
207,111,40773,1,0,0:0:0:0:
240,308,40931,1,0,0:0:0:0:
323,129,41089,2,0,P|327:62|320:25,1,90,2|0,0:0|0:0,0:0:0:0:
152,278,41405,2,0,P|147:344|154:381,1,90
409,127,41721,6,0,B|421:87|421:87|419:-2,1,90,4|0,1:0|0:0,0:0:0:0:
256,132,41957,1,0,0:0:0:0:
256,132,42036,2,0,L|267:239,1,90
294,375,42352,1,8,0:0:0:0:
403,265,42510,1,0,0:0:0:0:
256,46,42668,2,0,P|215:66|181:110,1,90,0|0,1:0|0:0,0:0:0:0:
328,203,42984,6,0,B|382:205|382:205|447:180,1,90,2|0,1:0|0:0,0:0:0:0:
298,186,43221,1,0,0:0:0:0:
274,160,43300,2,0,P|271:204|283:248,1,90
288,52,43615,2,0,P|198:59|179:73,1,90,8|0,0:0|0:0,0:0:0:0:
313,65,43931,1,2,0:0:0:0:
324,66,44009,1,0,0:0:0:0:
335,67,44088,1,0,0:0:0:0:
346,67,44167,1,0,0:0:0:0:
288,52,44247,6,0,P|198:59|179:73,1,90,2|0,1:0|0:0,0:0:0:0:
122,195,44484,1,0,0:0:0:0:
122,195,44563,2,0,L|17:193,1,90
302,200,44878,1,8,0:0:0:0:
147,101,45036,1,0,0:0:0:0:
167,283,45194,1,0,1:0:0:0:
258,100,45352,1,0,0:0:0:0:
99,189,45510,5,2,1:0:0:0:
279,280,45668,1,0,0:0:0:0:
279,280,45747,1,0,0:0:0:0:
279,280,45826,2,0,L|388:279,1,90
167,384,46142,2,0,P|119:359|90:320,1,90,8|0,0:0|0:0,0:0:0:0:
186,142,46457,1,0,0:0:0:0:
277,262,46615,1,0,0:0:0:0:
94,209,46773,5,2,1:0:0:0:
285,160,46931,1,0,0:0:0:0:
285,160,47010,1,0,0:0:0:0:
285,160,47089,1,0,0:0:0:0:
161,292,47247,1,0,0:0:0:0:
189,57,47405,2,0,L|176:169,1,90,8|0,0:0|0:0,0:0:0:0:
293,357,47721,2,0,L|278:249,1,90,0|0,1:0|0:0,0:0:0:0:
151,307,48036,5,2,1:0:0:0:
290,155,48194,1,0,0:0:0:0:
290,155,48273,1,0,0:0:0:0:
290,155,48352,1,0,0:0:0:0:
118,194,48510,1,0,0:0:0:0:
317,269,48668,1,8,0:0:0:0:
299,47,48826,1,0,0:0:0:0:
114,181,48984,5,0,0:0:0:0:
114,214,49062,1,0,0:0:0:0:
115,248,49141,1,0,0:0:0:0:
115,282,49220,1,0,0:0:0:0:
116,315,49299,1,2,1:0:0:0:
171,87,49457,1,0,0:0:0:0:
171,87,49536,1,0,0:0:0:0:
171,87,49615,2,0,P|118:72|73:79,1,90,2|0,0:0|0:0,0:0:0:0:
116,171,49931,2,0,B|197:181|197:181|284:150,1,135,8|0,0:0|0:0,0:0:0:0:
249,142,50247,2,0,L|230:224,1,45,2|0,1:0|0:0,0:0:0:0:
338,76,50405,2,0,L|331:16,1,45,2|0,1:0|0:0,0:0:0:0:
340,25,50720,5,0,0:0:0:0:
440,64,50878,1,0,0:0:0:0:
456,172,51035,1,2,0:0:0:0:
356,216,51194,1,2,0:0:0:0:
280,140,51352,1,0,0:0:0:0:
280,140,51431,1,0,0:0:0:0:
280,140,51510,1,0,1:0:0:0:
376,124,51668,1,0,1:0:0:0:
254,283,51826,6,0,L|87:302,1,135,6|0,0:0|0:0,0:0:0:0:
96,319,52142,2,0,L|103:388,1,45,0|0,1:0|0:0,0:0:0:0:
165,161,52300,2,0,L|154:88,1,45,0|0,1:0|0:0,0:0:0:0:
56,100,52457,2,0,L|73:232,1,90,4|0,0:0|0:0,0:0:0:0:
252,168,52773,1,0,1:0:0:0:
228,41,52931,1,0,1:0:0:0:
239,171,53089,6,0,L|315:154,1,45,6|0,0:0|0:0,0:0:0:0:
380,127,53247,1,0,0:0:0:0:
236,195,53405,6,0,L|312:178,1,45,2|0,0:0|0:0,0:0:0:0:
402,151,53563,1,0,0:0:0:0:
227,235,53721,6,0,L|373:204,1,135,4|0,0:0|0:0,0:0:0:0:
467,245,54036,6,0,P|411:242|382:234,1,45,2|0,0:0|0:0,0:0:0:0:
256,340,54194,2,0,P|286:286|294:278,1,45,2|0,0:0|0:0,0:0:0:0:
283,102,54352,2,0,P|310:137|326:198,1,90,4|0,0:0|0:0,0:0:0:0:
125,102,54668,2,0,P|200:71|241:75,1,90,2|0,0:0|0:0,0:0:0:0:
134,274,54984,2,0,P|107:208|115:164,1,90,8|0,1:0|0:0,0:0:0:0:
303,282,55221,1,0,0:0:0:0:
303,282,55300,2,0,P|257:314|201:318,1,90,0|2,0:0|0:0,0:0:0:0:
232,209,55615,5,4,0:0:0:0:
407,135,55773,1,0,0:0:0:0:
407,135,55852,1,0,0:0:0:0:
407,135,55931,1,0,0:0:0:0:
408,311,56089,1,0,1:0:0:0:
314,169,56247,2,0,P|308:124|313:79,1,90,8|0,0:0|0:0,0:0:0:0:
476,196,56563,2,0,L|405:189,1,45,0|0,1:0|0:0,0:0:0:0:
169,200,56721,2,0,L|225:196,1,45,0|0,1:0|0:0,0:0:0:0:
325,190,56878,6,0,P|336:117|310:36,1,135,6|0,0:0|0:0,0:0:0:0:
222,116,57194,2,0,L|146:118,1,45,0|0,1:0|0:0,0:0:0:0:
401,327,57352,2,0,L|470:327,1,45,0|0,1:0|0:0,0:0:0:0:
200,255,57510,2,0,L|53:258,1,135,4|0,0:0|0:0,0:0:0:0:
44,316,57826,2,0,L|46:388,1,45,0|0,1:0|0:0,0:0:0:0:
217,62,57984,2,0,L|217:-26,1,45,0|0,1:0|0:0,0:0:0:0:
61,143,58142,5,4,0:0:0:0:
151,140,58300,1,0,0:0:0:0:
10,221,58457,5,2,0:0:0:0:
214,204,58615,1,0,0:0:0:0:
31,310,58773,6,0,L|181:297,1,135,4|0,0:0|0:0,0:0:0:0:
249,308,59089,6,0,L|234:370,1,45,2|0,0:0|0:0,0:0:0:0:
114,207,59247,1,2,0:0:0:0:
344,90,59405,2,0,B|350:162|350:162|329:245|329:245|337:329,1,225,4|0,0:0|0:0,0:0:0:0:
335,311,59878,1,0,0:0:0:0:
407,36,60036,2,0,P|335:10|305:19,1,90,8|0,0:0|0:0,0:0:0:0:
254,143,60273,1,0,0:0:0:0:
254,143,60352,2,0,L|157:143,1,90,2|0,0:0|0:0,0:0:0:0:
26,149,60668,1,0,0:0:0:0:
243,311,60826,5,0,1:0:0:0:
243,311,60905,1,0,1:0:0:0:
243,311,60984,1,0,1:0:0:0:
239,40,61142,1,0,1:0:0:0:
17,177,61300,1,0,1:0:0:0:
263,150,61457,1,0,1:0:0:0:
58,62,61615,1,0,1:0:0:0:
65,287,61773,1,0,1:0:0:0:
329,232,61931,6,0,B|353:170|353:170|348:98,1,135,4|0,0:0|0:0,0:0:0:0:
192,95,62247,2,0,P|187:117|187:140,1,45,0|0,1:0|0:0,0:0:0:0:
230,261,62405,2,0,P|234:239|232:216,1,45,2|0,0:0|0:0,0:0:0:0:
175,323,62563,2,0,P|256:338|310:297,1,135,8|0,0:0|0:0,0:0:0:0:
329,232,62878,2,0,P|376:266|386:280,1,45,0|0,1:0|0:0,0:0:0:0:
211,139,63036,2,0,P|261:123|289:128,1,45,0|0,1:0|0:0,0:0:0:0:
131,291,63194,5,4,0:0:0:0:
236,226,63352,1,0,0:0:0:0:
110,70,63510,2,0,L|120:173,1,90,2|0,0:0|0:0,0:0:0:0:
218,308,63826,2,0,B|240:240|240:240|330:255,1,135,8|0,0:0|0:0,0:0:0:0:
378,247,64142,2,0,P|363:304|355:311,1,45,2|0,0:0|0:0,0:0:0:0:
226,384,64300,2,0,P|169:366|156:355,1,45,2|0,0:0|0:0,0:0:0:0:
231,169,64457,5,4,0:0:0:0:
248,285,64615,1,0,0:0:0:0:
146,197,64773,2,0,P|141:139|143:128,1,45,0|0,1:0|0:0,0:0:0:0:
307,126,64931,2,0,P|318:167|310:204,1,45,2|0,0:0|0:0,0:0:0:0:
178,44,65089,2,0,L|287:35,1,90,8|0,0:0|0:0,0:0:0:0:
282,265,65405,2,0,L|161:276,1,90,0|0,1:0|0:0,0:0:0:0:
227,157,65721,5,4,0:0:0:0:
377,227,65878,1,0,0:0:0:0:
377,227,65957,1,0,0:0:0:0:
377,227,66036,2,0,P|385:271|377:315,1,90,0|0,0:0|1:0,0:0:0:0:
98,305,66352,2,0,L|261:284,1,135,8|0,0:0|0:0,0:0:0:0:
28,328,66668,2,0,P|28:286|39:256,1,45,2|0,0:0|0:0,0:0:0:0:
289,246,66826,2,0,P|300:266|306:288,1,45,2|0,0:0|0:0,0:0:0:0:
146,205,66984,6,0,L|131:70,1,135,4|0,0:0|0:0,0:0:0:0:
103,57,67300,1,2,0:0:0:0:
129,234,67457,1,2,0:0:0:0:
328,80,67615,2,0,L|179:93,1,135,8|0,0:0|0:0,0:0:0:0:
176,115,67931,1,2,0:0:0:0:
345,112,68089,1,2,0:0:0:0:
248,52,68247,5,4,0:0:0:0:
199,214,68405,1,0,0:0:0:0:
323,201,68563,1,2,0:0:0:0:
255,130,68721,1,0,0:0:0:0:
194,239,68878,2,0,L|195:310,1,45,0|0,1:0|0:0,0:0:0:0:
123,145,69036,2,0,L|123:88,1,45,0|0,1:0|0:0,0:0:0:0:
47,277,69194,2,0,L|54:376,1,90,2|0,0:0|0:0,0:0:0:0:
39,243,69431,1,2,0:0:0:0:
33,212,69510,6,0,B|26:159|26:159|27:94,1,90,4|0,0:0|0:0,0:0:0:0:
96,80,69747,1,0,0:0:0:0:
96,80,69826,2,0,L|187:68,1,90,0|0,1:0|0:0,0:0:0:0:
282,173,70063,1,0,0:0:0:0:
282,173,70142,2,0,L|191:161,1,90,0|0,1:0|0:0,0:0:0:0:
333,51,70457,1,2,0:0:0:0:
341,59,70536,1,0,0:0:0:0:
351,66,70615,1,0,1:0:0:0:
450,234,70773,6,0,L|449:347,1,90,4|0,0:0|0:0,0:0:0:0:
449,323,71010,1,0,0:0:0:0:
449,323,71089,1,2,1:0:0:0:
306,249,71247,1,0,0:0:0:0:
393,81,71405,2,0,P|453:132|456:198,1,135,4|0,0:0|0:0,0:0:0:0:
246,137,71721,2,0,P|289:79|326:71,1,90,2|0,0:0|0:0,0:0:0:0:
348,166,72036,5,0,1:0:0:0:
196,46,72352,2,0,L|70:53,1,90,2|0,0:0|0:0,0:0:0:0:
326,49,72668,2,0,L|436:58,1,90,2|0,0:0|0:0,0:0:0:0:
168,186,72984,1,0,1:0:0:0:
277,168,73300,5,2,0:0:0:0:
82,149,73457,1,0,0:0:0:0:
82,149,73536,1,0,0:0:0:0:
82,149,73615,1,2,0:0:0:0:
218,284,73773,1,0,0:0:0:0:
206,44,73931,1,8,0:0:0:0:
166,215,74247,1,2,0:0:0:0:
126,222,74325,1,0,0:0:0:0:
85,216,74404,1,0,0:0:0:0:
56,187,74483,1,0,0:0:0:0:
42,143,74562,5,0,1:0:0:0:
189,277,74721,1,0,0:0:0:0:
207,275,74800,1,0,0:0:0:0:
227,274,74878,1,0,0:0:0:0:
134,116,75036,1,2,0:0:0:0:
53,282,75194,5,0,0:0:0:0:
200,148,75353,1,0,0:0:0:0:
218,150,75432,1,0,0:0:0:0:
238,152,75510,1,0,1:0:0:0:
186,27,75668,1,2,0:0:0:0:
55,163,75826,5,0,0:0:0:0:
55,208,75904,1,0,0:0:0:0:
55,253,75983,1,0,0:0:0:0:
55,298,76062,1,0,0:0:0:0:
55,343,76141,1,0,1:0:0:0:
232,227,76300,1,0,0:0:0:0:
149,57,76457,2,0,L|153:182,1,90,8|0,0:0|0:0,0:0:0:0:
347,358,76773,2,0,B|353:306|353:306|345:247,1,90,2|0,0:0|0:0,0:0:0:0:
235,314,77089,5,0,1:0:0:0:
460,180,77405,2,0,P|465:134|461:87,1,90,2|0,0:0|0:0,0:0:0:0:
335,224,77721,2,0,P|331:298|339:343,1,90,2|0,0:0|0:0,0:0:0:0:
448,289,78036,1,0,1:0:0:0:
231,66,78352,2,0,L|114:68,1,90,2|0,0:0|0:0,0:0:0:0:
276,140,78589,1,0,0:0:0:0:
276,140,78668,2,0,L|371:142,1,90,0|0,1:0|0:0,0:0:0:0:
166,268,78984,1,8,0:0:0:0:
180,157,79142,1,0,0:0:0:0:
270,257,79300,6,0,L|268:301,1,45,2|0,0:0|0:0,0:0:0:0:
88,162,79457,2,0,L|92:99,1,45
263,129,79615,1,0,1:0:0:0:
88,246,79773,1,0,0:0:0:0:
78,217,79852,1,0,0:0:0:0:
80,182,79931,1,0,0:0:0:0:
188,69,80089,1,2,0:0:0:0:
274,219,80247,5,0,0:0:0:0:
94,97,80405,1,0,0:0:0:0:
94,97,80484,1,0,0:0:0:0:
94,97,80563,1,0,1:0:0:0:
278,118,80721,1,2,0:0:0:0:
101,252,80878,5,0,0:0:0:0:
145,250,80956,1,0,0:0:0:0:
190,249,81035,1,0,0:0:0:0:
235,247,81114,1,0,0:0:0:0:
278,246,81194,2,0,L|391:243,1,90,0|0,0:0|1:0,0:0:0:0:
172,340,81510,2,0,L|76:343,1,90,8|0,0:0|1:0,0:0:0:0:
278,118,81747,1,0,0:0:0:0:
289,146,81826,2,0,P|290:190|277:233,1,90,0|0,1:0|0:0,0:0:0:0:
182,149,82142,5,4,0:0:0:0:
294,28,82300,1,0,0:0:0:0:
376,166,82457,1,2,0:0:0:0:
209,54,82615,1,0,0:0:0:0:
375,89,82773,1,8,0:0:0:0:
199,188,82931,1,0,0:0:0:0:
305,37,83089,1,2,0:0:0:0:
373,203,83247,1,0,0:0:0:0:
172,57,83405,5,4,1:0:0:0:
138,61,83483,1,0,0:0:0:0:
109,78,83562,1,0,0:0:0:0:
88,104,83641,1,0,0:0:0:0:
78,136,83720,1,0,0:0:0:0:
186,310,83878,2,0,P|219:324|252:324,1,45,2|0,1:0|0:0,0:0:0:0:
174,194,84036,2,0,P|180:161|174:131,1,45,8|0,1:0|0:0,0:0:0:0:
91,256,84194,2,0,P|53:264|22:288,1,45,2|0,1:0|0:0,0:0:0:0:
258,237,84352,5,0,1:0:0:0:
258,237,84431,1,0,0:0:0:0:
258,237,84510,1,0,0:0:0:0:
258,237,84589,1,0,0:0:0:0:
258,237,84668,2,0,L|367:234,1,90,4|0,0:0|0:0,0:0:0:0:
364,234,84905,1,0,0:0:0:0:
388,234,84984,1,0,0:0:0:0:
333,340,85142,1,0,1:0:0:0:
336,60,85300,5,8,0:0:0:0:
480,194,85457,2,0,L|475:271,1,45
227,155,85615,2,0,L|349:158,1,90,0|0,0:0|1:0,0:0:0:0:
133,208,85931,1,4,0:0:0:0:
116,166,86009,1,0,0:0:0:0:
119,122,86088,1,0,0:0:0:0:
143,84,86167,1,0,0:0:0:0:
182,61,86246,1,0,0:0:0:0:
242,252,86405,1,0,0:0:0:0:
39,331,86563,2,0,L|151:317,1,90,8|0,0:0|0:0,0:0:0:0:
324,156,86878,2,0,L|197:147,1,90,2|0,0:0|0:0,0:0:0:0:
350,274,87194,5,0,1:0:0:0:
437,155,87352,2,0,P|433:107|404:62,1,90,0|2,0:0|0:0,0:0:0:0:
227,298,87668,1,0,0:0:0:0:
375,295,87826,2,0,L|495:287,1,90,8|0,0:0|0:0,0:0:0:0:
221,318,88142,2,0,L|101:308,1,90,0|0,1:0|0:0,0:0:0:0:
362,131,88457,2,0,L|351:217,1,45,4|0,0:0|0:0,0:0:0:0:
170,120,88615,1,0,0:0:0:0:
170,120,88694,1,0,0:0:0:0:
170,120,88773,2,0,L|273:122,1,90,2|0,0:0|0:0,0:0:0:0:
89,34,89089,2,0,P|59:109|62:137,1,90,8|0,0:0|0:0,0:0:0:0:
158,249,89405,2,0,L|256:238,1,90,2|0,0:0|0:0,0:0:0:0:
376,384,89721,5,4,0:0:0:0:
227,317,89878,1,0,0:0:0:0:
361,206,90036,1,0,0:0:0:0:
327,298,90194,1,0,1:0:0:0:
258,147,90352,2,0,L|328:141,1,45,8|0,0:0|0:0,0:0:0:0:
461,74,90510,1,0,0:0:0:0:
433,73,90589,1,0,0:0:0:0:
401,72,90668,1,0,0:0:0:0:
155,60,90826,2,0,L|253:47,1,90,0|4,1:0|0:0,0:0:0:0:
67,181,91142,5,0,1:0:0:0:
67,181,91221,1,0,1:0:0:0:
67,181,91300,1,0,1:0:0:0:
243,171,91457,1,0,1:0:0:0:
80,84,91615,1,0,1:0:0:0:
173,250,91773,1,0,1:0:0:0:
182,72,91931,2,0,L|164:143,1,45,2|0,0:0|0:0,0:0:0:0:
55,217,92089,2,0,L|66:280,1,45,2|0,0:0|0:0,0:0:0:0:
197,320,92247,5,4,0:0:0:0:
220,278,92325,1,0,0:0:0:0:
219,232,92404,1,0,0:0:0:0:
236,190,92483,1,0,0:0:0:0:
235,140,92563,2,0,P|273:143|315:156,1,45,8|0,1:0|0:0,0:0:0:0:
146,146,92721,5,4,0:0:0:0:
150,116,92799,1,0,0:0:0:0:
163,89,92878,1,0,0:0:0:0:
184,68,92957,1,0,0:0:0:0:
211,55,93036,1,0,1:0:0:0:
241,51,93115,1,0,1:0:0:0:
285,95,93194,1,0,1:0:0:0:
326,91,93273,1,0,0:0:0:0:
370,87,93351,1,0,1:0:0:0:
415,84,93430,1,0,0:0:0:0:
459,137,93510,6,0,L|441:223,1,45,4|0,0:0|0:0,0:0:0:0:
385,313,93668,1,0,0:0:0:0:
385,313,93747,1,0,0:0:0:0:
385,313,93826,2,0,P|378:256|380:228,1,45,8|0,0:0|0:0,0:0:0:0:
299,214,93984,2,0,P|322:180|340:167,1,45,4|0,0:0|0:0,0:0:0:0:
236,339,94142,1,2,1:0:0:0:
212,349,94220,1,0,0:0:0:0:
187,353,94299,1,0,0:0:0:0:
161,351,94378,1,0,0:0:0:0:
137,342,94457,1,0,1:0:0:0:
115,328,94536,1,0,0:0:0:0:
96,301,94615,2,0,P|92:233|91:222,1,45,8|0,0:0|0:0,0:0:0:0:
166,66,94773,5,4,0:0:0:0:
163,88,94851,1,0,0:0:0:0:
161,110,94930,1,0,0:0:0:0:
159,133,95009,1,0,0:0:0:0:
156,155,95088,1,0,0:0:0:0:
276,42,95247,1,4,0:0:0:0:
271,77,95325,1,0,0:0:0:0:
267,113,95404,1,0,0:0:0:0:
262,149,95483,1,0,0:0:0:0:
258,184,95562,1,0,0:0:0:0:
253,220,95641,1,0,0:0:0:0:
241,298,95721,5,0,1:0:0:0:
241,298,95799,1,0,0:0:0:0:
241,298,95878,2,0,L|297:310,1,45,4|0,0:0|0:0,0:0:0:0:
154,264,96037,1,0,0:0:0:0:
154,264,96115,1,0,0:0:0:0:
154,264,96194,2,0,L|98:276,1,45,4|0,1:0|0:0,0:0:0:0:
263,128,96353,5,0,0:0:0:0:
263,128,96431,1,0,0:0:0:0:
263,128,96510,2,0,L|319:140,1,45,0|0,1:0|0:0,0:0:0:0:
181,171,96668,6,0,P|170:145|165:109,1,45,0|0,1:0|0:0,0:0:0:0:
410,134,96826,6,0,L|393:220,1,45,0|0,1:0|0:0,0:0:0:0:
417,293,96984,6,0,L|391:211,1,45,0|0,1:0|0:0,0:0:0:0:
379,44,97142,6,0,L|368:114,1,45,0|0,1:0|0:0,0:0:0:0:
382,362,97300,1,4,1:0:0:0:
258,340,97615,1,0,0:0:0:0:
258,340,97773,2,0,P|183:344|110:251,1,180,0|0,1:0|0:0,0:0:0:0:
220,152,98168,1,0,0:0:0:0:
220,152,98247,2,0,L|217:241,1,90,0|0,1:0|1:0,0:0:0:0:
281,75,98484,5,0,0:0:0:0:
281,75,98563,2,0,P|232:58|186:60,1,90,4|0,0:0|0:0,0:0:0:0:
325,246,98800,1,0,0:0:0:0:
327,268,98878,2,0,P|337:215|325:167,1,90,0|0,1:0|0:0,0:0:0:0:
155,338,99115,1,0,0:0:0:0:
155,338,99194,1,0,1:0:0:0:
264,368,99352,1,0,0:0:0:0:
187,231,99510,6,0,P|138:229|117:236,1,45
45,282,99668,1,0,1:0:0:0:
263,262,99826,6,0,P|272:161|209:258,1,270,2|2,0:0|0:0,0:0:0:0:
376,343,100615,5,0,1:0:0:0:
376,343,100694,1,0,1:0:0:0:
376,343,100773,2,0,L|371:234,1,90
438,20,101089,6,0,L|436:187,1,135,4|0,0:0|0:0,0:0:0:0:
295,63,101405,2,0,L|339:53,1,45,0|0,1:0|0:0,0:0:0:0:
199,157,101564,1,0,0:0:0:0:
231,145,101643,1,0,0:0:0:0:
263,155,101721,1,8,0:0:0:0:
146,330,101878,1,0,0:0:0:0:
135,297,101957,1,0,0:0:0:0:
143,257,102036,2,0,P|192:248|224:256,1,45,2|0,1:0|0:0,0:0:0:0:
52,256,102194,2,0,P|21:257|-11:242,1,45,2|0,0:0|0:0,0:0:0:0:
56,152,102352,6,0,P|114:142|149:156,1,90,4|0,0:0|0:0,0:0:0:0:
228,316,102668,1,0,0:0:0:0:
99,224,102826,1,0,0:0:0:0:
99,224,102905,1,0,0:0:0:0:
99,224,102984,1,8,0:0:0:0:
229,197,103142,2,0,L|292:196,1,45
131,43,103300,2,0,P|53:45|-3:97,1,135,0|0,1:0|0:0,0:0:0:0:
75,193,103615,6,0,P|94:158|93:122,1,45,4|0,1:0|0:0,0:0:0:0:
182,289,103773,1,0,0:0:0:0:
182,289,103852,1,0,0:0:0:0:
182,289,103931,2,0,L|250:289,1,45
73,371,104089,2,0,L|28:372,1,45,0|0,1:0|0:0,0:0:0:0:
173,228,104247,5,8,0:0:0:0:
320,332,104405,1,8,0:0:0:0:
124,313,104563,5,0,0:0:0:0:
300,238,104721,1,0,1:0:0:0:
176,210,104878,5,4,0:0:0:0:
313,344,105036,1,0,0:0:0:0:
313,344,105115,1,0,0:0:0:0:
313,344,105194,1,8,0:0:0:0:
472,223,105352,1,8,0:0:0:0:
360,55,105510,2,0,B|324:59|294:67|294:67|254:56|197:64,1,135,8|0,0:0|0:0,0:0:0:0:
248,183,105826,2,0,B|245:232|245:232|260:275|260:275|250:333,1,135,4|0,0:0|0:0,0:0:0:0:
42,243,106142,6,0,P|88:229|152:226,1,90,4|0,0:0|0:0,0:0:0:0:
246,315,106457,1,2,0:0:0:0:
95,362,106615,1,2,0:0:0:0:
214,133,106773,1,8,0:0:0:0:
161,245,106931,1,0,0:0:0:0:
89,167,107089,1,0,1:0:0:0:
329,178,107247,1,0,0:0:0:0:
260,43,107405,2,0,P|207:33|147:54,1,90,2|0,1:0|0:0,0:0:0:0:
99,219,107721,5,2,0:0:0:0:
298,208,107878,1,2,0:0:0:0:
155,115,108036,1,8,0:0:0:0:
171,305,108194,1,0,0:0:0:0:
296,130,108352,2,0,P|342:137|373:232,1,135,4|0,0:0|0:0,0:0:0:0:
405,316,108668,6,0,L|323:308,1,45,0|0,1:0|0:0,0:0:0:0:
167,291,108826,1,0,0:0:0:0:
208,279,108905,1,0,0:0:0:0:
249,271,108984,1,0,0:0:0:0:
168,162,109142,1,0,1:0:0:0:
61,350,109300,6,0,L|48:249,1,90,8|0,0:0|0:0,0:0:0:0:
46,222,109536,1,0,0:0:0:0:
52,179,109615,1,0,0:0:0:0:
124,54,109773,1,0,0:0:0:0:
124,54,109931,1,4,0:0:0:0:
317,109,110089,5,0,1:0:0:0:
307,150,110168,1,0,1:0:0:0:
296,194,110247,1,0,1:0:0:0:
165,141,110405,1,0,1:0:0:0:
272,67,110563,1,0,1:0:0:0:
287,271,110721,2,0,L|215:243,1,45,2|0,0:0|0:0,0:0:0:0:
123,198,110878,1,0,1:0:0:0:
276,81,111036,1,0,1:0:0:0:
328,288,111194,6,0,B|358:264|390:251|390:251|404:217|425:188,1,135,4|0,0:0|0:0,0:0:0:0:
352,105,111510,2,0,P|342:53|344:37,1,45,8|0,1:0|0:0,0:0:0:0:
448,74,111668,1,0,0:0:0:0:
448,74,111747,1,0,0:0:0:0:
448,74,111826,1,2,0:0:0:0:
317,253,111984,1,0,0:0:0:0:
300,219,112063,1,0,0:0:0:0:
303,178,112142,1,8,0:0:0:0:
433,202,112300,1,0,0:0:0:0:
243,297,112457,2,0,P|216:214|232:154,1,135,4|0,0:0|0:0,0:0:0:0:
301,106,112773,6,0,L|372:103,1,45,8|0,1:0|0:0,0:0:0:0:
201,11,112931,1,0,0:0:0:0:
194,11,113010,1,0,0:0:0:0:
183,11,113089,2,0,L|116:21,1,45,2|0,0:0|0:0,0:0:0:0:
53,220,113247,1,0,0:0:0:0:
91,211,113326,1,0,0:0:0:0:
131,202,113405,1,8,0:0:0:0:
22,110,113563,1,0,0:0:0:0:
240,195,113721,6,0,L|230:282,1,45,2|0,1:0|0:0,0:0:0:0:
85,361,113878,1,0,0:0:0:0:
85,361,113957,1,0,0:0:0:0:
85,361,114036,2,0,L|138:352,1,45,10|0,0:0|0:0,0:0:0:0:
83,215,114194,2,0,L|90:303,1,45,2|0,0:0|0:0,0:0:0:0:
142,99,114352,2,0,P|82:80|47:87,1,90,0|0,1:0|0:0,0:0:0:0:
237,192,114668,1,8,0:0:0:0:
358,101,114826,1,0,0:0:0:0:
236,59,114984,5,0,1:0:0:0:
354,224,115142,1,0,0:0:0:0:
354,224,115221,1,0,0:0:0:0:
354,224,115300,1,10,0:0:0:0:
436,47,115457,1,2,0:0:0:0:
252,176,115615,2,0,B|246:222|246:222|257:276,1,90,0|0,1:0|0:0,0:0:0:0:
398,195,115931,1,8,0:0:0:0:
232,41,116089,1,0,1:0:0:0:
38,232,116247,6,0,L|150:221,1,90,4|0,0:0|0:0,0:0:0:0:
308,316,116563,2,0,L|262:361,1,45,0|0,1:0|0:0,0:0:0:0:
416,282,116721,1,0,0:0:0:0:
421,303,116800,1,0,0:0:0:0:
417,323,116878,1,8,0:0:0:0:
444,172,117036,1,0,0:0:0:0:
468,192,117115,1,0,0:0:0:0:
484,219,117194,1,4,0:0:0:0:
307,169,117352,1,0,1:0:0:0:
429,54,117510,2,0,P|480:71|519:124,1,90,4|0,0:0|0:0,0:0:0:0:
288,171,117826,5,2,0:0:0:0:
422,137,117984,1,0,0:0:0:0:
203,146,118142,1,0,0:0:0:0:
199,166,118220,1,0,0:0:0:0:
204,187,118299,1,0,1:0:0:0:
97,376,118457,2,0,P|125:320|99:223,1,135,8|0,0:0|0:0,0:0:0:0:
72,202,118773,6,0,P|55:144|63:89,1,90,4|0,0:0|0:0,0:0:0:0:
90,53,119010,1,0,0:0:0:0:
147,15,119089,2,0,P|197:9|267:34,1,90,0|0,1:0|0:0,0:0:0:0:
283,123,119326,1,0,0:0:0:0:
329,175,119405,2,0,P|373:181|417:172,1,90,0|0,1:0|0:0,0:0:0:0:
362,57,119721,1,0,1:0:0:0:
362,57,119800,1,0,0:0:0:0:
362,57,119878,1,0,0:0:0:0:
223,230,120036,6,0,L|226:310,1,45,4|0,1:0|0:0,0:0:0:0:
372,384,120194,2,0,L|366:315,1,45
205,195,120352,2,0,L|211:314,1,90,4|0,1:0|0:0,0:0:0:0:
374,225,120668,1,4,1:0:0:0:
363,40,120826,1,0,0:0:0:0:
153,110,120984,1,2,0:0:0:0:
175,106,121062,1,0,0:0:0:0:
197,102,121141,1,0,0:0:0:0:
219,105,121220,1,0,0:0:0:0:
245,106,121300,6,0,L|340:100,1,90,0|0,1:0|0:0,0:0:0:0:
368,97,121536,1,0,0:0:0:0:
398,94,121615,1,8,0:0:0:0:
193,217,121773,2,0,L|65:204,1,90,0|2,1:0|0:0,0:0:0:0:
252,327,122089,1,0,0:0:0:0:
183,118,122247,1,8,0:0:0:0:
45,296,122405,1,0,0:0:0:0:
268,208,122563,6,0,P|287:156|284:110,1,90,0|0,1:0|0:0,0:0:0:0:
278,89,122800,1,0,0:0:0:0:
259,55,122878,1,8,0:0:0:0:
77,121,123036,1,2,0:0:0:0:
147,274,123194,1,0,0:0:0:0:
190,178,123352,1,0,1:0:0:0:
34,218,123510,5,8,0:0:0:0:
34,218,123589,1,0,0:0:0:0:
34,218,123668,1,0,0:0:0:0:
34,218,123747,1,0,0:0:0:0:
34,218,123826,1,0,1:0:0:0:
127,95,123984,1,0,0:0:0:0:
127,95,124063,1,0,0:0:0:0:
127,95,124142,2,0,B|175:85|175:85|228:82,1,90,8|0,0:0|1:0,0:0:0:0:
328,271,124457,1,0,0:0:0:0:
191,175,124615,1,0,0:0:0:0:
355,43,124773,2,0,L|342:156,1,90,8|0,0:0|0:0,0:0:0:0:
324,307,125089,5,0,1:0:0:0:
452,192,125247,1,0,0:0:0:0:
452,192,125326,1,0,0:0:0:0:
452,192,125405,1,8,0:0:0:0:
273,138,125563,1,2,0:0:0:0:
302,330,125721,2,0,P|352:350|411:362,1,90,0|0,0:0|1:0,0:0:0:0:
381,173,126036,1,8,0:0:0:0:
186,185,126194,1,0,0:0:0:0:
321,47,126352,5,0,1:0:0:0:
330,256,126510,1,0,0:0:0:0:
330,256,126589,1,0,0:0:0:0:
330,256,126668,2,0,L|236:260,1,90,8|0,0:0|1:0,0:0:0:0:
460,157,126984,1,2,0:0:0:0:
457,326,127142,1,0,0:0:0:0:
312,166,127300,1,8,0:0:0:0:
456,53,127457,1,0,0:0:0:0:
441,240,127615,5,0,1:0:0:0:
360,88,127773,1,0,0:0:0:0:
360,88,127852,1,0,0:0:0:0:
360,88,127931,2,0,P|295:83|240:97,1,90,8|0,0:0|0:0,0:0:0:0:
113,195,128247,2,0,L|236:196,1,90,2|0,0:0|1:0,0:0:0:0:
33,235,128563,1,8,0:0:0:0:
23,202,128641,1,0,0:0:0:0:
28,169,128720,1,0,0:0:0:0:
45,141,128799,1,0,0:0:0:0:
73,122,128878,5,0,1:0:0:0:
283,269,129036,1,0,0:0:0:0:
272,319,129115,1,0,0:0:0:0:
243,359,129194,1,8,0:0:0:0:
173,273,129352,1,0,1:0:0:0:
360,353,129510,2,0,L|468:349,1,90,2|0,0:0|0:0,0:0:0:0:
214,153,129826,2,0,P|159:147|93:164,1,90,8|0,0:0|0:0,0:0:0:0:
408,136,130142,6,0,P|412:82|405:28,1,90,0|0,1:0|0:0,0:0:0:0:
173,273,130457,2,0,B|167:312|167:312|178:371,1,90,8|0,0:0|0:0,0:0:0:0:
359,249,130773,1,0,0:0:0:0:
194,153,130931,1,0,1:0:0:0:
160,157,131010,1,0,0:0:0:0:
131,162,131089,2,0,P|112:108|111:55,1,90,8|0,0:0|1:0,0:0:0:0:
385,55,131405,5,4,1:0:0:0:
204,114,131563,1,0,0:0:0:0:
400,213,131721,1,8,0:0:0:0:
294,101,131878,1,0,0:0:0:0:
164,325,132036,1,0,1:0:0:0:
228,173,132194,1,0,0:0:0:0:
336,305,132352,2,0,L|455:305,1,90,8|0,0:0|0:0,0:0:0:0:
152,181,132668,5,0,1:0:0:0:
181,343,132826,1,0,0:0:0:0:
181,343,132905,1,0,0:0:0:0:
181,343,132984,1,8,0:0:0:0:
283,217,133142,1,0,0:0:0:0:
111,95,133300,2,0,P|71:150|56:207,1,90,0|0,1:0|0:0,0:0:0:0:
287,331,133615,2,0,L|370:320,1,45,8|0,0:0|0:0,0:0:0:0:
160,354,133773,2,0,L|214:356,1,45
99,285,133931,5,0,1:0:0:0:
178,116,134089,1,0,0:0:0:0:
178,116,134168,1,0,0:0:0:0:
178,116,134247,1,8,0:0:0:0:
307,236,134405,1,0,0:0:0:0:
74,131,134563,2,0,P|91:60|110:32,1,90,0|0,1:0|0:0,0:0:0:0:
287,114,134878,2,0,L|392:103,1,90,8|0,0:0|0:0,0:0:0:0:
135,288,135194,5,0,1:0:0:0:
267,264,135352,1,0,0:0:0:0:
267,264,135431,1,0,0:0:0:0:
267,264,135510,2,0,P|247:215|210:182,1,90,8|0,0:0|0:0,0:0:0:0:
400,350,135826,1,0,1:0:0:0:
479,221,135984,1,0,0:0:0:0:
370,123,136142,1,8,0:0:0:0:
376,245,136300,1,0,0:0:0:0:
420,38,136457,6,0,P|372:27|332:27,1,90,0|0,1:0|0:0,0:0:0:0:
226,120,136694,2,0,L|174:117,1,45,0|8,0:0|0:0,0:0:0:0:
70,115,136931,1,0,1:0:0:0:
302,193,137089,2,0,P|324:137|322:84,1,90,0|0,1:0|0:0,0:0:0:0:
131,27,137405,1,8,0:0:0:0:
103,216,137563,1,0,0:0:0:0:
205,88,137721,5,4,1:0:0:0:
26,133,137878,1,0,0:0:0:0:
26,133,137957,1,0,0:0:0:0:
26,133,138036,1,8,0:0:0:0:
227,189,138194,1,0,0:0:0:0:
101,50,138352,1,0,1:0:0:0:
63,258,138510,1,0,0:0:0:0:
215,66,138668,1,8,0:0:0:0:
269,52,138746,1,0,0:0:0:0:
324,62,138825,1,0,0:0:0:0:
370,93,138904,1,0,0:0:0:0:
401,140,138983,5,4,0:0:0:0:
309,312,139142,1,0,0:0:0:0:
302,275,139221,1,0,0:0:0:0:
307,235,139300,1,0,1:0:0:0:
437,309,139457,1,0,0:0:0:0:
437,326,139536,1,0,0:0:0:0:
439,343,139615,1,2,0:0:0:0:
209,248,139773,1,0,0:0:0:0:
425,87,139931,6,0,L|426:166,1,45,8|0,0:0|0:0,0:0:0:0:
438,376,140089,1,4,0:0:0:0:
281,353,140405,5,0,1:0:0:0:
213,207,140563,1,0,1:0:0:0:
66,294,140721,1,0,1:0:0:0:
92,56,140878,1,4,0:0:0:0:
