osu file format v14

[General]
AudioFilename: BSpower BigBang.mp3
AudioLeadIn: 0
PreviewTime: 121300
Countdown: 0
SampleSet: Soft
StackLeniency: 0.7
Mode: 0
LetterboxInBreaks: 1
WidescreenStoryboard: 1

[Editor]
DistanceSpacing: 1
BeatDivisor: 1
GridSize: 4
TimelineZoom: 1.6

[Metadata]
Title:BSpower BigBang
TitleUnicode:BSpower BigBang
Artist:Memme
ArtistUnicode:Memme
Creator:ragingkrane
Version:Easy
Source:O2jam
Tags:park memme dubstep badass wobs electronic song>map animals horse cow thing
BeatmapID:977212
BeatmapSetID:453335

[Difficulty]
HPDrainRate:1.6
CircleSize:3
OverallDifficulty:2
ApproachRate:3
SliderMultiplier:0.75
SliderTickRate:1

[Events]
//Background and Video events
0,0,"water_blue_eyes_fish_anime_chinese_dress_anime_girls_xiao_black_hair_Wallpaper_1920x1200_www.wallpaperswa.com.jpg",0,0
//Break Periods
//Storyboard Layer 0 (Background)
//Storyboard Layer 1 (Fail)
//Storyboard Layer 2 (Pass)
//Storyboard Layer 3 (Foreground)
//Storyboard Sound Samples

[TimingPoints]
1300,315.789473684211,4,2,1,100,1,0

[Colours]
Combo1 : 60,191,255
Combo2 : 249,0,0
Combo3 : 255,114,9
Combo4 : 255,206,11

[HitObjects]
32,56,1300,6,0,B|144:56|144:56|176:16|252:20|280:48,1,225
312,72,2563,2,0,B|304:124|304:124|320:172|320:172|308:240,1,150
396,344,3826,6,0,P|268:376|188:296,1,225
172,256,5089,2,0,B|168:156|168:156|192:92,1,150
324,168,6352,6,0,B|376:148|448:172|448:172|476:120|452:52,1,225
400,32,7615,2,0,L|212:32,1,150
112,92,8878,6,0,P|84:160|200:240,1,225
244,160,10142,2,0,P|249:117|244:56,2,75
216,308,11405,2,0,B|268:304|268:304|312:332|312:332|388:328,1,150
488,252,12668,2,0,B|468:212|480:172|480:172|496:140|476:84,1,150
348,36,13931,6,0,B|336:92|336:92|348:216,1,150
240,292,15194,2,0,L|116:288,2,75
376,356,16457,6,0,B|388:292|388:292|372:244|380:156,1,150
464,84,17721,2,0,P|396:56|312:76,1,150
192,140,18984,6,0,L|200:324,1,150
340,340,20247,2,0,L|344:228,2,75
456,244,21510,6,0,P|468:148|344:136,1,225
400,184,22773,2,0,L|240:184,1,150
172,312,24036,2,0,L|412:312,1,225
460,272,25300,2,0,P|480:192|464:112,1,150
320,124,26563,6,0,P|316:224|320:300,1,150
456,212,27826,6,0,P|460:112|456:36,1,150
308,56,29089,2,0,B|136:48|136:48|200:92,1,225
220,140,30352,2,0,L|216:292,1,150
144,272,31300,1,0,0:0:0:0:
80,312,31615,2,0,P|80:236|212:232,1,225
252,280,32878,2,0,L|472:276,1,150
484,152,34142,6,0,P|416:52|312:140,1,225
320,152,35405,2,0,L|120:136,1,150
28,92,36668,6,0,L|24:252,1,150
128,348,37931,2,0,L|131:198,1,150
252,104,39194,2,0,P|179:24|74:45,1,225
44,116,40457,2,0,L|164:104,2,75
36,268,41721,6,0,L|220:248,1,150
228,192,42668,1,0,0:0:0:0:
280,136,42984,2,0,B|344:108|344:108|396:124|472:100,2,150
132,148,44878,6,0,P|120:96|144:36,1,75
184,32,45510,2,0,L|376:28,1,150
472,92,46773,2,0,B|484:156|484:156|456:232|456:232|472:352,1,225
392,320,48036,2,0,P|272:280|256:376,1,225
320,344,49300,6,0,B|336:196|336:196|320:96,1,225
104,84,51194,2,0,P|32:92|-24:100,1,75
28,168,51826,6,0,B|36:224|20:251|20:251|48:311,2,150
128,56,53721,1,0,0:0:0:0:
232,160,54352,2,0,L|432:160,1,150
480,44,55615,2,0,L|292:44,1,150
188,96,56878,6,0,P|176:204|212:252,1,150
324,316,58142,2,0,L|508:312,1,150
440,168,59405,2,0,P|340:168|348:40,1,225
384,108,60668,2,0,L|384:276,1,150
260,344,61931,6,0,L|76:348,1,150
220,244,63194,2,0,L|340:240,2,75
88,176,64457,2,0,P|72:68|88:28,1,150
216,108,65721,2,0,L|216:276,1,150
100,352,66984,6,0,L|100:196,1,150
124,56,68247,2,0,P|200:28|284:72,1,150
336,180,69510,6,0,B|264:136|204:220|80:160,1,225
68,116,70773,2,0,P|128:44|204:64,1,150
268,168,72036,6,0,L|512:160,2,225
228,312,74563,2,0,L|-16:304,2,225
376,332,77089,6,0,P|456:288|352:272,2,225
304,200,79615,2,0,P|400:152|504:200,2,225
232,332,82142,2,0,L|72:332,1,150
156,200,83405,2,0,L|256:200,2,75
12,156,84668,2,0,P|16:64|92:28,1,150
196,84,85931,2,0,L|368:80,1,150
352,232,87194,6,0,L|202:235,1,150
92,340,88457,2,0,P|48:284|48:188,1,150
164,120,89721,2,0,L|348:112,1,150
416,224,90984,2,0,L|248:216,1,150
348,340,92247,2,0,P|440:268|380:136,1,225
360,132,93510,2,0,B|264:104|264:104|224:20|132:60,1,225
180,124,94773,6,0,B|179:196|179:196|156:300,2,150
324,168,96668,2,0,L|428:168,2,75
212,68,97931,2,0,L|116:72,1,75
68,40,98563,2,0,L|80:236,2,150
66,339,101089,6,0,B|92:339|122:318|122:318|163:349|241:341,1,150
359,337,102352,2,0,P|425:267|378:143,1,225
326,189,103615,2,0,L|114:185,1,150
123,45,104878,2,0,P|51:93|37:206,1,150
24,300,106142,6,0,B|132:328|132:328|258:289,1,225
306,329,107405,2,0,B|358:334|400:311|400:311|484:325,1,150
332,229,108668,2,0,L|337:108,2,75
436,121,109931,2,0,P|363:59|227:119,1,225
219,160,111194,6,0,L|224:317,1,150
364,363,112457,2,0,L|352:189,1,150
258,96,113721,2,0,P|150:72|91:110,2,150
305,237,115615,1,0,0:0:0:0:
225,364,116247,6,0,B|201:287|201:287|226:233|226:233|205:132,1,225
138,122,117510,2,0,B|188:92|188:92|239:92|239:92|294:63,1,150
130,29,118773,2,0,P|68:59|57:147,1,150
146,249,120036,2,0,L|139:92,1,150
39,211,121300,6,0,L|47:367,2,150
108,77,123194,2,0,L|114:179,1,75
123,226,123826,2,0,L|284:208,1,150
305,63,125089,2,0,L|135:83,1,150
265,183,126352,6,0,P|347:193|411:129,1,150
318,25,127615,2,0,L|321:148,2,75
319,175,128878,2,0,L|492:170,1,150
448,319,130142,2,0,L|443:227,2,75
299,342,131405,6,0,P|318:249|382:227,1,150
471,329,132668,2,0,L|464:157,1,150
355,77,133931,2,0,L|363:273,1,150
254,332,135194,2,0,P|181:354|81:318,1,150
10,226,136457,2,0,P|86:202|182:239,1,150
252,330,137721,2,0,L|252:176,1,150
183,46,138984,6,0,P|258:40|344:44,1,150
398,77,139931,1,0,0:0:0:0:
446,219,140563,2,0,L|442:313,1,75
