osu file format v14

[General]
AudioFilename: audio.mp3
AudioLeadIn: 0
PreviewTime: 42519
Countdown: 0
SampleSet: Normal
StackLeniency: 0.4
Mode: 0
LetterboxInBreaks: 0
WidescreenStoryboard: 0

[Editor]
Bookmarks: 61378
DistanceSpacing: 1
BeatDivisor: 6
GridSize: 8
TimelineZoom: 2.999999

[Metadata]
Title:BSPower Explosion
TitleUnicode:BSPower Explosion
Artist:Memme
ArtistUnicode:Memme
Creator:PandaHero
Version:Salty's Insane
Source:O2Jam Analog
Tags:electronic instrumental oriental core piu pump it up prime 2 o2 jam rhythm video game music saltylucario salty saltking kujinn reform owc2020 owc 2020 ro32 fm1 parkmemme
BeatmapID:4193587
BeatmapSetID:1096818

[Difficulty]
HPDrainRate:5
CircleSize:4
OverallDifficulty:8
ApproachRate:9
SliderMultiplier:1.7
SliderTickRate:1

[Events]
//Background and Video events
0,0,"1.jpg",0,0
//Break Periods
2,53885,55585
2,91052,92585
//Storyboard Layer 0 (Background)
//Storyboard Layer 1 (Fail)
//Storyboard Layer 2 (Pass)
//Storyboard Layer 3 (Foreground)
//Storyboard Layer 4 (Overlay)
//Storyboard Sound Samples

[TimingPoints]
186,333.333333333333,4,1,0,70,1,0
10185,-133.333333333333,4,1,0,70,0,0
10852,-90.9090909090909,4,2,0,65,0,0
20852,-125,4,2,0,65,0,0
21435,-125,4,2,0,5,0,0
21519,-125,4,1,0,70,0,1
21602,-125,4,1,0,70,0,0
22185,-100,4,1,0,70,0,1
22269,-100,4,1,0,70,0,0
22852,-100,4,1,0,70,0,1
23852,-100,4,1,0,70,0,0
24185,-100,4,2,0,65,0,0
26852,-100,4,1,0,70,0,1
26935,-100,4,1,0,70,0,0
27519,-100,4,1,0,70,0,1
27602,-100,4,1,0,70,0,0
28185,-100,4,1,0,70,0,1
29185,-100,4,1,0,70,0,0
29519,-100,4,2,0,65,0,0
42435,-125,4,2,0,5,0,0
42519,-100,4,2,0,65,0,0
42852,-100,4,1,0,70,0,0
53519,-100,4,1,0,55,0,0
58852,-100,4,1,0,75,0,0
69519,-90.9090909090909,4,1,0,70,0,0
77102,-90.9090909090909,4,2,0,5,0,0
77185,-90.9090909090909,4,1,0,70,0,0
80185,-90.9090909090909,4,1,0,70,0,0
87769,-125,4,2,0,5,0,0
87852,-90.9090909090909,4,1,0,70,0,0
90852,-90.9090909090909,4,2,0,60,0,0
93185,-133.333333333333,4,2,0,60,0,0
94852,-111.111111111111,4,2,0,60,0,0
96185,-111.111111111111,4,2,0,65,0,0
101519,-111.111111111111,4,1,0,65,0,0
103519,-95.2380952380952,4,1,0,65,0,0
104185,-83.3333333333333,4,1,0,75,0,1
125519,-83.3333333333333,4,1,0,70,0,0
130852,-83.3333333333333,4,1,0,70,0,1
134852,-90.9090909090909,4,1,0,70,0,1
136102,-125,4,2,0,5,0,1
136185,-90.9090909090909,4,1,0,70,0,1
137185,-100,4,1,0,65,0,0

[Colours]
Combo1 : 58,186,119
Combo2 : 73,164,171
Combo3 : 171,73,73
Combo4 : 181,117,64

[HitObjects]
89,262,186,6,0,P|86:219|82:177,1,85,4|0,0:0|0:0,0:0:0:0:
230,77,519,2,0,P|225:125|223:166,1,85,8|4,0:0|0:2,0:0:0:0:
335,298,852,1,0,0:0:0:0:
361,167,1019,1,0,0:0:0:0:
237,246,1185,2,0,P|191:245|150:196,1,85,8|0,0:0|0:0,0:0:0:0:
73,50,1519,5,4,0:0:0:0:
69,75,1602,1,0,0:0:0:0:
65,100,1685,1,0,0:0:0:0:
61,125,1769,1,0,0:0:0:0:
58,149,1852,2,0,P|107:138|168:130,1,85,8|4,0:0|0:2,0:0:0:0:
293,37,2185,5,0,0:0:0:0:
276,146,2352,1,0,0:0:0:0:
258,258,2519,1,4,0:0:0:0:
369,228,2685,6,0,L|360:182,2,28.3333333333333,8|8|8,0:3|0:3|0:3,0:0:0:0:
399,259,2852,2,0,L|390:316,1,42.5,4|0,0:0|2:0,0:0:0:0:
486,161,3019,1,0,0:0:0:0:
486,161,3102,1,0,0:0:0:0:
486,161,3185,2,0,P|477:113|467:54,1,85,8|0,0:0|0:0,0:0:0:0:
280,29,3519,5,4,0:0:0:0:
361,147,3685,1,0,0:0:0:0:
361,147,3769,1,0,0:0:0:0:
361,147,3852,1,8,0:0:0:0:
389,52,4019,1,0,0:0:0:0:
260,119,4185,6,0,P|255:146|239:173,1,42.5,4|0,0:0|2:0,0:0:0:0:
292,233,4352,2,0,P|266:242|234:241,1,42.5,0|0,0:0|2:0,0:0:0:0:
134,164,4519,2,0,P|164:226|151:270,1,85,8|0,0:0|0:0,0:0:0:0:
55,336,4852,2,0,B|134:351|134:351|151:363|151:363|240:380,1,170,4|4,0:2|0:2,0:0:0:0:
340,267,5352,6,0,L|332:228,2,28.3333333333333,8|8|8,0:3|0:3|0:3,0:0:0:0:
367,295,5519,2,0,P|416:304|476:317,1,85,4|0,0:0|0:0,0:0:0:0:
288,166,5852,2,0,P|337:157|397:144,1,85,8|4,0:0|0:2,0:0:0:0:
494,42,6185,1,0,0:0:0:0:
379,8,6352,1,0,0:0:0:0:
465,127,6519,2,0,P|473:168|447:209,1,85,8|0,0:0|0:0,0:0:0:0:
306,82,6852,5,4,0:0:0:0:
279,76,6935,1,0,0:0:0:0:
254,72,7019,1,0,0:0:0:0:
231,67,7102,1,0,0:0:0:0:
209,64,7185,2,0,P|219:116|228:175,1,85,8|4,0:0|0:2,0:0:0:0:
260,306,7519,5,0,0:0:0:0:
140,285,7685,1,0,0:2:0:0:
17,258,7852,1,4,0:0:0:0:
74,151,8019,6,0,L|82:113,2,28.3333333333333,8|8|8,0:3|0:3|0:3,0:0:0:0:
99,179,8185,2,0,L|163:165,1,42.5,4|0,0:0|2:0,0:0:0:0:
216,65,8352,1,0,0:0:0:0:
216,65,8435,1,0,0:0:0:0:
216,65,8519,2,0,P|260:72|325:84,1,85,8|4,0:0|0:2,0:0:0:0:
482,135,8852,5,0,0:0:0:0:
361,204,9019,1,0,0:0:0:0:
361,204,9102,1,0,0:0:0:0:
361,204,9185,1,8,0:0:0:0:
397,94,9352,1,0,0:0:0:0:
244,171,9519,5,4,0:0:0:0:
268,199,9602,1,0,0:0:0:0:
274,236,9685,1,0,0:0:0:0:
254,270,9769,1,0,0:0:0:0:
220,289,9852,2,0,P|190:280|161:276,1,42.5,8|0,0:0|2:0,0:0:0:0:
119,196,10019,2,0,P|139:191|160:185,1,42.5,0|0,0:0|2:0,0:0:0:0:
339,230,10185,6,0,P|357:251|358:239,1,63.7500024318696,2|0,0:0|0:0,0:0:0:0:
297,368,10519,2,0,P|315:347|316:359,1,63.7500024318696,10|0,0:0|0:0,0:0:0:0:
445,245,10852,6,0,P|436:195|423:120,1,93.5000028533936,4|0,1:0|1:0,0:0:0:0:
391,141,11102,1,0,1:0:0:0:
391,141,11185,2,0,P|400:91|413:16,1,93.5000028533936,8|2,1:0|0:0,0:0:0:0:
511,170,11519,1,0,1:0:0:0:
366,243,11685,1,2,0:0:0:0:
446,341,11852,2,0,P|455:291|468:216,1,93.5000028533936,8|2,1:0|0:0,0:0:0:0:
386,101,12185,6,0,P|343:126|279:115,1,93.5000028533936,0|0,1:0|1:0,0:0:0:0:
278,91,12435,1,0,1:0:0:0:
278,91,12519,2,0,P|235:66|171:77,1,93.5000028533936,8|2,1:0|0:0,0:0:0:0:
114,184,12852,1,0,1:0:0:0:
68,68,13019,1,2,0:0:0:0:
216,155,13185,1,8,1:0:0:0:
210,183,13269,1,0,1:0:0:0:
205,209,13352,1,0,1:0:0:0:
201,234,13435,1,0,1:0:0:0:
196,258,13519,6,0,B|188:305|188:305|246:350,1,93.5000028533936,0|0,1:0|1:0,0:0:0:0:
249,373,13769,1,0,1:0:0:0:
249,373,13852,2,0,B|296:381|296:381|341:323,1,93.5000028533936,8|2,1:0|0:0,0:0:0:0:
426,217,14185,1,0,1:0:0:0:
319,245,14352,1,2,0:0:0:0:
453,307,14519,1,8,1:0:0:0:
383,145,14685,1,2,0:0:0:0:
310,259,14852,6,0,P|251:272|183:284,1,93.5000028533936,0|0,1:0|1:0,0:0:0:0:
189,311,15102,1,0,1:0:0:0:
189,311,15185,2,0,P|143:301|97:294,1,93.5000028533936,8|2,1:0|0:0,0:0:0:0:
33,166,15519,6,0,P|36:186|40:165,3,46.7500014266968,2|0|0|0,1:0|0:0|0:0|0:0,0:0:0:0:
5,92,15852,6,0,P|45:76|75:88,1,46.7500014266968,12|0,1:0|0:0,0:0:0:0:
140,161,16019,2,0,P|124:121|136:91,1,46.7500014266968,0|0,1:0|0:0,0:0:0:0:
233,11,16185,6,0,P|207:66|222:114,1,93.5000028533936,0|0,1:0|1:0,0:0:0:0:
249,124,16435,1,0,1:0:0:0:
249,124,16519,2,0,P|300:93|353:103,1,93.5000028533936,8|2,1:0|0:0,0:0:0:0:
499,178,16852,1,0,1:0:0:0:
451,66,17019,1,2,0:0:0:0:
361,186,17185,2,0,P|310:217|257:207,1,93.5000028533936,8|2,1:0|0:0,0:0:0:0:
140,109,17519,6,0,P|127:164|117:225,1,93.5000028533936,0|0,1:0|1:0,0:0:0:0:
89,229,17769,1,0,1:0:0:0:
89,229,17852,2,0,P|101:284|112:345,1,93.5000028533936,8|2,1:0|0:0,0:0:0:0:
285,275,18185,1,0,1:0:0:0:
196,220,18352,1,2,0:0:0:0:
264,372,18519,1,8,1:0:0:0:
291,364,18602,1,0,1:0:0:0:
318,359,18685,1,0,1:0:0:0:
345,354,18769,1,0,1:0:0:0:
371,346,18852,6,0,B|394:305|394:305|372:237,1,93.5000028533936,0|0,1:0|1:0,0:0:0:0:
343,236,19102,1,0,1:0:0:0:
343,236,19185,2,0,B|328:191|328:191|351:150,1,93.5000028533936,8|2,1:0|0:0,0:0:0:0:
478,117,19519,1,0,1:0:0:0:
371,51,19685,2,0,L|319:59,3,31.1666676177979,8|8|8|8,1:3|1:3|1:3|1:0,0:0:0:0:
460,30,20019,1,4,0:3:0:0:
351,150,20185,5,0,1:0:0:0:
351,150,20519,1,0,1:0:0:0:
351,150,20852,2,0,B|242:129|242:129|224:143|224:143|175:135|175:135|117:166|117:166,1,238,0|0,1:0|0:0,0:0:0:0:
104,166,21519,5,4,0:0:0:0:
104,166,21852,1,0,0:0:0:0:
165,293,22019,1,0,0:0:0:0:
301,228,22185,1,4,0:0:0:0:
301,228,22519,1,0,0:0:0:0:
165,293,22685,1,0,0:0:0:0:
283,374,22852,6,0,P|324:367|366:357,1,85,4|0,0:0|0:0,0:0:0:0:
398,384,23102,1,0,0:0:0:0:
398,384,23185,2,0,P|439:374|481:367,1,85,4|0,0:2|0:0,0:0:0:0:
503,337,23435,1,0,0:0:0:0:
503,337,23519,2,0,B|488:258|488:258|489:247|489:247|470:154,1,170,4|2,0:0|0:0,0:0:0:0:
381,222,24019,1,0,0:0:0:0:
307,92,24185,6,0,L|318:25,3,42.5,6|0|2|0,1:0|0:0|0:0|0:0,0:0:0:0:
343,31,24519,1,8,1:0:0:0:
226,90,24685,1,2,0:0:0:0:
308,187,24852,2,0,P|266:182|204:169,1,85,0|2,1:0|1:2,0:0:0:0:
193,199,25102,1,0,0:0:0:0:
193,199,25185,2,0,P|151:190|109:185,1,85,8|2,1:0|0:0,0:0:0:0:
40,334,25519,5,0,1:0:0:0:
25,241,25685,1,0,1:0:0:0:
25,241,25769,1,0,1:0:0:0:
25,241,25852,1,8,1:0:0:0:
143,345,26019,1,2,0:0:0:0:
254,271,26185,6,0,P|261:229|273:160,1,85,0|8,1:0|1:3,0:0:0:0:
416,93,26519,2,0,P|423:135|435:204,1,85,8|4,1:0|1:3,0:0:0:0:
499,346,26852,5,4,0:0:0:0:
499,346,27185,1,0,0:0:0:0:
388,260,27352,1,0,0:0:0:0:
266,337,27519,1,4,0:0:0:0:
266,337,27852,1,0,0:0:0:0:
388,260,28019,1,0,0:0:0:0:
278,162,28185,6,0,P|222:170|173:180,1,85,4|0,0:0|0:0,0:0:0:0:
166,160,28435,1,0,0:0:0:0:
166,160,28519,2,0,P|124:167|82:173,1,85,4|0,0:2|0:0,0:0:0:0:
50,146,28769,1,0,0:0:0:0:
50,146,28852,2,0,B|37:213|37:213|52:243|52:243|33:342,1,170,4|2,0:0|0:0,0:0:0:0:
140,253,29352,1,0,0:0:0:0:
262,348,29519,6,0,B|234:308|234:308|254:174,1,170,6|8,1:0|1:0,0:0:0:0:
289,15,30019,1,2,0:0:0:0:
205,69,30185,1,0,1:0:0:0:
343,141,30352,1,0,1:0:0:0:
343,141,30435,1,0,1:0:0:0:
343,141,30519,2,0,L|361:251,1,85,8|2,1:0|0:0,0:0:0:0:
491,302,30852,5,0,1:0:0:0:
392,342,31019,1,0,1:0:0:0:
392,342,31102,1,0,1:0:0:0:
392,342,31185,1,8,1:0:0:0:
464,206,31352,1,4,0:0:0:0:
343,141,31519,2,0,P|306:149|258:157,1,85,0|8,1:0|1:3,0:0:0:0:
232,135,31769,1,8,0:3:0:0:
232,135,31852,6,0,L|241:72,1,42.5,8|0,1:0|2:0,0:0:0:0:
127,53,32019,2,0,L|136:116,1,42.5,4|0,0:3|2:0,0:0:0:0:
104,219,32185,6,0,B|148:224|148:224|152:227|152:227|210:234,1,85,4|8,1:0|0:2,0:0:0:0:
305,294,32519,1,8,1:2:0:0:
214,344,32685,1,2,1:2:0:0:
283,185,32852,6,0,B|327:190|327:190|331:193|331:193|389:200,1,85,0|8,1:0|0:2,0:0:0:0:
475,261,33186,1,8,1:0:0:0:
393,310,33352,1,2,1:2:0:0:
462,161,33519,6,0,P|450:114|442:75,1,85,0|2,1:0|0:0,0:0:0:0:
327,6,33852,2,0,P|318:47|307:88,1,85,8|2,1:0|0:0,0:0:0:0:
138,76,34185,2,2,B|130:63|103:53|103:53|258:30,1,170,2|8,1:0|1:0,0:0:0:0:
322,105,34685,1,2,0:0:0:0:
219,189,34852,6,0,P|97:169|49:161,1,170,0|8,1:0|0:0,0:0:0:0:
0,247,35352,1,8,1:2:0:0:
108,327,35519,2,0,P|159:316|220:307,1,85,2|2,1:2|1:2,0:0:0:0:
228,336,35769,1,0,1:0:0:0:
228,336,35852,2,0,P|269:328|311:319,1,85,8|8,1:0|1:2,0:0:0:0:
461,233,36185,5,0,1:0:0:0:
432,136,36352,1,0,1:0:0:0:
432,136,36435,1,0,1:0:0:0:
432,136,36519,1,8,1:0:0:0:
317,207,36685,1,2,0:0:0:0:
219,127,36852,6,0,P|212:83|204:40,1,85,0|0,1:0|1:0,0:0:0:0:
62,141,37185,2,0,P|55:185|47:228,1,85,8|4,1:0|1:3,0:0:0:0:
183,330,37519,6,0,P|176:286|168:243,1,85,4|0,1:0|0:0,0:0:0:0:
310,179,37852,1,8,1:0:0:0:
282,277,38019,1,2,1:2:0:0:
207,126,38185,6,0,P|200:82|192:39,1,85,4|0,1:0|0:0,0:0:0:0:
362,0,38519,1,8,1:0:0:0:
335,100,38685,1,2,1:2:0:0:
487,113,38852,6,0,P|444:74|380:81,1,85,0|2,1:0|0:0,0:0:0:0:
320,218,39185,2,0,P|375:200|401:141,1,85,8|2,1:0|1:2,0:0:0:0:
483,331,39519,6,2,L|442:322,3,42.5,2|0|2|0,1:0|0:0|0:0|0:0,0:0:0:0:
418,345,39852,2,2,L|374:355,1,42.5,10|0,1:0|0:0,0:0:0:0:
466,247,40019,2,0,L|512:256,1,42.5,2|0,1:2|0:0,0:0:0:0:
300,199,40185,6,0,B|205:176|234:276|115:242,1,170,4|8,1:0|1:0,0:0:0:0:
49,150,40685,1,2,0:0:0:0:
19,262,40852,1,4,1:0:0:0:
158,163,41019,1,8,0:3:0:0:
158,163,41102,1,8,0:3:0:0:
158,163,41185,2,0,P|148:111|139:39,1,85,8|4,1:0|0:3,0:0:0:0:
317,4,41519,5,4,1:2:0:0:
317,4,41852,1,4,1:2:0:0:
317,4,42185,2,0,B|289:26|289:26|310:134,1,127.5,4|0,1:2|0:0,0:0:0:0:
334,146,42519,6,0,P|357:149|405:159,1,42.5,0|0,1:0|0:0,0:0:0:0:
466,71,42685,2,0,P|484:75|503:77,2,28.3333333333333,4|8|4,1:2|0:3|0:3,0:0:0:0:
444,95,42852,6,0,P|449:120|460:155,3,42.5,4|0|0|0,0:0|0:0|0:0|0:0,0:0:0:0:
503,201,43185,2,0,P|508:221|512:242,3,42.5,8|0|2|0,0:0|0:0|0:2|0:0,0:0:0:0:
455,305,43519,1,0,0:0:0:0:
370,181,43685,1,2,0:2:0:0:
296,260,43852,1,8,0:0:0:0:
296,260,43935,1,0,0:0:0:0:
296,260,44019,2,0,P|304:287|309:325,1,42.5,2|0,0:2|2:0,0:0:0:0:
235,367,44185,6,0,P|213:369|193:374,3,42.5,0|0|0|0,0:0|0:0|0:0|0:0,0:0:0:0:
126,317,44519,2,0,P|104:314|84:309,3,42.5,8|0|2|0,0:0|0:0|0:2|0:0,0:0:0:0:
199,256,44852,1,2,0:0:0:0:
211,235,44935,1,0,0:0:0:0:
212,211,45019,1,0,0:0:0:0:
201,187,45102,1,0,0:0:0:0:
183,170,45185,2,0,P|153:177|122:182,2,42.5,8|0|2,0:0|0:0|0:0,0:0:0:0:
24,72,45519,6,0,B|65:55|65:55|129:96,1,85,4|0,0:2|0:0,0:0:0:0:
230,30,45852,1,8,0:0:0:0:
230,30,45935,1,0,0:0:0:0:
230,30,46019,2,0,P|225:58|222:84,1,42.5,2|0,0:2|2:0,0:0:0:0:
204,173,46185,1,0,0:0:0:0:
334,123,46352,1,2,0:2:0:0:
334,123,46435,1,0,0:0:0:0:
334,123,46519,2,0,P|306:128|280:131,2,42.5,8|0|2,0:0|0:0|0:2,0:0:0:0:
423,257,46852,5,0,0:0:0:0:
470,148,47019,1,0,0:0:0:0:
327,236,47185,1,8,0:0:0:0:
316,251,47269,1,0,0:0:0:0:
310,277,47352,1,2,0:2:0:0:
315,302,47435,1,0,0:0:0:0:
328,323,47519,2,0,P|370:331|429:343,1,85,10|0,0:0|0:0,0:0:0:0:
245,226,47852,2,0,P|203:234|161:242,1,85,8|6,0:0|0:0,0:0:0:0:
10,155,48185,6,0,P|15:183|19:217,3,42.5,4|0|0|0,0:0|0:0|0:0|0:0,0:0:0:0:
76,102,48519,2,0,P|81:74|85:40,3,42.5,8|0|2|0,0:0|0:0|0:2|0:0,0:0:0:0:
26,3,48852,1,2,0:0:0:0:
176,66,49019,1,0,0:0:0:0:
176,66,49102,1,0,0:0:0:0:
176,66,49185,2,0,P|204:56|244:49,2,42.5,10|0|0,0:0|0:0|0:0,0:0:0:0:
124,193,49519,5,4,0:0:0:0:
258,154,49685,1,0,0:0:0:0:
220,302,49852,2,0,P|213:272|204:242,1,42.5,8|0,0:0|0:0,0:0:0:0:
117,186,50019,2,0,P|110:216|101:246,1,42.5,2|0,0:2|0:0,0:0:0:0:
22,332,50185,6,0,B|56:313|56:313|166:352,1,127.5,2|0,0:0|0:0,0:0:0:0:
150,369,50519,2,0,B|210:387|210:387|260:368,1,85,10|2,0:0|0:2,0:0:0:0:
382,354,50852,5,4,0:0:0:0:
279,248,51019,1,0,0:0:0:0:
287,223,51102,1,0,0:0:0:0:
297,199,51185,2,0,P|342:190|411:173,1,85,8|2,0:0|0:2,0:0:0:0:
474,52,51519,5,4,0:0:0:0:
442,46,51602,1,0,0:0:0:0:
412,38,51685,1,0,0:0:0:0:
383,32,51769,1,0,0:0:0:0:
352,27,51852,2,0,P|359:54|366:96,1,42.5,8|0,0:0|2:0,0:0:0:0:
425,129,52019,2,0,P|429:149|434:170,1,42.5,2|0,0:2|2:0,0:0:0:0:
270,61,52185,6,0,P|262:115|254:177,1,85,4|0,0:0|2:0,0:0:0:0:
224,175,52435,1,0,0:2:0:0:
224,175,52519,2,0,P|230:210|240:249,1,42.5,8|0,0:0|2:0,0:0:0:0:
115,139,52685,2,0,P|121:103|131:65,1,42.5,2|0,0:2|2:0,0:0:0:0:
10,262,52852,5,2,0:0:0:0:
152,295,53019,1,2,0:2:0:0:
292,323,53185,1,2,0:0:0:0:
292,323,53519,5,4,0:2:0:0:
129,384,53685,1,0,0:0:0:0:
171,225,56185,5,4,0:0:0:0:
334,169,56352,1,4,0:2:0:0:
413,304,57352,5,4,0:2:0:0:
413,304,57685,1,4,0:2:0:0:
339,208,57852,2,0,P|344:169|355:97,1,85,8|8,0:0|0:2,0:0:0:0:
212,41,58185,2,0,P|217:80|228:152,1,85,4|0,0:0|0:0,0:0:0:0:
193,156,58435,1,0,0:0:0:0:
193,156,58519,2,0,P|165:148|132:139,3,42.5,8|0|4|0,0:0|0:0|0:2|0:0,0:0:0:0:
80,99,58852,5,4,0:0:0:0:
105,226,59019,1,4,0:2:0:0:
131,348,59185,1,4,0:0:0:0:
216,289,59352,6,0,P|258:283|312:275,1,85,0|0,0:0|0:0,0:0:0:0:
332,301,59602,1,0,0:0:0:0:
332,301,59685,1,0,0:0:0:0:
417,197,59852,5,4,0:0:0:0:
290,178,60019,1,4,0:2:0:0:
168,158,60185,2,0,B|136:124|136:124|172:16,2,127.5,4|0|0,0:0|0:0|0:0,0:0:0:0:
250,285,60852,5,4,0:0:0:0:
273,163,61019,1,4,0:2:0:0:
297,41,61185,2,0,L|410:23,1,85,4|0,0:0|0:0,0:0:0:0:
414,50,61435,1,0,0:0:0:0:
414,50,61519,1,0,0:0:0:0:
299,145,61685,5,4,0:2:0:0:
299,145,62019,1,4,0:2:0:0:
207,44,62185,2,0,L|123:30,1,85,4|0,0:0|0:0,0:0:0:0:
93,64,62435,1,0,0:0:0:0:
93,64,62519,2,0,L|112:136,1,42.5,8|0,0:0|2:0,0:0:0:0:
170,156,62685,2,0,L|151:228,1,42.5,8|0,0:2|2:0,0:0:0:0:
78,263,62852,5,4,0:0:0:0:
211,293,63019,1,4,0:2:0:0:
342,318,63185,1,4,0:0:0:0:
294,218,63352,6,2,P|339:209|382:199,1,85,0|0,0:0|0:0,0:0:0:0:
411,221,63602,1,0,0:0:0:0:
411,221,63685,1,0,0:0:0:0:
423,81,63852,5,4,0:0:0:0:
304,106,64019,1,4,0:2:0:0:
187,131,64185,2,0,B|137:89|137:89|64:122,2,127.5,4|0|0,0:0|0:0|0:0,0:0:0:0:
268,25,64852,5,4,0:0:0:0:
298,140,65019,1,4,0:2:0:0:
329,248,65185,2,0,P|374:256|437:270,1,85,4|0,0:0|0:0,0:0:0:0:
433,291,65435,1,0,0:0:0:0:
433,291,65519,1,0,0:0:0:0:
325,359,65685,5,4,0:2:0:0:
325,359,66019,1,4,0:2:0:0:
256,245,66185,2,0,P|214:236|172:228,1,85,4|0,0:0|0:0,0:0:0:0:
148,202,66435,1,0,0:0:0:0:
148,202,66519,2,0,L|71:217,1,42.5,0|0,0:0|2:0,0:0:0:0:
176,310,66685,2,0,L|255:330,1,42.5,0|0,0:0|2:0,0:0:0:0:
23,257,66852,6,0,P|15:215|4:163,1,85,4|0,0:0|0:0,0:0:0:0:
30,137,67102,1,8,0:3:0:0:
30,137,67185,2,0,P|21:95|13:53,1,85,8|8,0:0|0:3,0:0:0:0:
196,0,67519,6,0,P|187:41|179:83,1,85,4|8,0:2|0:2,0:0:0:0:
204,119,67769,1,0,0:0:0:0:
204,119,67852,2,0,L|190:196,1,42.5,8|0,0:0|2:0,0:0:0:0:
316,80,68019,2,0,L|302:3,1,42.5,0|0,0:0|2:0,0:0:0:0:
327,246,68185,5,4,0:0:0:0:
327,246,68852,5,2,0:0:0:0:
331,272,68935,1,0,0:0:0:0:
336,297,69019,1,0,0:0:0:0:
340,323,69102,1,0,0:0:0:0:
347,347,69185,2,0,L|415:365,3,42.5,10|0|2|0,0:0|0:0|0:0|0:0,0:0:0:0:
458,314,69519,6,0,P|435:271|456:220,1,93.5000028533936,4|0,0:0|0:0,0:0:0:0:
487,212,69769,1,0,0:0:0:0:
487,212,69852,2,0,P|498:167|475:128,1,93.5000028533936,8|2,0:0|0:2,0:0:0:0:
392,0,70185,1,0,0:0:0:0:
502,32,70352,1,0,0:0:0:0:
374,119,70519,2,0,P|324:127|258:137,1,93.5000028533936,8|2,0:0|0:2,0:0:0:0:
144,0,70852,6,0,P|136:63|129:124,1,93.5000028533936,0|0,0:0|0:0,0:0:0:0:
95,118,71102,1,0,0:0:0:0:
95,118,71185,2,0,P|102:181|110:242,1,93.5000028533936,8|2,0:0|0:2,0:0:0:0:
59,372,71519,1,0,0:0:0:0:
12,264,71685,1,0,0:0:0:0:
167,314,71852,1,8,0:0:0:0:
192,308,71935,1,0,0:0:0:0:
218,301,72019,1,2,0:2:0:0:
248,294,72102,1,0,0:0:0:0:
276,288,72185,6,0,B|315:319|315:319|373:305,1,93.5000028533936,0|0,0:0|0:0,0:0:0:0:
374,267,72435,1,0,0:0:0:0:
374,267,72519,2,0,B|405:228|405:228|391:170,1,93.5000028533936,8|2,0:0|0:2,0:0:0:0:
275,85,72852,1,0,0:0:0:0:
245,174,73019,1,0,0:0:0:0:
205,14,73185,1,8,0:0:0:0:
361,82,73352,1,2,0:2:0:0:
165,113,73519,6,0,P|138:88|69:95,1,93.5000028533936,0|0,0:0|0:0,0:0:0:0:
55,123,73769,1,0,0:0:0:0:
55,123,73852,2,0,P|83:158|81:204,1,93.5000028533936,8|2,0:0|0:2,0:0:0:0:
17,341,74185,6,0,P|36:334|34:355,3,46.7500014266968,2|0|0|0,0:0|0:0|0:0|0:0,0:0:0:0:
119,308,74519,6,0,P|130:346|120:378,1,46.7500014266968,12|0,0:0|0:0,0:0:0:0:
19,250,74685,2,0,P|8:212|18:180,1,46.7500014266968,2|0,0:2|0:0,0:0:0:0:
180,142,74852,6,0,P|173:192|164:244,1,93.5000028533936,4|0,0:0|0:0,0:0:0:0:
195,267,75102,1,0,0:0:0:0:
195,267,75185,2,0,P|240:254|285:245,1,93.5000028533936,8|2,0:0|0:2,0:0:0:0:
432,310,75519,1,0,0:0:0:0:
335,356,75685,1,0,0:0:0:0:
389,200,75852,2,0,P|434:212|479:221,1,93.5000028533936,8|2,0:0|0:2,0:0:0:0:
371,78,76185,6,0,P|312:73|270:131,1,93.5000028533936,4|0,0:0|0:0,0:0:0:0:
263,136,76435,1,0,0:0:0:0:
263,136,76519,2,0,P|204:141|162:83,1,93.5000028533936,8|2,0:0|0:2,0:0:0:0:
57,53,76852,1,2,0:0:0:0:
148,10,77019,1,0,0:0:0:0:
75,161,77185,1,10,0:0:0:0:
84,191,77269,1,0,0:0:0:0:
91,220,77352,1,2,0:2:0:0:
97,247,77435,1,0,0:0:0:0:
103,278,77519,6,0,P|154:290|230:304,1,93.5000028533936,4|0,0:0|0:0,0:0:0:0:
216,338,77769,1,0,0:0:0:0:
216,338,77852,2,0,P|267:326|343:312,1,93.5000028533936,8|2,0:0|0:2,0:0:0:0:
417,266,78185,5,4,0:0:0:0:
292,203,78352,1,0,0:0:0:0:
395,160,78519,1,8,0:0:0:0:
316,309,78685,1,2,0:2:0:0:
192,250,78852,6,0,L|203:132,1,93.5000028533936,4|4,0:0|0:3,0:0:0:0:
224,55,79185,2,0,L|213:173,1,93.5000028533936,8|4,0:0|0:3,0:0:0:0:
192,250,79519,2,0,L|203:132,1,93.5000028533936,8|2,0:0|0:2,0:0:0:0:
110,41,79852,6,0,P|119:74|125:121,1,46.7500014266968,8|0,0:0|2:0,0:0:0:0:
214,58,80019,2,0,P|205:25|199:-22,1,46.7500014266968,2|0,0:0|2:0,0:0:0:0:
112,192,80185,6,0,P|86:183|37:170,3,46.7500014266968,4|0|0|0,0:0|0:0|0:0|0:0,0:0:0:0:
52,256,80519,2,0,P|29:262|7:270,3,46.7500014266968,8|0|2|0,0:0|0:0|0:2|0:0,0:0:0:0:
82,336,80852,1,0,0:0:0:0:
183,232,81019,1,0,0:0:0:0:
239,336,81185,1,8,0:0:0:0:
239,336,81269,1,0,0:0:0:0:
239,336,81352,2,0,P|205:325|171:316,1,46.7500014266968,2|0,0:2|2:0,0:0:0:0:
290,208,81519,6,0,B|317:201|317:201|369:188,3,46.7500014266968,0|0|0|0,0:0|0:0|0:0|0:0,0:0:0:0:
384,271,81852,2,0,B|411:278|411:278|463:291,3,46.7500014266968,8|0|2|0,0:0|0:0|0:2|0:0,0:0:0:0:
499,222,82185,1,0,0:0:0:0:
507,204,82269,1,0,0:0:0:0:
505,179,82352,1,0,0:0:0:0:
493,159,82435,1,0,0:0:0:0:
478,144,82519,2,0,P|446:152|406:164,2,46.7500014266968,8|0|2,0:0|0:0|0:2,0:0:0:0:
356,11,82852,6,0,P|375:60|338:110,1,93.5000028533936,2|0,0:0|0:0,0:0:0:0:
217,70,83185,1,8,0:0:0:0:
217,70,83269,1,0,0:0:0:0:
217,70,83352,2,0,P|245:66|280:56,1,46.7500014266968,2|0,0:2|2:0,0:0:0:0:
356,174,83519,1,0,0:0:0:0:
237,215,83685,1,2,0:2:0:0:
237,215,83769,1,0,0:0:0:0:
237,215,83852,2,0,P|245:184|250:136,2,46.7500014266968,8|0|2,0:0|0:0|0:2,0:0:0:0:
372,368,84185,5,2,0:0:0:0:
331,258,84352,1,0,0:0:0:0:
205,353,84519,1,8,0:0:0:0:
179,362,84602,1,0,0:0:0:0:
154,359,84685,1,2,0:0:0:0:
134,345,84769,1,0,0:0:0:0:
122,316,84852,2,0,P|128:268|136:202,1,93.5000028533936,2|0,0:0|0:0,0:0:0:0:
12,120,85185,2,0,P|18:168|26:234,1,93.5000028533936,8|4,0:0|0:2,0:0:0:0:
194,140,85519,6,0,P|171:135|148:128,3,46.7500014266968,4|0|0|0,0:0|0:0|0:0|0:0,0:0:0:0:
252,73,85852,2,0,P|284:64|331:60,3,46.7500014266968,8|0|2|0,0:0|0:0|0:2|0:0,0:0:0:0:
175,39,86185,1,2,0:0:0:0:
280,158,86352,1,0,0:0:0:0:
280,158,86435,1,0,0:0:0:0:
280,158,86519,2,0,P|271:186|261:231,2,46.7500014266968,10|0|0,0:0|0:0|0:0,0:0:0:0:
383,72,86852,5,4,0:0:0:0:
501,161,87019,1,0,0:0:0:0:
493,11,87185,2,0,P|488:33|483:56,1,46.7500014266968,8|0,0:0|2:0,0:0:0:0:
380,133,87352,2,0,P|375:110|370:87,1,46.7500014266968,2|0,0:2|2:0,0:0:0:0:
487,251,87519,6,0,B|459:229|459:229|339:261,1,140.25000428009,2|0,0:0|0:0,0:0:0:0:
348,279,87852,2,0,B|371:307|371:307|355:384,1,93.5000028533936,10|0,0:0|0:0,0:0:0:0:
155,334,88185,5,4,0:0:0:0:
213,207,88352,1,0,0:0:0:0:
199,188,88435,1,0,0:0:0:0:
184,170,88519,2,0,P|128:182|59:192,1,93.5000028533936,8|2,0:0|0:0,0:0:0:0:
166,24,88852,5,4,0:0:0:0:
199,31,88935,1,0,0:0:0:0:
230,39,89019,1,0,0:0:0:0:
256,45,89102,1,0,0:0:0:0:
288,52,89185,2,0,P|293:77|301:122,1,46.7500014266968,8|0,0:0|2:0,0:0:0:0:
367,153,89352,2,0,P|362:175|357:198,1,46.7500014266968,2|0,0:0|2:0,0:0:0:0:
266,282,89519,6,0,P|258:235|248:190,1,93.5000028533936,4|0,0:0|0:0,0:0:0:0:
218,167,89769,1,8,0:2:0:0:
218,167,89852,2,0,L|138:183,1,46.7500014266968,8|0,0:0|2:0,0:0:0:0:
106,269,90019,2,0,L|151:278,1,46.7500014266968,2|0,0:0|2:0,0:0:0:0:
36,114,90185,5,4,0:0:0:0:
176,87,90352,1,4,0:2:0:0:
320,60,90519,1,12,0:0:0:0:
320,60,90852,5,4,0:0:0:0:
198,365,93185,5,4,1:2:0:0:
198,365,93519,2,0,P|187:299|176:237,1,127.500004863739,4|0,1:0|0:0,0:0:0:0:
76,162,94185,2,0,P|87:99|97:36,1,127.500004863739,4|0,0:0|0:0,0:0:0:0:
369,14,94852,5,4,1:0:0:0:
369,14,95185,1,4,1:2:0:0:
369,14,95519,2,0,L|385:109,1,76.4999976654053,4|2,1:0|1:2,0:0:0:0:
358,127,95769,1,0,1:0:0:0:
358,127,95852,1,0,1:0:0:0:
250,64,96019,2,0,L|206:75,2,25.4999992218018,8|8|8,1:3|1:3|1:3,0:0:0:0:
269,85,96185,6,0,B|247:253,1,152.999995330811,4|0,1:0|1:0,0:0:0:0:
267,326,96685,1,2,0:0:0:0:
161,263,96852,2,2,B|79:251|110:326|-6:311,1,152.999995330811,4|0,1:2|1:0,0:0:0:0:
97,139,97352,5,4,1:2:0:0:
97,139,97435,1,0,1:0:0:0:
97,139,97519,2,0,P|136:145|183:153,1,76.4999976654053,4|0,1:2|0:0,0:0:0:0:
249,41,97852,2,0,P|211:47|173:53,1,76.4999976654053,4|2,1:2|0:0,0:0:0:0:
286,147,98185,2,0,P|325:153|372:161,1,76.4999976654053,4|0,1:2|1:0,0:0:0:0:
394,131,98435,1,0,1:0:0:0:
394,131,98519,2,0,P|387:107|383:69,3,38.2499988327027,2|0|4|0,1:2|1:0|1:2|0:0,0:0:0:0:
454,186,98852,6,0,P|438:269|425:362,1,152.999995330811,4|0,1:0|1:0,0:0:0:0:
510,301,99352,1,2,0:0:0:0:
359,236,99519,2,0,B|298:245|298:245|275:264|275:264|198:278,1,152.999995330811,4|0,1:0|1:0,0:0:0:0:
168,203,100019,1,4,0:0:0:0:
83,289,100185,6,0,P|76:249|65:197,1,76.4999976654053,4|2,1:0|0:0,0:0:0:0:
182,127,100519,2,0,P|175:167|164:219,1,76.4999976654053,4|2,1:0|0:0,0:0:0:0:
14,128,100852,1,4,1:0:0:0:
9,105,100935,1,0,1:0:0:0:
6,81,101019,2,0,L|-1:46,2,25.4999992218018,8|8|8,1:3|1:3|1:3,0:0:0:0:
35,98,101185,2,0,B|70:77|70:77|114:89,1,76.4999976654053,2|0,1:0|1:0,0:0:0:0:
259,145,101519,5,0,0:0:0:0:
259,145,101685,2,0,L|251:85,2,38.2499988327027,0|0|0,0:0|0:0|0:0,0:0:0:0:
268,228,102019,1,2,0:0:0:0:
351,175,102185,5,0,0:0:0:0:
351,175,102352,2,0,L|411:167,2,38.2499988327027,0|0|0,0:0|0:0|0:0,0:0:0:0:
259,145,102685,1,2,0:0:0:0:
246,268,102852,6,0,B|181:249|132:295|132:295|164:253|164:253|165:205|115:168,1,267.749991828919,4|0,0:0|2:0,0:0:0:0:
47,126,103519,6,0,P|43:101|35:75,1,44.6249986381531,4|0,0:0|0:0,0:0:0:0:
51,0,103685,2,0,P|77:10|101:15,1,44.6249986381531,0|0,0:0|0:0,0:0:0:0:
166,59,103852,2,0,P|145:75|127:94,3,44.6249986381531,4|0|0|0,0:0|0:0|0:0|0:0,0:0:0:0:
208,140,104185,6,0,P|256:151|344:178,1,101.999996887207,4|0,0:0|0:0,0:0:0:0:
414,41,104519,1,8,0:0:0:0:
410,71,104602,1,0,0:0:0:0:
424,97,104685,1,10,0:2:0:0:
421,127,104769,1,0,0:0:0:0:
433,154,104852,2,0,P|404:196|419:267,1,101.999996887207,0|0,0:0|0:0,0:0:0:0:
438,271,105102,1,2,0:2:0:0:
438,271,105185,1,8,0:0:0:0:
305,221,105352,1,2,0:2:0:0:
340,355,105519,6,2,B|289:364|289:364|283:369|283:369|224:379,1,101.999996887207,2|0,0:0|0:0,0:0:0:0:
145,232,105852,2,0,B|94:223|94:223|88:218|88:218|29:208,1,101.999996887207,10|10,0:0|0:2,0:0:0:0:
22,182,106102,1,0,0:0:0:0:
22,182,106185,2,0,P|33:148|64:133,1,50.9999984436036,2|0,0:0|2:0,0:0:0:0:
46,61,106352,2,0,P|80:53|109:72,1,50.9999984436036,2|0,0:2|2:0,0:0:0:0:
199,153,106519,2,0,P|188:94|177:21,1,101.999996887207,8|2,0:0|0:0,0:0:0:0:
397,70,106852,6,0,P|349:107|287:81,1,101.999996887207,0|0,0:0|0:0,0:0:0:0:
267,242,107185,1,10,0:0:0:0:
294,256,107269,1,0,0:0:0:0:
320,243,107352,1,10,0:2:0:0:
347,255,107435,1,0,0:0:0:0:
375,245,107519,2,0,P|423:208|485:234,1,101.999996887207,0|0,0:0|0:0,0:0:0:0:
486,261,107769,1,0,0:0:0:0:
486,261,107852,2,0,P|468:322|457:370,1,101.999996887207,8|2,0:0|0:0,0:0:0:0:
308,318,108185,6,0,P|337:327|393:356,2,50.9999984436036,2|0|0,0:2|0:0|0:0,0:0:0:0:
131,366,108518,2,0,P|138:315|148:265,1,101.999996887207,10|10,0:0|0:2,0:0:0:0:
186,242,108769,1,0,0:0:0:0:
186,242,108852,1,2,0:0:0:0:
219,351,109019,1,0,0:0:0:0:
64,275,109185,2,0,P|56:224|46:174,1,101.999996887207,10|0,0:0|0:0,0:0:0:0:
157,36,109519,6,0,P|87:76|53:63,1,101.999996887207,0|0,0:0|0:0,0:0:0:0:
226,198,109852,1,8,0:0:0:0:
219,168,109935,1,0,0:0:0:0:
233,142,110018,1,8,0:2:0:0:
230,112,110102,1,0,0:0:0:0:
251,88,110185,2,0,P|278:96|320:112,3,50.9999984436036,2|0|0|0,0:2|0:0|0:0|0:0,0:0:0:0:
367,52,110519,2,0,P|380:73|384:98,1,50.9999984436036,8|0,0:0|2:0,0:0:0:0:
462,113,110685,2,0,P|458:138|444:159,1,50.9999984436036,2|0,0:2|2:0,0:0:0:0:
317,191,110852,6,0,P|281:232|301:287,1,101.999996887207,2|2,0:0|0:2,0:0:0:0:
424,350,111185,2,0,P|431:301|396:266,1,101.999996887207,10|8,0:0|0:2,0:0:0:0:
194,364,111519,1,2,0:0:0:0:
219,346,111603,1,0,0:0:0:0:
247,357,111685,1,0,0:0:0:0:
272,339,111769,1,0,0:0:0:0:
301,343,111852,2,0,P|302:315|308:277,2,50.9999984436036,10|0|2,0:0|0:0|0:2,0:0:0:0:
100,244,112185,6,0,P|153:230|214:218,1,101.999996887207,0|0,0:0|0:0,0:0:0:0:
219,181,112435,1,0,0:0:0:0:
219,181,112519,2,0,P|268:170|318:157,1,101.999996887207,8|8,0:0|0:2,0:0:0:0:
383,331,112852,2,0,P|346:279|368:230,1,101.999996887207,2|8,0:0|0:3,0:0:0:0:
392,232,113102,1,8,0:3:0:0:
392,232,113185,1,8,0:0:0:0:
504,168,113352,1,4,0:3:0:0:
387,100,113519,6,0,P|395:124|401:148,1,50.9999984436036,2|0,0:0|2:0,0:0:0:0:
471,80,113685,2,0,P|462:55|456:31,1,50.9999984436036,0|0,0:0|2:0,0:0:0:0:
273,40,113852,2,0,P|322:26|370:10,1,101.999996887207,8|0,0:0|0:0,0:0:0:0:
240,159,114185,2,0,P|190:172|142:188,1,101.999996887207,2|0,0:2|0:0,0:0:0:0:
122,231,114435,1,0,0:0:0:0:
122,231,114519,1,8,0:0:0:0:
40,156,114685,1,4,0:3:0:0:
51,311,114852,6,0,P|99:345|154:328,1,101.999996887207,4|0,0:0|0:0,0:0:0:0:
269,226,115185,1,8,0:0:0:0:
265,256,115268,1,0,0:0:0:0:
279,282,115351,1,8,0:2:0:0:
276,312,115435,1,0,0:0:0:0:
296,337,115519,2,0,P|344:303|399:320,1,101.999996887207,0|0,0:0|0:0,0:0:0:0:
410,349,115769,1,0,0:0:0:0:
410,349,115852,1,8,0:0:0:0:
512,223,116019,1,2,0:2:0:0:
400,185,116185,6,0,P|388:130|377:71,1,101.999996887207,2|0,0:0|0:0,0:0:0:0:
206,10,116519,2,0,P|218:65|229:124,1,101.999996887207,8|8,0:0|0:2,0:0:0:0:
207,149,116769,1,0,0:0:0:0:
207,149,116852,2,0,P|162:108|162:90,1,50.9999984436036,2|0,0:0|2:0,0:0:0:0:
83,111,117019,2,0,P|95:52|110:43,1,50.9999984436036,0|0,0:0|2:0,0:0:0:0:
9,235,117185,2,0,P|63:215|142:193,1,101.999996887207,8|2,0:0|0:0,0:0:0:0:
220,334,117519,6,0,P|281:334|321:384,1,101.999996887207,2|2,0:0|0:0,0:0:0:0:
468,266,117852,1,8,0:0:0:0:
437,267,117935,1,0,0:0:0:0:
413,251,118019,1,8,0:2:0:0:
382,251,118102,1,0,0:0:0:0:
362,236,118185,2,0,P|301:236|266:188,1,101.999996887207,2|2,0:0|0:2,0:0:0:0:
301,172,118435,1,0,0:0:0:0:
301,172,118519,2,0,P|309:122|321:58,1,101.999996887207,10|2,0:0|0:2,0:0:0:0:
195,0,118852,6,0,P|155:10|100:22,2,50.9999984436036,2|0|0,0:0|0:0|0:0,0:0:0:0:
121,167,119185,2,0,P|58:147|-15:131,1,101.999996887207,8|2,0:0|0:0,0:0:0:0:
0,102,119435,1,0,0:0:0:0:
0,102,119519,1,0,0:0:0:0:
97,67,119685,1,6,0:0:0:0:
4,220,119852,2,0,P|17:270|27:323,1,101.999996887207,8|0,0:0|0:0,0:0:0:0:
213,384,120185,6,0,P|222:333|235:284,1,101.999996887207,0|0,0:0|0:0,0:0:0:0:
158,139,120518,1,8,0:0:0:0:
188,143,120601,1,0,0:0:0:0:
214,129,120684,1,8,0:2:0:0:
244,132,120768,1,0,0:0:0:0:
269,116,120852,2,0,P|261:89|247:40,3,50.9999984436036,2|0|0|0,0:0|0:0|0:0|0:0,0:0:0:0:
305,11,121185,2,0,P|345:26|357:59,1,50.9999984436036,8|0,0:0|2:0,0:0:0:0:
428,27,121352,2,0,P|435:69|412:96,1,50.9999984436036,2|0,0:2|2:0,0:0:0:0:
350,158,121518,6,2,P|338:214|325:278,1,101.999996887207,2|0,0:0|0:0,0:0:0:0:
481,352,121852,2,0,P|469:296|456:232,1,101.999996887207,8|8,0:0|0:2,0:0:0:0:
305,362,122185,1,2,0:0:0:0:
277,349,122269,1,0,0:0:0:0:
246,353,122351,1,0,0:0:0:0:
220,337,122435,1,0,0:0:0:0:
188,341,122518,2,0,P|184:311|172:264,2,50.9999984436036,10|0|2,0:0|0:0|0:2,0:0:0:0:
29,196,122852,6,0,P|29:129|78:92,1,101.999996887207,0|0,0:0|0:0,0:0:0:0:
57,65,123101,1,0,0:0:0:0:
57,65,123185,2,0,P|107:79|171:92,1,101.999996887207,8|8,0:0|0:2,0:0:0:0:
346,22,123519,5,2,0:0:0:0:
331,48,123602,1,0,0:0:0:0:
335,78,123685,1,8,0:3:0:0:
324,109,123769,1,8,0:3:0:0:
333,141,123852,2,0,P|383:126|447:114,1,101.999996887207,8|2,0:0|0:2,0:0:0:0:
418,297,124185,6,0,P|410:261|404:219,1,50.9999984436036,6|0,0:0|2:0,0:0:0:0:
318,223,124352,2,0,P|290:247|257:274,1,50.9999984436036,0|0,0:0|2:0,0:0:0:0:
299,345,124519,2,0,P|334:356|373:371,3,50.9999984436036,8|0|10|0,0:0|0:0|0:2|0:0,0:0:0:0:
201,360,124852,6,0,B|196:338|196:338|209:313,1,50.9999984436036,4|0,0:2|2:0,0:0:0:0:
127,213,125019,2,0,B|121:235|121:235|134:260,1,50.9999984436036,0|0,0:0|2:0,0:0:0:0:
90,333,125185,5,8,0:0:0:0:
216,217,125352,1,2,0:0:0:0:
37,183,125519,6,0,P|31:130|20:63,1,101.999996887207,4|0,0:0|0:0,0:0:0:0:
57,50,125769,1,0,0:0:0:0:
57,50,125852,2,0,P|106:64|156:74,1,101.999996887207,8|0,0:0|0:0,0:0:0:0:
359,88,126185,1,0,0:0:0:0:
206,146,126352,1,2,0:2:0:0:
261,38,126519,1,8,0:0:0:0:
349,189,126685,1,2,0:2:0:0:
433,27,126852,6,0,P|452:112|415:145,1,101.999996887207,0|0,0:0|0:0,0:0:0:0:
405,140,127102,1,0,0:0:0:0:
405,140,127185,2,0,P|394:188|420:231,1,101.999996887207,8|0,0:0|0:0,0:0:0:0:
382,384,127519,1,0,0:0:0:0:
505,331,127685,1,2,0:2:0:0:
331,263,127852,1,8,0:0:0:0:
301,274,127935,1,0,0:0:0:0:
277,285,128019,1,0,0:0:0:0:
251,294,128102,1,0,0:0:0:0:
221,304,128185,6,0,B|170:322|170:322|120:280,1,101.999996887207,0|0,0:0|0:0,0:0:0:0:
97,302,128435,1,0,0:0:0:0:
97,302,128519,2,0,B|66:262|66:262|98:182,1,101.999996887207,8|0,0:0|0:0,0:0:0:0:
39,67,128852,1,0,0:0:0:0:
0,179,129018,1,2,0:2:0:0:
145,97,129185,1,8,0:0:0:0:
33,56,129352,1,2,0:2:0:0:
128,204,129519,6,0,P|188:207|224:166,1,101.999996887207,0|0,0:0|0:0,0:0:0:0:
224,134,129769,1,0,0:0:0:0:
224,134,129852,2,0,P|284:131|320:172,1,101.999996887207,8|0,0:0|0:0,0:0:0:0:
264,310,130185,6,0,P|269:293|268:308,3,50.9999984436036,2|0|0|0,0:0|0:0|0:0|0:0,0:0:0:0:
246,215,130519,6,0,P|205:232|184:239,1,50.9999984436036,12|0,0:0|0:0,0:0:0:0:
280,383,130685,2,0,P|321:366|342:359,1,50.9999984436036,0|0,0:0|0:0,0:0:0:0:
380,247,130852,6,0,P|422:254|506:274,1,101.999996887207,4|0,0:0|0:0,0:0:0:0:
512,230,131102,1,0,0:0:0:0:
512,230,131185,2,0,P|500:169|489:103,1,101.999996887207,8|0,0:0|0:0,0:0:0:0:
424,0,131519,1,0,0:0:0:0:
352,153,131685,1,2,0:2:0:0:
308,30,131852,1,8,0:0:0:0:
473,114,132019,1,2,0:2:0:0:
339,171,132185,6,0,P|284:178|243:134,1,101.999996887207,0|0,0:0|0:0,0:0:0:0:
258,106,132435,1,0,0:0:0:0:
258,106,132519,2,0,P|217:76|168:85,1,101.999996887207,8|0,0:0|0:0,0:0:0:0:
36,190,132852,1,0,0:0:0:0:
0,67,133018,1,2,0:2:0:0:
148,180,133185,1,8,0:0:0:0:
142,211,133269,1,0,0:0:0:0:
133,241,133352,1,0,0:0:0:0:
127,270,133435,1,0,0:0:0:0:
123,303,133519,6,0,B|163:338|163:338|251:309,1,101.999996887207,2|0,0:0|0:0,0:0:0:0:
256,340,133769,1,0,0:0:0:0:
256,340,133852,2,0,B|290:301|290:301|262:212,1,101.999996887207,10|0,0:0|0:0,0:0:0:0:
381,132,134185,5,4,0:0:0:0:
246,52,134352,2,0,L|183:69,3,33.9999989624024,8|8|8|8,0:3|0:3|0:3|0:0,0:0:0:0:
349,22,134685,1,2,0:0:0:0:
259,160,134852,5,4,0:0:0:0:
259,160,135185,1,4,0:0:0:0:
259,160,135519,2,0,P|269:206|278:254,1,93.5000028533936,4|0,0:0|2:0,0:0:0:0:
386,370,135852,2,0,P|394:300|409:211,1,140.25000428009,4|0,0:0|0:0,0:0:0:0:
468,164,136185,5,4,0:0:0:0:
310,96,136352,1,4,0:2:0:0:
433,63,136519,5,4,0:0:0:0:
306,198,136685,1,4,0:2:0:0:
412,261,136852,6,2,L|404:230,4,31.1666676177979,4|8|8|8|8,0:0|0:3|0:3|0:3|0:3,0:0:0:0:
384,148,137185,5,4,0:0:0:0:
