osu file format v14

[General]
AudioFilename: audio.mp3
AudioLeadIn: 0
PreviewTime: 42519
Countdown: 0
SampleSet: Normal
StackLeniency: 0.7
Mode: 0
LetterboxInBreaks: 0
WidescreenStoryboard: 0

[Editor]
DistanceSpacing: 1.5
BeatDivisor: 4
GridSize: 4
TimelineZoom: 1.8

[Metadata]
Title:BSPower Explosion
TitleUnicode:BSPower Explosion
Artist:Memme
ArtistUnicode:Memme
Creator:PandaHero
Version:Normal
Source:O2Jam Analog
Tags:electronic instrumental oriental core piu pump it up prime 2 o2 jam rhythm video game music saltylucario salty saltking kujinn reform owc2020 owc 2020 ro32 fm1 parkmemme
BeatmapID:4301582
BeatmapSetID:1096818

[Difficulty]
HPDrainRate:4
CircleSize:3.5
OverallDifficulty:4
ApproachRate:6
SliderMultiplier:1.1
SliderTickRate:1

[Events]
//Background and Video events
0,0,"1.jpg",0,0
//Break Periods
2,53885,55135
//Storyboard Layer 0 (Background)
//Storyboard Layer 1 (Fail)
//Storyboard Layer 2 (Pass)
//Storyboard Layer 3 (Foreground)
//Storyboard Layer 4 (Overlay)
//Storyboard Sound Samples

[TimingPoints]
186,333.333333333333,4,1,0,70,1,0
10852,-100,4,2,0,65,0,0
21519,-100,4,1,0,70,0,1
21602,-100,4,1,0,70,0,0
22185,-100,4,1,0,70,0,1
22269,-100,4,1,0,70,0,0
22852,-100,4,1,0,70,0,1
23852,-100,4,1,0,70,0,0
24185,-100,4,2,0,65,0,0
26852,-100,4,1,0,70,0,1
26935,-100,4,1,0,70,0,0
27519,-100,4,1,0,70,0,1
27602,-100,4,1,0,70,0,0
28185,-100,4,1,0,70,0,1
29185,-100,4,1,0,70,0,0
29519,-100,4,2,0,65,0,0
42852,-100,4,1,0,70,0,0
53519,-100,4,1,0,55,0,0
58852,-100,4,1,0,75,0,0
69519,-100,4,1,0,70,0,0
90852,-100,4,2,0,60,0,0
96185,-100,4,2,0,65,0,0
101519,-100,4,1,0,65,0,0
104185,-100,4,1,0,75,0,1
125519,-100,4,1,0,70,0,0
130852,-100,4,1,0,70,0,1
136185,-100,4,1,0,70,0,1
137185,-100,4,1,0,65,0,0
137269,-100,4,2,0,35,0,0
138019,-100,4,2,0,25,0,0
138519,-100,4,2,0,15,0,0
138852,-100,4,2,0,5,0,0

[Colours]
Combo1 : 58,186,119
Combo2 : 73,164,171
Combo3 : 171,73,73
Combo4 : 181,117,64

[HitObjects]
49,93,186,6,0,L|41:153,2,55,4|0|8,0:0|0:0|0:0,0:0:0:0:
135,25,852,1,0,0:0:0:0:
223,90,1185,1,8,0:0:0:0:
157,178,1519,2,0,P|166:247|185:290,1,110,4|8,0:0|0:0,0:0:0:0:
290,300,2185,2,0,L|281:235,2,55,0|0|4,0:0|0:0|0:0,0:0:0:0:
389,347,2852,6,0,P|452:319|449:220,1,165,4|0,0:0|0:0,0:0:0:0:
455,203,3519,2,0,L|326:172,1,110,4|8,0:0|0:0,0:0:0:0:
278,92,4185,1,4,0:0:0:0:
352,10,4519,1,8,0:0:0:0:
452,55,4852,2,0,L|473:122,2,55,4|8|4,0:2|0:2|0:2,0:0:0:0:
352,10,5519,6,0,L|224:25,1,110,4|8,0:0|0:0,0:0:0:0:
163,99,6185,2,0,L|275:120,1,110,0|8,0:0|0:0,0:0:0:0:
335,209,6852,1,4,0:0:0:0:
231,247,7185,1,8,0:0:0:0:
316,317,7519,2,0,L|307:376,2,55,0|0|4,0:0|0:2|0:0,0:0:0:0:
314,207,8185,6,0,P|285:152|213:101,1,110,4|8,0:0|0:0,0:0:0:0:
225,108,8685,1,4,0:2:0:0:
198,102,8852,2,0,P|111:117|43:140,1,110,0|8,0:0|0:0,0:0:0:0:
44,223,9519,2,0,L|20:294,1,55,4|0,0:0|0:0,0:0:0:0:
31,302,9852,2,0,L|96:308,1,55,8|0,0:0|0:0,0:0:0:0:
108,323,10185,1,2,0:0:0:0:
212,357,10519,1,10,0:0:0:0:
246,252,10852,6,0,L|265:182,2,55,4|0|8,1:0|1:0|1:0,0:0:0:0:
156,188,11519,1,0,1:0:0:0:
176,79,11852,1,8,1:0:0:0:
271,24,12185,2,0,L|358:37,1,55,0|0,1:0|1:0,0:0:0:0:
342,54,12519,2,0,L|418:44,1,55,8|2,1:0|0:0,0:0:0:0:
422,57,12852,1,0,1:0:0:0:
489,143,13185,2,0,L|467:226,1,55,8|0,1:0|1:0,0:0:0:0:
476,223,13519,6,0,P|465:288|400:321,1,110,0|8,1:0|1:0,0:0:0:0:
324,331,14185,1,0,1:0:0:0:
336,221,14519,1,8,1:0:0:0:
230,239,14852,2,0,L|233:314,2,55,0|0|8,1:0|1:0|1:0,0:0:0:0:
130,192,15519,2,0,L|43:215,1,55,2|0,1:0|0:0,0:0:0:0:
50,213,15852,2,0,L|65:291,1,55,12|0,1:0|0:0,0:0:0:0:
65,294,16185,6,0,P|98:339|159:357,1,110,0|8,1:0|1:0,0:0:0:0:
257,362,16852,2,0,L|270:293,1,55,0|2,1:0|0:0,0:0:0:0:
277,282,17185,1,8,1:0:0:0:
238,178,17519,2,0,P|268:101|295:55,1,110,0|8,1:0|1:0,0:0:0:0:
381,31,18185,1,0,1:0:0:0:
474,91,18519,2,0,L|486:160,1,55,8|0,1:0|1:0,0:0:0:0:
477,172,18852,5,0,1:0:0:0:
404,254,19185,1,8,1:0:0:0:
307,200,19519,2,0,L|239:192,1,55,0|8,1:0|1:3,0:0:0:0:
216,167,19852,1,8,1:0:0:0:
216,167,20019,1,4,0:3:0:0:
216,167,20185,2,0,L|82:178,2,110,0|0|0,1:0|1:0|1:0,0:0:0:0:
380,20,21519,6,0,L|423:161,1,110,4|0,0:0|0:0,0:0:0:0:
437,136,22019,1,0,0:0:0:0:
462,145,22185,2,0,L|442:278,1,110,4|0,0:0|0:0,0:0:0:0:
349,308,22852,2,0,L|368:165,2,110,4|4|4,0:0|0:2|0:0,0:0:0:0:
253,363,23852,1,2,0:0:0:0:
243,253,24185,6,0,P|238:184|203:111,1,110,6|8,1:0|1:0,0:0:0:0:
120,109,24852,1,0,1:0:0:0:
35,178,25185,1,8,1:0:0:0:
91,272,25519,2,0,L|182:286,2,55,0|0|8,1:0|1:0|1:0,0:0:0:0:
35,178,26185,2,0,L|50:83,1,55,0|8,1:0|1:3,0:0:0:0:
47,96,26519,1,8,1:0:0:0:
140,38,26852,5,4,0:0:0:0:
194,133,27185,2,0,L|120:167,2,55,0|0|4,0:0|0:0|0:0,0:0:0:0:
288,190,27852,2,0,L|364:174,1,55,0|0,0:0|0:0,0:0:0:0:
363,195,28185,2,0,L|458:173,2,55,4|0|4,0:0|0:0|0:2,0:0:0:0:
326,299,28852,1,4,0:0:0:0:
417,359,29185,1,2,0:0:0:0:
487,274,29519,6,0,P|486:196|450:129,1,110,6|8,1:0|1:0,0:0:0:0:
410,77,30185,2,0,L|326:79,1,55,0|0,1:0|1:0,0:0:0:0:
327,77,30519,1,8,1:0:0:0:
224,115,30852,1,0,1:0:0:0:
303,193,31185,1,8,1:0:0:0:
228,273,31519,2,0,L|221:353,2,55,0|8|8,1:0|1:3|1:0,0:0:0:0:
143,201,32185,6,0,B|80:191|102:233|11:228,1,110,4|8,1:0|1:2,0:0:0:0:
27,203,32685,1,2,1:2:0:0:
21,175,32852,2,0,L|51:57,1,110,0|8,1:0|1:0,0:0:0:0:
150,28,33519,1,0,1:0:0:0:
244,84,33852,1,8,1:0:0:0:
200,184,34185,1,0,1:0:0:0:
288,250,34519,2,0,L|272:332,1,55,8|2,1:0|0:0,0:0:0:0:
285,330,34852,6,0,P|371:350|436:290,1,165,0|8,1:0|1:2,0:0:0:0:
442,283,35519,1,2,1:2:0:0:
463,175,35852,1,8,1:0:0:0:
363,128,36185,2,0,L|281:151,1,55,0|0,1:0|1:0,0:0:0:0:
284,154,36519,2,0,P|235:114|241:32,1,110,8|0,1:0|1:0,0:0:0:0:
325,22,37185,1,8,1:0:0:0:
424,67,37519,6,0,L|466:182,1,110,4|8,1:0|1:0,0:0:0:0:
486,191,38019,1,2,1:2:0:0:
486,191,38185,2,0,L|457:333,1,110,4|8,1:0|1:0,0:0:0:0:
373,361,38852,1,0,1:0:0:0:
288,290,39185,1,8,1:0:0:0:
360,207,39519,1,2,1:0:0:0:
271,149,39852,2,2,L|197:177,1,55,10|2,1:0|1:2,0:0:0:0:
196,183,40185,6,0,P|105:167|79:100,1,165,4|2,1:0|0:0,0:0:0:0:
84,80,40852,1,4,1:0:0:0:
178,23,41185,1,8,1:0:0:0:
253,103,41519,2,0,L|239:173,1,55,4|0,1:2|0:0,0:0:0:0:
265,171,41852,2,0,L|246:243,1,55,4|0,1:2|0:0,0:0:0:0:
226,237,42185,1,4,1:2:0:0:
124,280,42519,2,0,L|59:275,1,55,0|4,1:0|1:2,0:0:0:0:
48,257,42852,5,4,0:0:0:0:
23,149,43185,1,8,0:0:0:0:
108,79,43519,2,0,L|80:22,2,55,0|2|8,0:0|0:2|0:0,0:0:0:0:
163,173,44185,2,0,L|203:126,1,55,0|0,0:0|0:0,0:0:0:0:
212,107,44519,2,0,L|279:99,1,55,8|2,0:0|0:2,0:0:0:0:
290,114,44852,2,0,P|371:136|415:127,1,110,2|8,0:0|0:0,0:0:0:0:
474,210,45519,5,4,0:2:0:0:
433,312,45852,1,8,0:0:0:0:
339,253,46185,2,0,L|363:197,2,55,0|2|8,0:0|0:2|0:0,0:0:0:0:
263,332,46852,2,0,L|232:266,1,55,0|0,0:0|0:0,0:0:0:0:
227,257,47185,2,0,L|142:278,1,55,8|2,0:0|0:2,0:0:0:0:
148,280,47519,1,10,0:0:0:0:
38,267,47852,2,0,L|54:212,1,55,8|6,0:0|0:0,0:0:0:0:
68,192,48185,6,0,P|145:169|151:124,1,110,4|8,0:0|1:0,0:0:0:0:
156,121,48685,1,2,0:0:0:0:
156,93,48852,1,2,0:0:0:0:
65,28,49185,1,10,0:0:0:0:
29,132,49519,2,0,L|11:195,2,55,4|0|8,0:0|0:0|0:0,0:0:0:0:
65,28,50185,1,2,0:0:0:0:
170,60,50519,1,10,0:0:0:0:
140,165,50852,6,0,L|121:235,1,55,4|0,0:0|0:0,0:0:0:0:
128,245,51185,2,0,L|199:244,1,55,8|2,0:0|0:2,0:0:0:0:
210,245,51519,2,0,L|193:309,2,55,4|0|8,0:0|0:0|0:0,0:0:0:0:
245,140,52185,5,4,0:0:0:0:
335,79,52519,1,8,0:0:0:0:
417,151,52852,2,0,L|404:222,1,55,2|2,0:0|0:2,0:0:0:0:
401,232,53185,1,2,0:0:0:0:
313,299,53519,6,0,L|294:219,1,55,4|0,0:2|0:0,0:0:0:0:
249,94,56185,5,4,0:0:0:0:
249,94,56352,2,0,L|233:251,2,110,4|0|0,0:2|0:0|0:0,0:0:0:0:
160,28,57352,2,0,P|105:36|31:88,1,110,4|4,0:2|0:2,0:0:0:0:
27,167,58019,1,8,0:2:0:0:
27,167,58185,2,0,P|79:197|137:207,1,110,4|8,0:0|0:0,0:0:0:0:
237,202,58852,5,4,0:0:0:0:
256,192,59019,12,4,61685,0:2:0:0:
249,188,62852,5,4,0:0:0:0:
256,192,63019,12,4,65685,0:2:0:0:
254,185,66852,5,4,0:0:0:0:
279,78,67185,1,8,0:0:0:0:
384,45,67519,2,0,L|458:60,1,55,4|8,0:2|0:2,0:0:0:0:
464,50,67852,2,0,L|502:99,1,55,8|0,0:0|0:0,0:0:0:0:
485,118,68185,6,0,L|449:276,1,110,4|8,0:0|0:0,0:0:0:0:
377,297,68852,2,0,L|360:222,1,55,2|0,0:0|0:0,0:0:0:0:
348,221,69185,2,0,L|331:149,1,55,10|2,0:0|0:0,0:0:0:0:
338,139,69519,5,4,0:0:0:0:
246,78,69852,1,8,0:0:0:0:
176,163,70185,2,0,L|204:243,2,55,0|0|8,0:0|0:0|0:0,0:0:0:0:
92,90,70852,2,0,P|54:162|35:212,1,110,0|8,0:0|0:0,0:0:0:0:
44,298,71519,1,0,0:0:0:0:
137,354,71852,2,0,L|180:288,1,55,8|2,0:0|0:2,0:0:0:0:
175,281,72185,6,0,P|259:250|313:258,1,110,0|8,0:0|0:0,0:0:0:0:
375,302,72852,1,0,0:0:0:0:
466,241,73185,1,8,0:0:0:0:
389,162,73519,2,0,L|402:84,2,55,0|0|8,0:0|0:0|0:0,0:0:0:0:
294,218,74185,2,0,L|278:136,1,55,2|0,0:0|0:0,0:0:0:0:
290,137,74519,2,0,L|279:53,1,55,12|2,0:0|0:2,0:0:0:0:
272,56,74852,5,4,0:0:0:0:
167,20,75185,1,8,0:0:0:0:
74,79,75519,2,0,L|49:158,1,55,0|0,0:0|0:0,0:0:0:0:
41,153,75852,1,8,0:0:0:0:
45,262,76185,2,0,P|103:305|169:299,1,110,4|8,0:0|0:0,0:0:0:0:
161,291,76685,1,2,0:2:0:0:
161,291,76852,2,0,P|238:271|301:283,1,110,2|10,0:0|0:0,0:0:0:0:
355,340,77519,6,0,P|416:320|463:260,2,110,4|8|4,0:0|0:0|0:0,0:0:0:0:
267,273,78519,1,8,0:0:0:0:
187,197,78852,2,0,L|195:117,1,55,4|4,0:0|0:3,0:0:0:0:
212,123,79185,2,0,L|221:39,1,55,8|4,0:0|0:3,0:0:0:0:
238,50,79519,1,8,0:0:0:0:
344,24,79852,2,0,L|436:43,1,55,8|2,0:0|0:0,0:0:0:0:
425,39,80185,6,0,P|481:118|446:196,1,165,4|2,0:0|0:2,0:0:0:0:
445,197,80852,1,0,0:0:0:0:
338,169,81185,1,8,0:0:0:0:
248,232,81519,2,0,L|242:316,2,55,0|0|8,0:0|0:0|0:0,0:0:0:0:
156,171,82185,2,0,L|22:197,1,110,0|8,0:0|0:0,0:0:0:0:
29,171,82685,1,2,0:2:0:0:
21,144,82852,6,0,P|38:72|82:29,1,110,2|8,0:0|0:0,0:0:0:0:
169,34,83519,2,0,L|157:93,2,55,0|2|8,0:0|0:2|0:0,0:0:0:0:
275,61,84185,1,2,0:0:0:0:
321,161,84519,1,8,0:0:0:0:
271,258,84852,1,2,0:0:0:0:
349,330,85185,2,0,L|428:306,1,55,8|4,0:0|0:2,0:0:0:0:
425,327,85519,6,0,P|484:269|446:172,1,165,4|2,0:0|0:2,0:0:0:0:
450,175,86185,1,2,0:0:0:0:
339,175,86519,1,10,0:0:0:0:
286,78,86852,2,0,L|295:-2,2,55,4|0|8,0:0|0:0|0:0,0:0:0:0:
200,147,87519,2,0,L|214:220,1,55,2|0,0:0|0:0,0:0:0:0:
235,212,87852,2,0,L|231:289,1,55,10|0,0:0|0:0,0:0:0:0:
224,293,88185,5,4,0:0:0:0:
141,366,88519,1,8,0:0:0:0:
59,292,88852,2,0,L|63:223,1,55,4|0,0:0|0:0,0:0:0:0:
47,194,89185,1,8,0:0:0:0:
47,194,89352,1,2,0:0:0:0:
47,194,89519,2,0,P|78:123|111:89,1,110,4|8,0:0|0:0,0:0:0:0:
202,61,90185,2,0,L|272:65,2,55,4|4|12,0:0|0:2|0:0,0:0:0:0:
227,168,90852,6,0,P|218:278|220:374,1,165,4|0,0:0|0:0,0:0:0:0:
234,355,91519,2,2,P|313:330|362:329,1,110,0|0,1:0|0:0,0:0:0:0:
447,308,92185,1,2,0:0:0:0:
447,202,92519,1,4,0:0:0:0:
345,159,92852,2,0,L|323:232,2,55,0|0|4,3:0|1:0|1:2,0:0:0:0:
340,48,93519,6,0,P|271:33|179:122,1,165,4|0,1:0|0:0,0:0:0:0:
184,106,94185,2,0,P|217:159|298:189,1,110,4|0,0:0|0:0,0:0:0:0:
364,159,94852,1,4,1:0:0:0:
438,239,95185,1,4,1:2:0:0:
398,341,95519,2,0,L|308:359,1,55,4|2,1:0|1:2,0:0:0:0:
324,332,95852,2,0,L|252:349,1,55,0|8,1:0|1:3,0:0:0:0:
246,330,96185,5,4,1:0:0:0:
255,220,96519,1,0,1:0:0:0:
154,264,96852,1,4,1:2:0:0:
186,159,97185,1,0,1:0:0:0:
76,171,97519,2,0,L|21:225,2,55,4|0|4,1:2|0:0|1:2,0:0:0:0:
95,62,98185,2,0,L|55:-12,2,55,4|0|2,1:2|1:0|1:2,0:0:0:0:
111,84,98685,1,4,1:2:0:0:
129,104,98852,6,0,P|199:127|285:85,1,165,4|2,1:0|0:0,0:0:0:0:
294,68,99519,1,4,1:0:0:0:
395,26,99852,1,0,1:0:0:0:
457,116,100185,2,0,L|479:206,1,55,4|2,1:0|0:0,0:0:0:0:
488,189,100519,2,0,L|484:267,1,55,4|2,1:0|0:0,0:0:0:0:
462,259,100852,2,0,L|464:331,2,55,4|8|2,1:0|1:3|1:0,0:0:0:0:
256,192,101519,12,4,103519,0:0:0:0:
247,166,104185,6,0,L|231:251,1,55,4|0,0:0|0:0,0:0:0:0:
215,237,104519,2,0,L|221:299,2,55,8|10|0,0:0|0:2|0:0,0:0:0:0:
124,174,105185,1,8,0:0:0:0:
97,181,105352,1,2,0:2:0:0:
70,189,105519,2,2,P|50:118|59:45,1,110,2|10,0:0|0:0,0:0:0:0:
137,15,106185,2,0,L|220:42,1,55,2|2,0:0|0:2,0:0:0:0:
202,56,106519,2,0,L|278:38,1,55,8|2,0:0|0:0,0:0:0:0:
281,32,106852,5,0,0:0:0:0:
365,102,107185,1,10,0:0:0:0:
297,186,107519,1,0,0:0:0:0:
189,161,107852,2,0,L|103:190,1,55,8|2,0:0|0:0,0:0:0:0:
110,187,108185,2,0,P|69:266|69:333,1,110,2|10,0:2|0:0,0:0:0:0:
78,310,108685,1,10,0:2:0:0:
98,328,108852,2,0,P|172:349|226:333,1,110,2|10,0:0|0:0,0:0:0:0:
271,256,109519,5,0,0:0:0:0:
380,258,109852,1,8,0:0:0:0:
416,361,110185,2,0,L|341:361,2,55,2|0|8,0:2|0:0|0:0,0:0:0:0:
487,277,110852,2,0,P|457:201|416:143,1,110,2|10,0:0|0:0,0:0:0:0:
423,157,111352,1,8,0:2:0:0:
396,150,111519,2,0,P|313:151|288:158,1,110,2|10,0:0|0:0,0:0:0:0:
186,115,112185,6,0,L|208:43,2,55,0|0|8,0:0|0:0|0:0,0:0:0:0:
89,166,112852,2,0,L|67:83,2,55,2|8|8,0:0|0:3|0:0,0:0:0:0:
54,270,113519,1,2,0:0:0:0:
64,295,113685,1,0,0:0:0:0:
78,318,113852,2,0,P|136:316|168:247,1,110,8|2,0:0|0:2,0:0:0:0:
242,198,114519,2,0,L|337:216,1,55,8|4,0:0|0:3,0:0:0:0:
321,218,114852,5,4,0:0:0:0:
430,222,115185,1,8,0:0:0:0:
481,124,115519,1,0,0:0:0:0:
417,34,115852,1,8,0:0:0:0:
390,27,116019,1,2,0:2:0:0:
362,22,116185,2,0,P|292:30|220:58,1,110,2|8,0:0|0:0,0:0:0:0:
199,137,116852,2,0,L|216:202,1,55,2|0,0:0|0:0,0:0:0:0:
220,216,117185,1,8,0:0:0:0:
132,282,117519,5,2,0:0:0:0:
49,209,117852,2,0,L|35:143,2,55,8|8|2,0:0|0:2|0:0,0:0:0:0:
30,317,118519,2,0,L|45:371,1,55,10|2,0:0|0:2,0:0:0:0:
71,363,118852,1,2,0:0:0:0:
151,288,119185,1,8,0:0:0:0:
178,285,119352,1,2,0:0:0:0:
205,285,119519,2,0,P|280:312|315:333,1,110,0|8,0:0|0:0,0:0:0:0:
413,351,120185,6,0,P|448:273|447:224,1,110,0|8,0:0|0:0,0:0:0:0:
452,222,120685,1,8,0:2:0:0:
442,196,120852,2,0,P|391:155|316:132,1,110,2|8,0:0|0:0,0:0:0:0:
239,137,121519,1,2,0:0:0:0:
273,241,121852,1,8,0:0:0:0:
191,314,122185,2,0,L|153:245,1,55,2|0,0:0|0:0,0:0:0:0:
145,245,122519,2,0,L|84:248,1,55,10|2,0:0|0:2,0:0:0:0:
62,244,122852,6,0,P|31:190|42:115,1,110,0|8,0:0|0:0,0:0:0:0:
75,42,123519,2,0,L|159:9,1,55,2|8,0:0|0:3,0:0:0:0:
149,7,123852,2,0,L|235:24,1,55,8|2,0:0|0:2,0:0:0:0:
229,26,124185,5,6,0:0:0:0:
195,131,124519,1,8,0:0:0:0:
296,173,124852,2,0,L|360:148,1,55,4|0,0:2|0:0,0:0:0:0:
407,143,125185,1,8,0:0:0:0:
407,143,125352,1,2,0:0:0:0:
407,143,125519,6,0,P|460:205|472:264,1,110,4|8,0:0|0:0,0:0:0:0:
420,329,126185,2,0,L|349:341,1,55,0|2,0:0|0:2,0:0:0:0:
345,318,126519,1,8,0:0:0:0:
253,257,126852,2,0,L|189:289,2,55,0|0|8,0:0|0:0|0:0,0:0:0:0:
277,234,127352,1,0,0:0:0:0:
285,207,127519,2,0,P|267:139|222:90,1,110,0|8,0:0|0:0,0:0:0:0:
157,39,128185,6,0,L|78:64,1,55,0|0,0:0|0:0,0:0:0:0:
78,65,128519,1,8,0:0:0:0:
6,148,128852,2,0,L|29:220,1,55,0|2,0:0|0:2,0:0:0:0:
32,226,129185,2,0,L|100:206,1,55,8|2,0:0|0:2,0:0:0:0:
112,205,129519,1,0,0:0:0:0:
217,174,129852,1,8,0:0:0:0:
236,282,130185,2,0,L|250:348,1,55,2|0,0:0|0:0,0:0:0:0:
296,360,130519,1,12,0:0:0:0:
296,360,130685,1,0,0:0:0:0:
296,360,130852,6,0,P|349:337|373:269,1,110,4|8,0:0|0:0,0:0:0:0:
328,191,131519,2,0,L|259:202,1,55,0|2,0:0|0:2,0:0:0:0:
246,206,131852,2,0,L|264:135,1,55,8|2,0:0|0:2,0:0:0:0:
265,125,132185,1,0,0:0:0:0:
333,38,132519,1,8,0:0:0:0:
434,80,132852,2,0,L|461:163,1,55,0|2,0:0|0:2,0:0:0:0:
461,186,133185,1,8,0:0:0:0:
461,186,133352,1,0,0:0:0:0:
461,186,133519,6,0,P|389:215|308:224,1,110,2|10,0:0|0:0,0:0:0:0:
253,195,134185,1,4,0:0:0:0:
191,286,134519,1,8,0:0:0:0:
278,352,134852,2,0,L|288:289,1,55,4|0,0:0|2:0,0:0:0:0:
306,278,135185,2,0,L|302:201,1,55,4|0,0:0|2:0,0:0:0:0:
280,207,135519,2,0,P|269:142|260:85,1,110,4|4,0:0|0:0,0:0:0:0:
176,30,136185,6,2,L|119:41,1,55,6|6,0:0|0:2,0:0:0:0:
95,34,136519,2,2,L|38:81,1,55,4|4,0:0|0:2,0:0:0:0:
45,95,136852,1,4,0:0:0:0:
76,200,137185,1,4,0:0:0:0:
256,192,137352,12,0,138852,0:0:0:0:
