osu file format v14

[General]
AudioFilename: audio.mp3
AudioLeadIn: 0
PreviewTime: 42519
Countdown: 0
SampleSet: Normal
StackLeniency: 0.2
Mode: 0
LetterboxInBreaks: 0
WidescreenStoryboard: 0

[Editor]
Bookmarks: 61378
DistanceSpacing: 1
BeatDivisor: 6
GridSize: 32
TimelineZoom: 2.999999

[Metadata]
Title:BSPower Explosion
TitleUnicode:BSPower Explosion
Artist:Memme
ArtistUnicode:Memme
Creator:PandaHero
Version:Kujinn's Extra
Source:O2Jam Analog
Tags:electronic instrumental oriental core piu pump it up prime 2 o2 jam rhythm video game music saltylucario salty saltking kujinn reform owc2020 owc 2020 ro32 fm1 parkmemme
BeatmapID:4193586
BeatmapSetID:1096818

[Difficulty]
HPDrainRate:5.5
CircleSize:3.8
OverallDifficulty:8.6
ApproachRate:9.2
SliderMultiplier:1.7
SliderTickRate:1

[Events]
//Background and Video events
0,0,"1.jpg",0,0
//Break Periods
2,53885,55615
2,91052,92615
//Storyboard Layer 0 (Background)
//Storyboard Layer 1 (Fail)
//Storyboard Layer 2 (Pass)
//Storyboard Layer 3 (Foreground)
//Storyboard Layer 4 (Overlay)
//Storyboard Sound Samples

[TimingPoints]
186,333.333333333333,4,1,0,70,1,0
10185,-133.333333333333,4,1,0,70,0,0
10852,-100,4,2,0,65,0,0
21519,-100,4,1,0,70,0,1
21602,-100,4,1,0,70,0,0
22185,-100,4,1,0,70,0,1
22269,-100,4,1,0,70,0,0
22852,-100,4,1,0,70,0,1
23852,-100,4,1,0,70,0,0
24185,-111.111111111111,4,2,0,65,0,0
26852,-100,4,1,0,70,0,1
26935,-100,4,1,0,70,0,0
27519,-100,4,1,0,70,0,1
27602,-100,4,1,0,70,0,0
28185,-100,4,1,0,70,0,1
29185,-111.111111111111,4,1,0,70,0,0
29519,-111.111111111111,4,1,0,65,0,0
42185,-133.333333333333,4,2,0,65,0,0
42852,-100,4,1,0,70,0,0
53519,-133.333333333333,4,1,0,55,0,0
58852,-100,4,1,0,75,0,0
69519,-100,4,1,0,70,0,0
90852,-100,4,2,0,60,0,0
94852,-111.111111111111,4,2,0,60,0,0
96185,-111.111111111111,4,2,0,65,0,0
101519,-133.333333333333,4,1,0,65,0,0
103519,-100,4,1,0,65,0,0
104185,-90.9090909090909,4,1,0,75,0,1
125519,-90.9090909090909,4,1,0,70,0,0
130852,-90.9090909090909,4,1,0,70,0,1
136185,-90.9090909090909,4,1,0,70,0,1
136852,-66.6666666666667,4,1,0,70,0,1
137102,-66.6666666666667,4,1,0,5,0,1
137185,-90.9090909090909,4,1,0,65,0,0

[Colours]
Combo1 : 58,186,119
Combo2 : 73,164,171
Combo3 : 171,73,73
Combo4 : 181,117,64

[HitObjects]
316,29,186,5,4,0:0:0:0:
459,77,352,1,0,0:0:0:0:
411,220,519,1,8,0:0:0:0:
268,172,685,1,4,0:2:0:0:
159,110,852,5,0,0:0:0:0:
16,158,1018,1,0,0:0:0:0:
64,301,1185,1,8,0:0:0:0:
207,253,1351,1,0,0:0:0:0:
404,370,1519,5,4,0:0:0:0:
409,345,1602,1,0,0:0:0:0:
414,320,1685,1,0,0:0:0:0:
418,294,1769,1,0,0:0:0:0:
424,268,1852,1,8,0:0:0:0:
291,348,2019,1,4,0:2:0:0:
422,113,2185,5,0,0:0:0:0:
512,339,2352,1,0,0:0:0:0:
296,230,2519,1,4,0:0:0:0:
146,102,2685,6,0,L|186:93,2,28.3333333333333,8|8|8,0:3|0:3|0:3,0:0:0:0:
119,129,2852,5,4,0:0:0:0:
123,153,2935,1,0,0:0:0:0:
126,178,3019,1,0,0:0:0:0:
130,202,3102,1,0,0:0:0:0:
135,226,3185,1,8,0:0:0:0:
248,187,3352,5,0,0:0:0:0:
143,347,3519,1,4,0:0:0:0:
32,218,3685,1,0,0:0:0:0:
32,218,3769,1,0,0:0:0:0:
32,218,3852,2,0,P|24:167|15:114,1,85,8|0,0:0|0:0,0:0:0:0:
272,20,4185,5,4,0:0:0:0:
275,41,4269,1,0,0:0:0:0:
277,61,4352,1,0,0:0:0:0:
280,81,4435,1,0,0:0:0:0:
283,102,4519,1,8,0:0:0:0:
395,36,4685,1,0,0:0:0:0:
245,219,4852,2,0,P|325:211|370:278,1,170,4|4,0:2|0:2,0:0:0:0:
207,378,5352,5,0,0:0:0:0:
207,378,5435,1,0,0:0:0:0:
207,378,5519,1,4,0:0:0:0:
43,342,5685,1,0,0:0:0:0:
79,178,5852,1,8,0:0:0:0:
243,214,6019,1,4,0:2:0:0:
341,294,6185,5,0,0:0:0:0:
504,258,6351,1,0,0:0:0:0:
469,94,6518,1,8,0:0:0:0:
304,130,6685,1,0,0:0:0:0:
79,178,6852,5,4,0:0:0:0:
83,153,6935,1,0,0:0:0:0:
87,127,7019,1,0,0:0:0:0:
92,102,7102,1,0,0:0:0:0:
96,76,7185,1,8,0:0:0:0:
225,222,7352,1,4,0:2:0:0:
202,23,7519,5,0,0:0:0:0:
121,233,7685,1,0,0:2:0:0:
9,40,7852,1,4,0:0:0:0:
204,135,8019,6,0,L|244:126,2,28.3333333333333,8|8|8,0:3|0:3|0:3,0:0:0:0:
262,89,8185,5,4,0:0:0:0:
286,95,8269,1,0,0:0:0:0:
310,100,8352,1,0,0:0:0:0:
334,105,8435,1,0,0:0:0:0:
359,110,8519,1,8,0:0:0:0:
226,232,8685,5,4,0:2:0:0:
164,55,8852,1,0,0:0:0:0:
356,180,9019,1,0,0:0:0:0:
356,180,9102,1,0,0:0:0:0:
356,180,9185,2,0,P|346:236|337:296,1,85,8|0,0:0|0:0,0:0:0:0:
72,304,9519,5,4,0:0:0:0:
103,290,9602,1,0,0:0:0:0:
136,292,9685,1,0,0:0:0:0:
167,304,9769,1,0,0:0:0:0:
191,327,9852,1,8,0:0:0:0:
219,345,9935,1,0,0:0:0:0:
252,352,10019,1,0,0:0:0:0:
285,351,10102,1,0,0:0:0:0:
309,343,10185,6,0,L|322:286,3,31.8750012159348,2|0|0|0,0:0|0:0|0:0|0:0,0:0:0:0:
252,234,10519,2,0,L|239:177,3,31.8750012159348,10|0|0|0,0:0|0:0|0:0|0:0,0:0:0:0:
278,123,10852,6,0,P|324:132|368:140,1,85,4|0,1:0|1:0,0:0:0:0:
395,169,11102,1,0,1:0:0:0:
395,169,11185,2,0,P|436:161|478:153,1,85,8|2,1:0|0:0,0:0:0:0:
328,28,11519,1,0,1:0:0:0:
271,225,11685,1,2,0:0:0:0:
410,92,11852,1,8,1:0:0:0:
214,35,12019,1,2,0:0:0:0:
98,170,12185,6,0,L|116:268,1,85,0|0,1:0|1:0,0:0:0:0:
155,275,12435,1,0,1:0:0:0:
155,275,12519,2,0,L|139:358,1,85,8|2,1:0|0:0,0:0:0:0:
203,159,12852,1,0,1:0:0:0:
33,252,13019,1,2,0:0:0:0:
218,354,13185,1,8,1:0:0:0:
251,348,13269,1,0,1:0:0:0:
284,342,13352,1,0,1:0:0:0:
317,335,13435,1,0,1:0:0:0:
351,332,13519,6,0,P|361:283|341:242,1,85,0|0,1:0|1:0,0:0:0:0:
320,232,13769,1,0,1:0:0:0:
320,232,13852,2,0,P|307:192|317:151,1,85,8|2,1:0|0:0,0:0:0:0:
403,35,14185,1,0,1:0:0:0:
423,209,14352,1,2,0:0:0:0:
240,229,14519,1,8,1:0:0:0:
220,48,14685,1,2,0:0:0:0:
387,120,14852,6,0,L|302:132,1,85,0|0,1:0|1:0,0:0:0:0:
264,149,15102,1,0,1:0:0:0:
264,149,15185,2,0,L|179:136,1,85,8|2,1:0|0:0,0:0:0:0:
65,23,15519,2,0,L|79:88,1,42.5,2|0,1:0|0:0,0:0:0:0:
67,218,15685,2,0,L|75:176,1,42.5,0|0,1:0|0:0,0:0:0:0:
198,59,15852,1,12,1:0:0:0:
228,200,16019,1,0,1:0:0:0:
367,50,16185,5,0,1:0:0:0:
298,288,16352,1,0,1:0:0:0:
298,288,16435,1,0,1:0:0:0:
298,288,16519,2,0,L|283:180,1,85,8|2,1:0|0:0,0:0:0:0:
190,42,16852,1,0,1:0:0:0:
388,149,17019,1,2,0:0:0:0:
191,254,17185,1,8,1:0:0:0:
280,91,17352,1,2,0:0:0:0:
465,281,17519,5,0,1:0:0:0:
399,64,17685,1,0,1:0:0:0:
399,64,17769,1,0,1:0:0:0:
399,64,17852,2,0,L|387:148,1,85,8|2,1:0|0:0,0:0:0:0:
312,325,18185,1,0,1:0:0:0:
210,139,18352,1,2,0:0:0:0:
63,291,18519,5,8,1:0:0:0:
96,295,18602,1,0,1:0:0:0:
129,298,18685,1,0,1:0:0:0:
162,302,18769,1,0,1:0:0:0:
190,304,18852,5,0,1:0:0:0:
91,107,19019,1,0,1:0:0:0:
91,107,19102,1,0,1:0:0:0:
91,107,19185,2,0,P|42:90|-3:109,1,85,8|2,1:0|0:0,0:0:0:0:
114,274,19519,1,0,1:0:0:0:
232,135,19685,2,0,L|239:91,2,28.3333333333333,8|8|8,1:3|0:3|0:3,0:0:0:0:
273,204,19852,1,8,1:0:0:0:
394,64,20019,1,4,0:3:0:0:
448,297,20185,5,0,1:0:0:0:
274,20,20519,5,0,1:0:0:0:
119,289,20852,6,0,B|69:314|20:257|65:190|150:195|184:254|184:254|204:296|174:336,1,297.5,0|0,1:0|0:0,0:0:0:0:
178,337,21519,5,4,0:0:0:0:
172,349,21852,1,0,0:0:0:0:
366,294,22019,1,0,0:0:0:0:
311,102,22185,1,4,0:0:0:0:
313,86,22519,5,0,0:0:0:0:
370,274,22685,1,0,0:0:0:0:
178,329,22852,1,4,0:0:0:0:
131,132,23019,5,0,0:0:0:0:
131,132,23102,1,0,0:0:0:0:
131,132,23185,1,4,0:2:0:0:
277,232,23352,1,0,0:0:0:0:
277,232,23435,1,0,0:0:0:0:
277,232,23519,6,0,P|283:290|292:351,1,85,4|0,0:0|0:0,0:0:0:0:
33,242,23852,1,2,0:0:0:0:
33,242,23935,1,0,0:0:0:0:
33,242,24019,2,0,P|27:184|24:163,1,42.5,0|0,0:0|2:0,0:0:0:0:
149,50,24185,6,0,P|158:120|162:217,1,152.999995330811,6|8,1:0|1:0,0:0:0:0:
104,314,24685,1,2,0:0:0:0:
267,178,24852,1,0,1:0:0:0:
69,87,25019,2,0,L|72:129,2,25.4999992218018,2|2|0,1:2|0:0|0:0,0:0:0:0:
124,31,25185,5,8,1:0:0:0:
135,211,25352,1,2,0:0:0:0:
324,81,25519,5,0,1:0:0:0:
333,274,25685,1,0,1:0:0:0:
333,274,25769,1,0,1:0:0:0:
333,274,25852,1,8,1:0:0:0:
194,141,26019,1,2,0:0:0:0:
398,175,26185,5,0,1:0:0:0:
226,307,26352,2,0,L|195:312,2,25.4999992218018,8|8|8,1:3|1:3|1:3,0:0:0:0:
295,344,26519,5,8,1:0:0:0:
278,131,26685,1,4,1:3:0:0:
90,266,26852,5,4,0:0:0:0:
82,278,27185,5,0,0:0:0:0:
63,45,27352,1,0,0:0:0:0:
295,26,27519,1,4,0:0:0:0:
284,12,27852,5,0,0:0:0:0:
52,31,28019,1,0,0:0:0:0:
71,264,28186,1,4,0:0:0:0:
315,251,28352,5,0,0:0:0:0:
315,251,28435,1,0,0:0:0:0:
315,251,28519,1,4,0:2:0:0:
128,114,28685,1,0,0:0:0:0:
128,114,28769,1,0,0:0:0:0:
128,114,28852,2,0,P|176:115|225:107,1,85,4|0,0:0|0:0,0:0:0:0:
278,77,29102,1,0,0:0:0:0:
300,74,29185,1,2,0:0:0:0:
323,74,29269,1,0,0:0:0:0:
345,74,29352,1,0,0:0:0:0:
367,75,29435,1,0,0:0:0:0:
390,76,29519,6,0,P|389:139|400:256,1,152.999995330811,6|0,1:0|0:0,0:0:0:0:
221,348,30019,1,2,0:0:0:0:
304,174,30185,1,0,1:0:0:0:
429,353,30352,2,0,P|449:353|468:351,2,25.4999992218018,0|2|0,1:0|1:2|0:0,0:0:0:0:
368,308,30519,2,0,P|331:307|282:313,1,76.4999976654053,8|0,1:0|0:0,0:0:0:0:
55,335,30852,5,0,1:0:0:0:
49,133,31019,1,0,1:0:0:0:
49,133,31102,1,0,1:0:0:0:
49,133,31185,1,8,1:0:0:0:
221,313,31352,1,4,0:0:0:0:
213,88,31519,1,0,1:0:0:0:
115,193,31685,2,0,L|79:199,2,25.4999992218018,8|8|8,1:3|0:3|0:3,0:0:0:0:
192,245,31852,2,0,L|188:206,1,38.2499988327027,8|0,1:0|2:0,0:0:0:0:
294,82,32019,2,0,L|297:120,1,38.2499988327027,4|0,0:3|2:0,0:0:0:0:
408,239,32185,6,0,P|450:232|505:229,1,76.4999976654053,4|0,1:0|0:0,0:0:0:0:
367,351,32519,1,8,1:2:0:0:
278,203,32685,1,2,1:2:0:0:
168,325,32852,2,0,P|126:332|71:335,1,76.4999976654053,0|0,1:0|0:0,0:0:0:0:
192,188,33185,1,8,1:0:0:0:
281,336,33351,1,2,1:2:0:0:
287,143,33519,5,0,1:0:0:0:
198,291,33685,1,2,0:0:0:0:
191,88,33852,1,8,1:0:0:0:
280,236,34018,1,2,0:0:0:0:
368,13,34185,6,2,P|325:5|271:15,1,76.4999976654053,0|0,1:0|0:0,0:0:0:0:
169,175,34519,1,8,1:0:0:0:
158,7,34685,1,2,0:0:0:0:
342,157,34852,6,0,B|427:131|408:204|502:172,1,152.999995330811,0|8,1:0|0:0,0:0:0:0:
255,83,35352,1,0,1:0:0:0:
350,274,35519,1,2,1:2:0:0:
441,76,35685,2,0,P|458:77|479:76,2,25.4999992218018,2|2|0,1:2|0:2|0:0,0:0:0:0:
369,32,35852,5,8,1:0:0:0:
277,215,36019,1,8,1:2:0:0:
274,0,36185,5,0,1:0:0:0:
368,192,36352,1,0,1:0:0:0:
368,192,36435,1,0,1:0:0:0:
368,192,36519,1,8,1:0:0:0:
445,0,36685,1,2,0:0:0:0:
258,145,36852,6,0,P|213:148|167:137,1,76.4999976654053,0|0,1:0|0:0,0:0:0:0:
145,105,37102,1,0,1:0:0:0:
145,105,37185,2,0,P|107:98|69:102,1,76.4999976654053,8|0,1:0|0:0,0:0:0:0:
278,326,37519,6,0,P|316:333|354:329,1,76.4999976654053,4|0,1:0|0:0,0:0:0:0:
244,187,37852,1,8,1:0:0:0:
158,309,38019,1,2,1:2:0:0:
75,179,38185,2,0,P|37:172|-1:176,1,76.4999976654053,4|0,1:0|0:0,0:0:0:0:
67,339,38519,1,8,1:0:0:0:
157,216,38686,1,2,1:2:0:0:
283,326,38852,5,0,1:0:0:0:
223,150,39019,1,2,0:0:0:0:
364,285,39185,1,8,1:0:0:0:
435,114,39352,1,2,1:2:0:0:
241,243,39519,6,2,L|186:250,3,38.2499988327027,2|0|0|0,1:0|0:0|0:0|0:0,0:0:0:0:
161,165,39852,2,2,L|230:156,1,38.2499988327027,10|0,1:0|2:0,0:0:0:0:
297,328,40019,2,0,L|259:332,1,38.2499988327027,2|0,1:2|2:0,0:0:0:0:
28,238,40185,6,0,L|50:74,1,152.999995330811,4|0,1:0|0:0,0:0:0:0:
205,267,40685,1,2,0:0:0:0:
156,56,40852,1,4,1:0:0:0:
278,186,41019,2,0,P|296:187|319:186,2,25.4999992218018,8|8|8,0:3|0:3|0:3,0:0:0:0:
218,124,41185,5,8,1:0:0:0:
124,310,41352,1,4,0:3:0:0:
394,101,41519,5,4,1:2:0:0:
400,89,41852,5,4,1:2:0:0:
409,79,42185,6,0,L|426:190,1,95.6250036478044,4|0,1:2|0:0,0:0:0:0:
435,247,42519,1,0,1:0:0:0:
321,342,42685,2,0,L|324:363,2,21.2500008106232,4|8|4,1:2|0:3|0:3,0:0:0:0:
272,253,42852,5,4,0:0:0:0:
274,240,42935,1,0,0:0:0:0:
276,227,43019,1,0,0:0:0:0:
278,214,43102,1,0,0:0:0:0:
280,201,43185,2,0,L|271:130,3,42.5,8|0|2|0,0:0|0:0|0:2|0:0,0:0:0:0:
195,115,43519,1,0,0:0:0:0:
193,102,43602,1,0,0:0:0:0:
191,89,43686,1,2,0:2:0:0:
189,76,43769,1,0,0:0:0:0:
187,63,43852,2,0,L|196:-8,3,42.5,8|0|2|0,0:0|0:0|0:2|0:0,0:0:0:0:
269,80,44185,6,0,L|333:71,3,42.5,0|0|0|0,0:0|0:0|0:0|0:0,0:0:0:0:
187,186,44519,2,0,L|123:177,3,42.5,8|0|2|0,0:0|0:0|0:2|0:0,0:0:0:0:
321,283,44852,5,2,0:0:0:0:
290,271,44935,1,0,0:0:0:0:
256,266,45019,1,0,0:0:0:0:
224,274,45102,1,0,0:0:0:0:
194,287,45185,1,8,0:0:0:0:
164,303,45269,1,0,0:0:0:0:
131,308,45352,1,2,0:0:0:0:
98,306,45435,1,0,0:0:0:0:
68,290,45519,5,4,0:2:0:0:
70,277,45602,1,0,0:0:0:0:
73,264,45685,1,0,0:0:0:0:
76,251,45769,1,0,0:0:0:0:
79,238,45852,2,0,L|71:172,3,42.5,8|0|2|0,0:0|0:0|0:2|0:0,0:0:0:0:
138,138,46185,1,0,0:0:0:0:
136,125,46268,1,0,0:0:0:0:
133,112,46351,1,2,0:2:0:0:
130,99,46435,1,0,0:0:0:0:
127,86,46518,2,0,L|135:20,3,42.5,8|0|2|0,0:0|0:0|0:2|0:0,0:0:0:0:
223,1,46852,6,0,L|278:10,3,42.5,0|0|0|0,0:0|0:0|0:0|0:0,0:0:0:0:
354,131,47185,2,0,L|312:124,3,42.5,8|0|2|0,0:0|0:0|0:2|0:0,0:0:0:0:
207,174,47519,5,10,0:0:0:0:
187,201,47602,1,0,0:0:0:0:
182,234,47685,1,0,0:0:0:0:
187,267,47769,1,8,0:2:0:0:
201,297,47852,1,8,0:0:0:0:
224,321,47935,1,0,0:0:0:0:
256,332,48019,1,6,0:0:0:0:
289,329,48102,1,0,0:0:0:0:
317,321,48185,5,4,0:0:0:0:
304,319,48269,1,0,0:0:0:0:
291,317,48352,1,0,0:0:0:0:
278,315,48435,1,0,0:0:0:0:
265,314,48519,2,0,L|193:326,3,42.5,8|0|2|0,0:0|0:0|0:2|0:0,0:0:0:0:
153,363,48852,1,2,0:0:0:0:
140,365,48936,1,0,0:0:0:0:
127,367,49019,1,0,0:0:0:0:
114,369,49102,1,0,0:0:0:0:
101,370,49186,2,0,L|29:358,3,42.5,10|0|0|0,0:0|0:0|0:0|0:0,0:0:0:0:
23,280,49519,6,0,L|13:200,3,42.5,4|0|0|0,0:0|0:0|0:0|0:0,0:0:0:0:
133,160,49852,2,0,L|123:240,3,42.5,8|0|2|0,0:0|0:0|0:2|0:0,0:0:0:0:
222,287,50185,5,2,0:0:0:0:
244,313,50269,1,0,0:0:0:0:
276,323,50352,1,0,0:0:0:0:
309,322,50435,1,0,0:0:0:0:
340,308,50519,1,10,0:0:0:0:
366,286,50602,1,0,0:0:0:0:
382,256,50685,1,2,0:2:0:0:
389,222,50769,1,0,0:0:0:0:
384,188,50852,5,4,0:0:0:0:
380,200,50935,1,0,0:0:0:0:
375,212,51019,1,0,0:0:0:0:
370,224,51102,1,0,0:0:0:0:
367,236,51185,2,0,L|379:301,3,42.5,8|0|2|0,0:0|0:0|0:2|0:0,0:0:0:0:
464,294,51519,1,4,0:0:0:0:
468,306,51602,1,0,0:0:0:0:
473,318,51686,1,0,0:0:0:0:
478,330,51769,1,0,0:0:0:0:
481,342,51852,2,0,L|469:407,3,42.5,8|0|2|0,0:0|0:0|0:2|0:0,0:0:0:0:
328,344,52185,5,4,0:0:0:0:
294,316,52269,1,0,0:0:0:0:
252,309,52352,1,0,0:0:0:0:
211,321,52435,1,0,0:2:0:0:
174,342,52519,1,8,0:0:0:0:
133,352,52602,1,0,0:0:0:0:
91,345,52685,1,2,0:2:0:0:
55,320,52769,1,0,0:0:0:0:
38,281,52852,5,2,0:0:0:0:
275,169,53019,1,2,0:2:0:0:
50,64,53185,1,2,0:0:0:0:
194,275,53519,5,4,0:2:0:0:
194,275,53685,1,0,0:0:0:0:
449,72,56185,5,4,0:0:0:0:
449,72,56352,1,4,0:2:0:0:
449,72,57352,6,0,P|447:138|453:226,1,127.500004863739,4|4,0:2|0:2,0:0:0:0:
450,199,57852,1,8,0:0:0:0:
112,343,58185,6,0,P|114:294|110:253,1,63.7500024318696,4|0,0:0|0:0,0:0:0:0:
110,242,58435,1,0,0:0:0:0:
110,242,58519,2,0,P|108:193|112:152,1,63.7500024318696,8|4,0:0|0:2,0:0:0:0:
209,76,58852,6,0,P|255:86|303:75,1,85,4|4,0:0|0:2,0:0:0:0:
384,47,59185,1,4,0:0:0:0:
389,67,59269,1,0,0:0:0:0:
390,88,59352,1,0,0:0:0:0:
387,109,59435,1,0,0:0:0:0:
382,129,59519,1,0,0:0:0:0:
380,150,59602,1,0,0:0:0:0:
380,171,59685,1,0,0:0:0:0:
382,192,59769,1,0,0:0:0:0:
388,212,59852,5,4,0:0:0:0:
468,289,60019,1,4,0:2:0:0:
373,351,60185,1,4,0:0:0:0:
353,356,60269,1,0,0:0:0:0:
332,357,60352,1,0,0:0:0:0:
311,354,60435,1,0,0:0:0:0:
291,349,60519,1,0,0:0:0:0:
270,346,60602,1,0,0:0:0:0:
249,347,60685,1,0,0:0:0:0:
228,349,60769,1,0,0:0:0:0:
208,358,60852,6,0,P|213:306|200:244,1,85,4|4,0:0|0:2,0:0:0:0:
95,115,61185,1,4,0:0:0:0:
101,135,61269,1,0,0:0:0:0:
112,152,61352,1,0,0:0:0:0:
129,163,61435,1,0,0:0:0:0:
149,168,61519,1,0,0:0:0:0:
170,166,61602,1,0,0:0:0:0:
189,158,61685,5,4,0:2:0:0:
334,44,62019,1,4,0:2:0:0:
407,121,62185,1,4,0:0:0:0:
403,142,62269,1,0,0:0:0:0:
400,163,62352,1,0,0:0:0:0:
400,184,62435,1,0,0:0:0:0:
402,205,62519,2,0,P|406:242|405:270,3,42.5,8|0|8|0,0:0|0:0|0:2|0:0,0:0:0:0:
351,320,62852,6,0,P|305:327|256:312,1,85,4|4,0:0|0:2,0:0:0:0:
90,336,63185,1,4,0:0:0:0:
97,315,63269,1,0,0:0:0:0:
98,293,63352,1,0,0:0:0:0:
95,271,63435,1,0,0:0:0:0:
90,250,63519,1,0,0:0:0:0:
83,229,63602,1,0,0:0:0:0:
78,208,63685,1,0,0:0:0:0:
76,186,63769,1,0,0:0:0:0:
78,165,63852,5,4,0:0:0:0:
170,82,64019,1,4,0:2:0:0:
249,189,64185,1,4,0:0:0:0:
268,198,64269,1,0,0:0:0:0:
289,200,64352,1,0,0:0:0:0:
310,197,64435,1,0,0:0:0:0:
330,191,64519,1,0,0:0:0:0:
348,180,64602,1,0,0:0:0:0:
363,165,64685,1,0,0:0:0:0:
374,147,64769,1,0,0:0:0:0:
387,127,64852,6,0,P|394:168|395:211,1,85,4|4,0:0|0:2,0:0:0:0:
273,311,65185,1,4,0:0:0:0:
293,304,65269,1,0,0:0:0:0:
314,304,65352,1,0,0:0:0:0:
334,308,65435,1,0,0:0:0:0:
354,315,65519,1,0,0:0:0:0:
372,325,65602,1,0,0:0:0:0:
388,338,65685,5,4,0:2:0:0:
142,331,66019,1,4,0:2:0:0:
53,274,66185,1,4,0:0:0:0:
59,253,66269,1,0,0:0:0:0:
62,232,66352,1,0,0:0:0:0:
61,210,66435,1,0,0:0:0:0:
57,188,66519,2,0,P|56:159|67:114,3,42.5,0|0|0|0,0:0|0:0|0:0|0:0,0:0:0:0:
128,88,66852,5,4,0:0:0:0:
128,88,66935,1,0,0:0:0:0:
128,88,67019,2,0,L|182:97,1,42.5,0|8,0:0|2:3,0:0:0:0:
251,21,67185,1,8,0:0:0:0:
251,21,67268,1,0,0:0:0:0:
251,21,67352,2,0,L|242:75,1,42.5,8|8,0:3|2:3,0:0:0:0:
283,154,67519,6,0,L|229:145,1,42.5,4|0,0:2|2:0,0:0:0:0:
161,214,67685,2,0,L|170:160,1,42.5,8|0,0:2|2:0,0:0:0:0:
320,83,67852,6,0,L|361:89,1,42.5,8|0,0:0|2:0,0:0:0:0:
413,165,68018,2,0,L|406:206,1,42.5,0|0,0:0|2:0,0:0:0:0:
392,290,68185,5,4,0:0:0:0:
392,290,68852,5,2,0:0:0:0:
363,259,68935,1,0,0:0:0:0:
318,246,69019,1,0,0:0:0:0:
279,255,69102,1,0,0:0:0:0:
250,278,69185,1,10,0:0:0:0:
226,294,69269,1,0,0:0:0:0:
204,298,69352,1,2,0:0:0:0:
181,294,69435,1,0,0:0:0:0:
165,284,69519,6,0,P|214:282|270:303,1,85,4|0,0:0|0:0,0:0:0:0:
282,323,69769,1,0,0:0:0:0:
282,323,69852,2,0,P|323:333|365:330,1,85,8|2,0:0|0:2,0:0:0:0:
442,150,70185,1,0,0:0:0:0:
453,362,70352,1,0,0:0:0:0:
310,212,70519,1,8,0:0:0:0:
509,242,70685,1,2,0:2:0:0:
242,363,70852,6,0,L|234:265,1,85,0|0,0:0|0:0,0:0:0:0:
255,241,71102,1,0,0:0:0:0:
255,241,71185,2,0,L|263:143,1,85,8|2,0:0|0:2,0:0:0:0:
201,16,71519,1,0,0:0:0:0:
364,119,71685,1,0,0:0:0:0:
182,215,71852,1,8,0:0:0:0:
149,207,71935,1,0,0:0:0:0:
115,198,72019,1,2,0:2:0:0:
82,189,72102,1,0,0:0:0:0:
50,177,72185,6,0,L|172:154,1,85,0|0,0:0|0:0,0:0:0:0:
163,123,72435,1,0,0:0:0:0:
163,123,72519,2,0,L|79:107,1,85,8|2,0:0|0:2,0:0:0:0:
213,206,72852,1,0,0:0:0:0:
240,43,73019,1,0,0:0:0:0:
77,16,73185,1,8,0:0:0:0:
50,177,73352,1,2,0:2:0:0:
166,306,73519,6,0,P|225:297|278:288,1,85,0|0,0:0|0:0,0:0:0:0:
283,267,73769,1,0,0:0:0:0:
283,267,73852,2,0,P|324:273|366:280,1,85,8|2,0:0|0:2,0:0:0:0:
446,163,74185,2,0,L|434:213,1,42.5,2|0,0:0|2:0,0:0:0:0:
456,379,74352,2,0,L|446:337,1,42.5,0|0,0:0|2:0,0:0:0:0:
286,176,74519,1,12,0:0:0:0:
330,331,74685,1,2,0:2:0:0:
198,97,74852,5,4,0:0:0:0:
136,354,75019,1,0,0:0:0:0:
136,354,75102,1,0,0:0:0:0:
136,354,75185,2,0,L|122:253,1,85,8|2,0:0|0:2,0:0:0:0:
28,80,75519,1,0,0:0:0:0:
226,190,75685,1,0,0:0:0:0:
22,297,75852,1,8,0:0:0:0:
115,129,76019,1,2,0:2:0:0:
240,332,76185,5,4,0:0:0:0:
389,108,76352,1,0,0:0:0:0:
389,108,76435,1,0,0:0:0:0:
389,108,76519,2,0,L|398:212,1,85,8|2,0:0|0:2,0:0:0:0:
467,343,76852,1,2,0:0:0:0:
264,217,77019,1,0,0:0:0:0:
466,82,77185,1,10,0:0:0:0:
489,115,77269,1,0,0:0:0:0:
496,148,77352,1,2,0:2:0:0:
488,180,77435,1,0,0:0:0:0:
469,211,77519,5,4,0:0:0:0:
306,95,77685,1,0,0:0:0:0:
306,95,77769,1,0,0:0:0:0:
306,95,77852,2,0,P|264:89|226:107,1,85,8|2,0:0|0:2,0:0:0:0:
94,280,78185,1,4,0:0:0:0:
278,193,78352,1,0,0:0:0:0:
109,71,78519,2,0,L|125:187,1,85,8|2,0:0|0:2,0:0:0:0:
174,323,78852,5,4,0:0:0:0:
208,128,79019,1,4,0:3:0:0:
339,294,79185,5,8,0:0:0:0:
306,76,79352,1,4,0:3:0:0:
451,280,79519,5,8,0:0:0:0:
454,263,79602,1,0,0:0:0:0:
457,246,79685,1,2,0:2:0:0:
459,229,79769,1,0,0:0:0:0:
461,212,79852,2,0,L|453:145,1,42.5,8|0,0:0|2:0,0:0:0:0:
456,16,80019,2,0,L|450:58,1,42.5,2|0,0:0|2:0,0:0:0:0:
324,183,80185,5,4,0:0:0:0:
307,177,80269,1,0,0:0:0:0:
291,171,80352,1,0,0:0:0:0:
274,166,80435,1,0,0:0:0:0:
257,161,80519,2,0,L|267:223,3,42.5,8|0|2|0,0:0|0:0|0:2|0:0,0:0:0:0:
251,293,80852,1,0,0:0:0:0:
268,287,80936,1,0,0:0:0:0:
284,281,81019,1,0,0:0:0:0:
301,276,81102,1,0,0:0:0:0:
318,271,81186,2,0,L|308:333,3,42.5,8|0|2|0,0:0|0:0|0:2|0:0,0:0:0:0:
229,366,81519,6,0,L|178:370,3,42.5,0|0|0|0,0:0|0:0|0:0|0:0,0:0:0:0:
117,271,81852,2,0,L|168:267,3,42.5,8|0|2|0,0:0|0:0|0:2|0:0,0:0:0:0:
233,182,82185,5,0,0:0:0:0:
249,151,82269,1,0,0:0:0:0:
246,117,82352,1,0,0:0:0:0:
236,84,82435,1,0,0:0:0:0:
214,57,82519,1,8,0:0:0:0:
185,39,82602,1,0,0:0:0:0:
151,34,82685,1,2,0:2:0:0:
117,38,82769,1,0,0:0:0:0:
86,53,82852,5,2,0:0:0:0:
87,69,82935,1,0,0:0:0:0:
88,86,83019,1,2,0:0:0:0:
89,102,83102,1,0,0:0:0:0:
90,118,83185,2,0,L|95:198,3,42.5,8|0|2|0,0:0|0:0|0:2|0:0,0:0:0:0:
168,207,83519,1,0,0:0:0:0:
167,223,83602,1,0,0:0:0:0:
166,240,83686,1,2,0:2:0:0:
165,256,83769,1,0,0:0:0:0:
164,272,83852,2,0,L|159:352,3,42.5,8|0|2|0,0:0|0:0|0:2|0:0,0:0:0:0:
236,384,84185,6,0,L|298:374,3,42.5,2|0|0|0,0:0|0:0|0:0|0:0,0:0:0:0:
343,319,84519,2,0,L|384:325,3,42.5,8|0|2|0,0:0|0:0|0:0|0:0,0:0:0:0:
491,245,84852,5,2,0:0:0:0:
465,223,84935,1,0,0:0:0:0:
432,213,85019,1,0,0:0:0:0:
398,215,85102,1,8,0:2:0:0:
365,224,85185,1,8,0:0:0:0:
336,242,85269,1,0,0:0:0:0:
304,254,85352,1,4,0:2:0:0:
270,254,85435,1,0,0:0:0:0:
239,238,85519,5,4,0:0:0:0:
243,221,85602,1,0,0:0:0:0:
247,204,85685,1,0,0:0:0:0:
250,187,85769,1,0,0:0:0:0:
253,170,85852,2,0,L|244:107,3,42.5,8|0|2|0,0:0|0:0|0:2|0:0,0:0:0:0:
336,112,86185,1,2,0:0:0:0:
332,95,86268,1,0,0:0:0:0:
328,78,86351,1,0,0:0:0:0:
325,61,86435,1,0,0:0:0:0:
322,44,86519,2,0,L|331:-19,3,42.5,10|0|0|0,0:0|0:0|0:0|0:0,0:0:0:0:
234,45,86852,6,0,L|164:61,3,42.5,4|0|0|0,0:0|0:0|0:0|0:0,0:0:0:0:
311,156,87185,2,0,L|381:172,3,42.5,8|0|2|0,0:0|0:0|0:2|0:0,0:0:0:0:
268,276,87519,5,2,0:0:0:0:
239,294,87602,1,0,0:0:0:0:
205,297,87685,1,0,0:0:0:0:
172,286,87769,1,0,0:0:0:0:
148,262,87852,1,10,0:0:0:0:
132,231,87935,1,0,0:0:0:0:
126,197,88019,1,0,0:0:0:0:
140,166,88102,1,0,0:0:0:0:
162,147,88185,5,4,0:0:0:0:
160,164,88269,1,0,0:0:0:0:
157,180,88352,1,0,0:0:0:0:
157,196,88435,1,0,0:0:0:0:
154,212,88519,2,0,L|210:204,3,42.5,8|0|2|0,0:0|0:0|0:0|0:0,0:0:0:0:
284,239,88852,1,4,0:0:0:0:
282,222,88936,1,0,0:0:0:0:
279,206,89019,1,0,0:0:0:0:
279,190,89102,1,0,0:0:0:0:
276,174,89186,2,0,L|332:182,3,42.5,8|0|2|0,0:0|0:0|0:0|0:0,0:0:0:0:
393,267,89519,5,4,0:0:0:0:
428,243,89602,1,0,0:0:0:0:
446,204,89685,1,0,0:0:0:0:
442,161,89769,1,8,0:2:0:0:
416,127,89852,1,8,0:0:0:0:
384,98,89935,1,0,0:0:0:0:
370,57,90019,1,2,0:0:0:0:
384,17,90102,1,0,0:0:0:0:
424,3,90185,5,4,0:0:0:0:
309,243,90352,1,4,0:2:0:0:
187,14,90519,1,12,0:0:0:0:
34,316,90852,5,4,0:0:0:0:
411,332,93185,5,4,1:2:0:0:
415,344,93519,1,4,1:0:0:0:
113,46,94852,6,0,P|111:100|107:136,1,76.4999976654053,4|0,1:0|0:0,0:0:0:0:
263,242,95185,2,0,P|265:188|269:152,1,76.4999976654053,4|0,1:2|0:0,0:0:0:0:
326,50,95519,1,4,1:0:0:0:
162,153,95685,1,2,1:2:0:0:
162,153,95769,1,0,1:0:0:0:
162,153,95852,1,0,1:0:0:0:
341,245,96019,2,0,L|379:248,2,25.4999992218018,8|8|8,1:3|1:3|1:3,0:0:0:0:
275,286,96185,6,0,P|234:279|181:278,1,76.4999976654053,4|2,1:0|0:0,0:0:0:0:
86,144,96519,2,0,P|124:146|161:152,1,76.4999976654053,0|2,1:0|0:0,0:0:0:0:
329,128,96852,2,2,P|367:130|404:136,1,76.4999976654053,4|0,1:2|0:0,0:0:0:0:
267,11,97186,2,0,P|229:4|191:2,1,76.4999976654053,0|4,1:0|0:2,0:0:0:0:
77,214,97519,5,4,1:2:0:0:
184,146,97685,1,0,0:0:0:0:
117,39,97852,1,4,1:2:0:0:
9,106,98019,1,2,0:0:0:0:
97,121,98185,5,4,1:2:0:0:
242,28,98352,1,0,1:0:0:0:
242,28,98435,1,0,1:0:0:0:
242,28,98519,2,0,L|249:82,3,38.2499988327027,2|0|4|0,1:2|1:0|1:2|0:0,0:0:0:0:
336,113,98852,6,0,P|327:157|320:201,1,76.4999976654053,4|2,1:0|0:0,0:0:0:0:
170,111,99185,2,0,P|179:155|186:199,1,76.4999976654053,0|2,1:0|0:0,0:0:0:0:
361,181,99519,2,0,P|352:225|345:269,1,76.4999976654053,4|2,1:0|0:0,0:0:0:0:
142,175,99852,2,0,P|151:219|158:263,1,76.4999976654053,0|4,1:0|0:0,0:0:0:0:
215,341,100185,5,4,1:0:0:0:
326,237,100352,1,2,0:0:0:0:
169,150,100519,1,4,1:0:0:0:
307,55,100685,1,2,0:0:0:0:
259,218,100852,5,4,1:0:0:0:
258,199,100935,1,8,0:3:0:0:
259,176,101019,2,0,L|260:138,2,25.4999992218018,4|8|8,1:3|1:3|1:3,0:0:0:0:
230,82,101185,2,0,P|230:18|235:-24,1,76.4999976654053,2|0,1:0|1:0,0:0:0:0:
361,58,101519,5,0,0:0:0:0:
262,159,101685,1,0,0:0:0:0:
262,159,101769,1,0,0:0:0:0:
262,159,101852,2,0,P|215:150|176:146,1,63.7500024318696,0|2,0:0|0:0,0:0:0:0:
319,278,102185,5,0,0:0:0:0:
418,177,102351,1,0,0:0:0:0:
418,177,102435,1,0,0:0:0:0:
418,177,102518,2,0,P|465:186|504:190,1,63.7500024318696,4|2,0:2|0:0,0:0:0:0:
319,278,102852,5,4,0:0:0:0:
218,179,103018,1,0,0:0:0:0:
218,179,103102,1,0,0:0:0:0:
218,179,103185,2,0,P|227:132|231:93,1,63.7500024318696,0|2,0:0|0:0,0:0:0:0:
167,16,103519,6,0,L|157:79,1,42.5,4|0,0:0|2:0,0:0:0:0:
308,153,103685,2,0,L|318:90,1,42.5,0|0,0:0|2:0,0:0:0:0:
252,37,103852,1,4,0:0:0:0:
252,37,103935,1,0,0:0:0:0:
252,37,104019,2,0,L|255:1,2,28.3333333333333,8|8|8,0:3|0:3|0:3,0:0:0:0:
340,32,104185,6,0,P|400:35|445:47,1,93.5000028533936,4|0,0:0|0:0,0:0:0:0:
479,97,104435,1,0,0:0:0:0:
488,133,104519,1,8,0:0:0:0:
474,167,104602,1,0,0:0:0:0:
449,195,104685,1,10,0:2:0:0:
443,232,104769,1,0,0:0:0:0:
453,267,104852,1,0,0:0:0:0:
378,362,105019,5,0,0:0:0:0:
364,357,105102,1,2,0:2:0:0:
348,352,105185,1,8,0:0:0:0:
267,272,105352,5,2,0:2:0:0:
239,280,105435,1,0,0:0:0:0:
215,288,105519,2,2,P|164:276|109:264,1,93.5000028533936,2|0,0:0|0:0,0:0:0:0:
47,36,105852,6,0,P|54:84|61:145,1,93.5000028533936,10|10,0:0|0:2,0:0:0:0:
13,192,106102,1,0,0:0:0:0:
54,208,106185,1,2,0:0:0:0:
99,194,106269,1,0,0:0:0:0:
131,161,106352,1,2,0:2:0:0:
173,141,106435,1,0,0:0:0:0:
219,147,106519,1,8,0:0:0:0:
420,283,106685,5,2,0:0:0:0:
429,260,106769,1,2,0:2:0:0:
436,241,106852,2,0,P|428:178|424:150,1,46.7500014266968,0|0,0:0|0:0,0:0:0:0:
440,101,107019,5,0,0:0:0:0:
396,117,107102,1,0,0:0:0:0:
349,112,107185,1,10,0:0:0:0:
308,87,107269,1,0,0:0:0:0:
279,50,107352,1,10,0:2:0:0:
235,33,107435,1,0,0:0:0:0:
189,44,107519,1,0,0:0:0:0:
121,193,107685,5,0,0:0:0:0:
140,210,107769,1,0,0:0:0:0:
154,226,107852,2,0,L|145:293,1,46.7500014266968,8|0,0:0|2:0,0:0:0:0:
265,180,108019,2,0,L|274:113,1,46.7500014266968,2|0,0:0|2:0,0:0:0:0:
362,297,108185,5,2,0:2:0:0:
362,297,108269,1,0,0:0:0:0:
362,297,108352,2,0,L|426:310,1,46.7500014266968,0|0,0:0|2:0,0:0:0:0:
506,200,108519,2,0,P|461:186|389:194,1,93.5000028533936,10|10,0:0|0:2,0:0:0:0:
339,215,108769,1,0,0:0:0:0:
339,215,108852,2,0,L|324:155,1,46.7500014266968,2|0,0:0|2:0,0:0:0:0:
258,278,109019,2,0,L|218:247,1,46.7500014266968,0|0,0:0|2:0,0:0:0:0:
242,376,109185,2,0,L|127:382,1,93.5000028533936,10|0,0:0|0:0,0:0:0:0:
17,220,109519,6,0,L|132:214,1,93.5000028533936,0|0,0:0|0:0,0:0:0:0:
170,266,109769,1,0,0:0:0:0:
182,230,109852,1,8,0:0:0:0:
182,192,109935,1,0,0:0:0:0:
171,155,110019,1,8,0:2:0:0:
171,117,110102,1,0,0:0:0:0:
190,86,110185,6,0,P|221:85|271:83,1,46.7500014266968,2|0,0:2|2:0,0:0:0:0:
352,179,110352,2,0,P|321:180|271:182,1,46.7500014266968,0|0,0:0|2:0,0:0:0:0:
331,40,110519,1,8,0:0:0:0:
331,40,110602,1,0,0:0:0:0:
331,40,110685,2,0,P|330:78|333:118,1,46.7500014266968,2|0,0:2|2:0,0:0:0:0:
467,166,110852,6,0,P|471:108|467:50,1,93.5000028533936,2|2,0:0|0:2,0:0:0:0:
289,213,111185,2,0,P|285:271|289:329,1,93.5000028533936,10|8,0:0|0:2,0:0:0:0:
512,347,111519,5,2,0:0:0:0:
475,329,111602,1,0,0:0:0:0:
429,325,111685,1,0,0:0:0:0:
386,340,111769,1,0,0:0:0:0:
353,356,111852,1,10,0:0:0:0:
320,377,111935,1,0,0:0:0:0:
286,383,112019,1,2,0:2:0:0:
258,381,112102,1,0,0:0:0:0:
239,371,112185,5,0,0:0:0:0:
102,220,112352,1,0,0:0:0:0:
120,217,112435,1,0,0:0:0:0:
138,215,112519,1,8,0:0:0:0:
272,76,112685,1,8,0:2:0:0:
289,292,112852,1,2,0:0:0:0:
69,306,113019,6,0,L|32:309,2,31.1666676177979,8|8|8,0:3|0:3|0:3,0:0:0:0:
130,264,113185,5,8,0:0:0:0:
116,49,113352,1,4,0:3:0:0:
219,151,113519,5,2,0:0:0:0:
226,162,113602,1,0,0:0:0:0:
239,173,113685,1,0,0:0:0:0:
259,179,113769,1,0,0:0:0:0:
291,181,113852,1,8,0:0:0:0:
323,168,113935,1,0,0:0:0:0:
360,142,114019,1,0,0:0:0:0:
412,142,114102,1,0,0:0:0:0:
456,176,114185,5,2,0:2:0:0:
463,234,114269,1,0,0:0:0:0:
440,278,114352,1,0,0:0:0:0:
403,299,114435,1,0,0:0:0:0:
364,302,114519,1,8,0:0:0:0:
338,292,114602,1,0,0:0:0:0:
315,274,114685,1,4,0:3:0:0:
292,263,114769,1,0,0:0:0:0:
266,262,114852,6,0,P|269:317|262:382,1,93.5000028533936,4|0,0:0|0:0,0:0:0:0:
194,366,115102,1,0,0:0:0:0:
158,354,115185,1,8,0:0:0:0:
120,358,115269,1,0,0:0:0:0:
86,373,115352,1,8,0:2:0:0:
48,376,115435,1,0,0:0:0:0:
11,365,115519,1,0,0:0:0:0:
112,236,115685,5,0,0:0:0:0:
109,216,115769,1,0,0:0:0:0:
107,194,115852,1,8,0:0:0:0:
281,179,116019,5,2,0:2:0:0:
278,143,116103,1,0,0:0:0:0:
275,107,116185,2,0,P|332:112|401:98,1,93.5000028533936,2|0,0:0|0:0,0:0:0:0:
434,377,116519,6,0,P|430:312|435:259,1,93.5000028533936,8|8,0:0|0:2,0:0:0:0:
470,218,116769,1,0,0:0:0:0:
485,174,116852,1,2,0:0:0:0:
479,127,116935,1,0,0:0:0:0:
447,92,117019,1,0,0:0:0:0:
400,85,117102,1,0,0:0:0:0:
357,104,117185,1,8,0:0:0:0:
237,218,117353,5,2,0:0:0:0:
227,233,117436,1,0,0:0:0:0:
219,245,117519,2,0,L|231:310,1,46.7500014266968,2|0,0:0|2:0,0:0:0:0:
166,363,117685,5,2,0:0:0:0:
123,382,117768,1,0,0:0:0:0:
76,375,117851,1,8,0:0:0:0:
44,340,117935,1,0,0:0:0:0:
38,293,118018,1,8,0:2:0:0:
54,251,118101,1,0,0:0:0:0:
93,231,118185,1,2,0:0:0:0:
322,334,118352,5,2,0:2:0:0:
330,321,118435,1,0,0:0:0:0:
340,307,118519,2,0,L|412:320,1,46.7500014266968,10|0,0:0|2:0,0:0:0:0:
476,214,118685,2,0,L|429:205,1,46.7500014266968,2|0,0:2|2:0,0:0:0:0:
332,100,118852,5,2,0:0:0:0:
332,100,118935,1,0,0:0:0:0:
332,100,119018,2,0,L|319:187,1,46.7500014266968,0|0,0:0|2:0,0:0:0:0:
183,265,119185,2,0,P|191:206|199:156,1,93.5000028533936,8|2,0:0|0:0,0:0:0:0:
144,85,119435,1,0,0:0:0:0:
144,85,119519,2,0,L|96:77,1,46.7500014266968,0|0,0:0|2:0,0:0:0:0:
279,137,119685,2,0,L|351:150,1,46.7500014266968,6|0,0:0|2:0,0:0:0:0:
146,215,119852,2,0,P|101:207|44:193,1,93.5000028533936,8|0,0:0|0:0,0:0:0:0:
241,335,120185,6,0,P|286:343|343:357,1,93.5000028533936,0|0,0:0|0:0,0:0:0:0:
404,326,120435,1,0,0:0:0:0:
423,293,120519,1,8,0:0:0:0:
429,256,120602,1,0,0:0:0:0:
421,219,120685,1,8,0:2:0:0:
419,181,120769,1,0,0:0:0:0:
421,146,120852,6,0,P|378:152|345:158,1,46.7500014266968,2|0,0:0|2:0,0:0:0:0:
261,33,121019,2,0,P|304:39|337:45,1,46.7500014266968,0|0,1:0|2:0,0:0:0:0:
209,147,121185,1,8,0:0:0:0:
209,147,121269,1,0,0:0:0:0:
209,147,121352,2,0,P|166:141|133:135,1,46.7500014266968,2|0,0:2|2:0,0:0:0:0:
59,34,121519,6,2,P|51:97|51:154,1,93.5000028533936,2|0,0:0|0:0,0:0:0:0:
156,328,121852,2,0,P|164:265|164:208,1,93.5000028533936,8|8,0:0|0:2,0:0:0:0:
262,99,122185,1,2,0:0:0:0:
309,88,122269,1,0,0:0:0:0:
357,105,122352,1,0,0:0:0:0:
386,146,122435,1,0,0:0:0:0:
387,185,122519,1,10,0:0:0:0:
369,220,122602,1,0,0:0:0:0:
363,249,122685,1,2,0:2:0:0:
370,273,122769,1,0,0:0:0:0:
383,290,122852,6,0,P|344:299|312:309,1,46.7500014266968,0|0,0:0|2:0,0:0:0:0:
146,239,123019,2,0,P|185:248|217:258,1,46.7500014266968,0|0,0:0|2:0,0:0:0:0:
322,145,123185,1,8,0:0:0:0:
246,351,123352,1,8,0:2:0:0:
160,96,123519,5,2,0:0:0:0:
122,98,123602,1,0,0:0:0:0:
92,120,123685,1,8,0:3:0:0:
80,155,123769,1,8,0:3:0:0:
85,189,123852,2,0,L|103:260,1,46.7500014266968,8|0,0:0|2:0,0:0:0:0:
235,106,124019,2,0,L|246:60,1,46.7500014266968,2|0,0:2|2:0,0:0:0:0:
413,151,124185,5,6,0:0:0:0:
449,190,124269,1,0,0:0:0:0:
457,246,124352,1,0,0:0:0:0:
435,288,124435,1,0,0:0:0:0:
402,311,124519,1,8,0:0:0:0:
362,316,124602,1,0,0:0:0:0:
336,309,124685,1,10,0:2:0:0:
311,290,124769,1,0,0:0:0:0:
303,267,124852,6,0,L|362:257,1,46.7500014266968,4|0,0:2|2:0,0:0:0:0:
495,197,125019,2,0,L|436:187,1,46.7500014266968,0|0,0:0|2:0,0:0:0:0:
292,104,125185,2,0,L|351:94,1,46.7500014266968,8|0,0:0|2:0,0:0:0:0:
457,44,125352,2,0,L|463:-2,2,31.1666676177979,2|8|4,0:0|0:3|0:3,0:0:0:0:
412,123,125519,6,0,P|425:193|430:239,1,93.5000028533936,4|0,0:0|0:0,0:0:0:0:
484,273,125769,1,0,0:0:0:0:
484,273,125852,2,0,P|471:343|466:389,1,93.5000028533936,8|0,0:0|0:0,0:0:0:0:
252,98,126185,1,0,0:0:0:0:
479,189,126352,1,2,0:2:0:0:
266,288,126519,1,8,0:0:0:0:
347,61,126685,1,2,0:2:0:0:
386,278,126852,6,0,P|317:261|258:259,1,93.5000028533936,0|0,0:0|0:0,0:0:0:0:
236,198,127102,1,0,0:0:0:0:
236,198,127185,2,0,P|191:210|144:217,1,93.5000028533936,8|0,0:0|0:0,0:0:0:0:
7,109,127519,1,0,0:0:0:0:
110,327,127685,1,2,0:2:0:0:
266,77,127852,1,8,0:0:0:0:
223,57,127935,1,0,0:0:0:0:
176,64,128019,1,0,0:0:0:0:
143,96,128102,1,0,0:0:0:0:
136,142,128185,6,0,P|121:71|110:22,1,93.5000028533936,0|0,0:0|0:0,0:0:0:0:
27,0,128435,1,0,0:0:0:0:
27,0,128519,2,0,P|17:45|7:91,1,93.5000028533936,8|0,0:0|0:0,0:0:0:0:
80,300,128852,1,0,0:0:0:0:
228,72,129019,1,2,0:2:0:0:
291,349,129185,1,8,0:0:0:0:
112,140,129352,1,2,0:2:0:0:
21,356,129519,6,0,P|81:344|140:338,1,93.5000028533936,0|0,0:0|0:0,0:0:0:0:
172,273,129769,1,0,0:0:0:0:
172,273,129852,2,0,P|218:279|264:288,1,93.5000028533936,8|0,0:0|0:0,0:0:0:0:
417,365,130185,2,0,L|431:290,1,46.7500014266968,2|0,0:0|2:0,0:0:0:0:
405,150,130352,2,0,L|413:195,1,46.7500014266968,0|0,0:0|2:0,0:0:0:0:
246,358,130519,1,12,0:0:0:0:
287,181,130685,1,0,0:0:0:0:
134,362,130852,5,4,0:0:0:0:
62,135,131019,1,0,0:0:0:0:
62,135,131102,1,0,0:0:0:0:
62,135,131185,2,0,P|70:72|76:18,1,93.5000028533936,8|0,0:0|0:0,0:0:0:0:
265,280,131519,1,0,0:0:0:0:
181,71,131685,1,2,0:2:0:0:
120,290,131852,1,8,0:0:0:0:
275,126,132019,1,2,0:2:0:0:
414,310,132185,5,0,0:0:0:0:
316,40,132352,1,0,0:0:0:0:
316,40,132435,1,0,0:0:0:0:
316,40,132519,2,0,P|308:103|302:157,1,93.5000028533936,8|0,0:0|0:0,0:0:0:0:
223,330,132852,1,0,0:0:0:0:
425,215,133019,1,2,0:2:0:0:
179,56,133185,1,8,0:0:0:0:
150,95,133269,1,0,0:0:0:0:
150,142,133352,1,0,0:0:0:0:
169,186,133435,1,0,0:0:0:0:
201,214,133519,5,2,0:0:0:0:
353,63,133685,1,0,0:0:0:0:
353,63,133769,1,0,0:0:0:0:
353,63,133852,2,0,P|282:48|221:36,1,93.5000028533936,10|0,0:0|0:0,0:0:0:0:
72,141,134185,1,4,0:0:0:0:
277,273,134352,2,0,L|324:268,2,31.1666676177979,8|8|8,0:3|0:3|0:3,0:0:0:0:
173,289,134519,5,8,0:0:0:0:
371,155,134685,1,2,0:0:0:0:
94,51,134852,5,4,0:0:0:0:
112,344,135185,1,4,0:0:0:0:
405,326,135519,1,4,0:0:0:0:
387,33,135852,1,4,0:0:0:0:
245,35,136185,5,4,0:0:0:0:
406,177,136352,1,4,0:2:0:0:
263,338,136519,1,4,0:0:0:0:
102,196,136685,1,4,0:2:0:0:
102,196,136769,1,0,0:0:0:0:
102,196,136852,6,2,B|219:156|184:270|313:212,1,191.250007295609,4|0,0:0|0:0,0:0:0:0:
287,230,137185,1,4,0:0:0:0:
