osu file format v14

[General]
AudioFilename: audio.mp3
AudioLeadIn: 0
PreviewTime: 42519
Countdown: 0
SampleSet: Normal
StackLeniency: 0.7
Mode: 0
LetterboxInBreaks: 0
WidescreenStoryboard: 0

[Editor]
DistanceSpacing: 1
BeatDivisor: 4
GridSize: 4
TimelineZoom: 2.699999

[Metadata]
Title:BSPower Explosion
TitleUnicode:BSPower Explosion
Artist:Memme
ArtistUnicode:Memme
Creator:PandaHero
Version:Expert
Source:O2Jam Analog
Tags:electronic instrumental oriental core piu pump it up prime 2 o2 jam rhythm video game music saltylucario salty saltking kujinn reform owc2020 owc 2020 ro32 fm1 parkmemme
BeatmapID:2681313
BeatmapSetID:1096818

[Difficulty]
HPDrainRate:6
CircleSize:4
OverallDifficulty:8.8
ApproachRate:9.3
SliderMultiplier:1.4
SliderTickRate:1

[Events]
//Background and Video events
0,0,"1.jpg",0,0
//Break Periods
//Storyboard Layer 0 (Background)
//Storyboard Layer 1 (Fail)
//Storyboard Layer 2 (Pass)
//Storyboard Layer 3 (Foreground)
//Storyboard Layer 4 (Overlay)
//Storyboard Sound Samples

[TimingPoints]
186,333.333333333333,4,1,0,70,1,0
10852,-100,4,2,0,65,0,0
21519,-83.3333333333333,4,1,0,70,0,1
21602,-83.3333333333333,4,1,0,70,0,0
22185,-83.3333333333333,4,1,0,70,0,1
22269,-83.3333333333333,4,1,0,70,0,0
22852,-83.3333333333333,4,1,0,70,0,1
23852,-83.3333333333333,4,1,0,70,0,0
24185,-100,4,2,0,65,0,0
26852,-83.3333333333333,4,1,0,70,0,1
26935,-83.3333333333333,4,1,0,70,0,0
27519,-83.3333333333333,4,1,0,70,0,1
27602,-83.3333333333333,4,1,0,70,0,0
28185,-83.3333333333333,4,1,0,70,0,1
29185,-83.3333333333333,4,1,0,70,0,0
29519,-100,4,2,0,65,0,0
42852,-83.3333333333333,4,1,0,70,0,0
53519,-83.3333333333333,4,1,0,55,0,0
58852,-83.3333333333333,4,1,0,75,0,0
69519,-83.3333333333333,4,1,0,70,0,0
90852,-200,4,2,0,60,0,0
96185,-100,4,2,0,65,0,0
101519,-100,4,1,0,65,0,0
104185,-71.4285714285714,4,1,0,75,0,1
125519,-71.4285714285714,4,1,0,70,0,0
130852,-71.4285714285714,4,1,0,70,0,1
136185,-55.5555555555556,4,1,0,70,0,1
137185,-71.4285714285714,4,1,0,65,0,0
137269,-71.4285714285714,4,2,0,35,0,0
138019,-71.4285714285714,4,2,0,25,0,0
138519,-71.4285714285714,4,2,0,15,0,0
138852,-71.4285714285714,4,2,0,5,0,0

[Colours]
Combo1 : 58,186,119
Combo2 : 73,164,171
Combo3 : 171,73,73
Combo4 : 181,117,64

[HitObjects]
46,158,186,5,4,0:0:0:0:
115,79,352,1,0,0:0:0:0:
115,79,435,1,0,0:0:0:0:
115,79,519,2,0,L|200:79,1,70,8|4,0:0|0:2,0:0:0:0:
56,179,852,2,0,L|70:264,1,70
173,205,1185,2,0,L|265:214,1,70,8|0,0:0|0:0,0:0:0:0:
427,343,1519,5,4,0:0:0:0:
394,330,1602,1,0,0:0:0:0:
359,323,1685,1,0,0:0:0:0:
323,324,1769,1,0,0:0:0:0:
289,331,1852,1,8,0:0:0:0:
184,365,2019,1,4,0:2:0:0:
239,109,2185,5,0,0:0:0:0:
188,255,2352,1,0,0:0:0:0:
47,214,2519,1,4,0:0:0:0:
47,214,2852,5,4,0:0:0:0:
51,179,2935,1,0,0:0:0:0:
54,143,3019,1,0,0:0:0:0:
58,108,3102,1,0,0:0:0:0:
61,73,3185,1,8,0:0:0:0:
171,22,3352,5,0,0:0:0:0:
287,120,3519,1,4,0:0:0:0:
148,191,3685,1,0,0:0:0:0:
148,191,3769,1,0,0:0:0:0:
148,191,3852,1,8,0:0:0:0:
193,111,4019,1,0,0:0:0:0:
289,199,4185,5,4,0:0:0:0:
280,233,4269,1,0,0:0:0:0:
273,267,4352,1,0,0:0:0:0:
269,301,4435,1,0,0:0:0:0:
261,335,4519,1,8,0:0:0:0:
168,286,4685,1,0,0:0:0:0:
359,279,4852,2,0,L|442:268,1,70,4|8,0:2|0:2,0:0:0:0:
489,176,5185,2,0,B|437:186|437:186|388:151,1,105,4|0,0:2|0:0,0:0:0:0:
359,128,5519,5,4,0:0:0:0:
190,149,5685,1,0,0:0:0:0:
281,205,5852,1,8,0:0:0:0:
190,149,6019,1,4,0:2:0:0:
202,316,6185,2,0,L|199:213,1,70
263,27,6519,2,0,L|265:114,1,70,8|0,0:0|0:0,0:0:0:0:
33,317,6852,5,4,0:0:0:0:
33,282,6935,1,0,0:0:0:0:
40,247,7019,1,0,0:0:0:0:
48,213,7102,1,0,0:0:0:0:
65,182,7185,1,8,0:0:0:0:
172,160,7352,1,4,0:2:0:0:
361,346,7519,5,0,0:0:0:0:
262,255,7685,1,0,0:2:0:0:
159,349,7852,1,4,0:0:0:0:
338,188,8185,5,4,0:0:0:0:
307,169,8269,1,0,0:0:0:0:
273,159,8352,1,0,0:0:0:0:
238,161,8435,1,0,0:0:0:0:
203,169,8519,1,8,0:0:0:0:
105,219,8685,1,4,0:2:0:0:
140,90,8852,1,0,0:0:0:0:
278,59,9019,1,0,0:0:0:0:
278,59,9102,1,0,0:0:0:0:
278,59,9185,1,8,0:0:0:0:
124,58,9352,1,0,0:0:0:0:
402,113,9519,5,4,0:0:0:0:
379,128,9602,1,0,0:0:0:0:
367,153,9685,1,0,0:0:0:0:
367,181,9769,1,0,0:0:0:0:
386,222,9852,5,8,0:0:0:0:
342,233,9935,1,0,0:0:0:0:
305,260,10019,1,0,0:0:0:0:
285,301,10102,1,0,0:0:0:0:
295,344,10185,6,0,L|346:332,3,35,2|0|0|0,0:0|0:0|0:0|0:0,0:0:0:0:
197,293,10519,2,0,L|136:309,3,35,10|0|0|0,0:0|0:0|0:0|0:0,0:0:0:0:
382,275,10852,5,4,1:0:0:0:
274,173,11019,1,0,1:0:0:0:
274,173,11102,1,0,1:0:0:0:
274,173,11185,1,8,1:0:0:0:
331,268,11352,1,2,0:0:0:0:
399,145,11519,2,0,L|399:46,1,70,0|2,1:0|0:0,0:0:0:0:
495,178,11852,2,0,P|488:209|485:260,1,70,8|2,1:0|0:0,0:0:0:0:
248,201,12185,5,0,1:0:0:0:
340,252,12352,1,0,1:0:0:0:
340,252,12435,1,0,1:0:0:0:
340,252,12519,1,8,1:0:0:0:
256,119,12685,1,2,0:0:0:0:
183,266,12852,2,0,L|208:362,1,70,0|2,1:0|0:0,0:0:0:0:
119,197,13185,1,8,1:0:0:0:
104,157,13269,1,0,1:0:0:0:
90,117,13352,1,0,1:0:0:0:
71,79,13435,1,0,1:0:0:0:
55,39,13519,1,0,1:0:0:0:
15,167,13685,5,0,1:0:0:0:
23,188,13769,1,0,1:0:0:0:
33,211,13852,1,8,1:0:0:0:
69,310,14019,1,2,0:0:0:0:
192,187,14185,1,0,1:0:0:0:
166,273,14352,1,2,0:0:0:0:
234,70,14519,1,8,1:0:0:0:
145,76,14685,1,2,0:0:0:0:
361,180,14852,1,0,1:0:0:0:
277,205,15019,1,0,1:0:0:0:
277,205,15102,1,0,1:0:0:0:
277,205,15185,1,8,1:0:0:0:
452,182,15352,1,2,0:0:0:0:
312,77,15519,6,0,L|267:46,3,35,2|0|0|0,1:0|0:0|0:0|0:0,0:0:0:0:
378,128,15852,2,0,L|429:105,3,35,12|0|0|0,1:0|0:0|0:0|0:0,0:0:0:0:
267,181,16185,5,0,1:0:0:0:
283,275,16352,1,0,1:0:0:0:
283,275,16435,1,0,1:0:0:0:
283,275,16519,1,8,1:0:0:0:
181,228,16685,1,2,0:0:0:0:
369,322,16852,1,0,1:0:0:0:
324,200,17019,1,2,0:0:0:0:
178,337,17185,1,8,1:0:0:0:
271,285,17352,1,2,0:0:0:0:
55,303,17519,5,0,1:0:0:0:
125,229,17685,1,0,1:0:0:0:
125,229,17769,1,0,1:0:0:0:
125,229,17852,1,8,1:0:0:0:
143,313,18019,1,2,0:0:0:0:
26,191,18185,2,0,L|35:94,1,70,0|2,1:0|0:0,0:0:0:0:
170,44,18519,5,8,1:0:0:0:
211,40,18602,1,0,1:0:0:0:
252,44,18685,1,0,1:0:0:0:
292,55,18769,1,0,1:0:0:0:
318,87,18852,1,0,1:0:0:0:
482,238,19019,1,0,1:0:0:0:
441,246,19102,1,0,1:0:0:0:
399,243,19185,1,8,1:0:0:0:
264,226,19352,1,2,0:0:0:0:
341,155,19519,5,0,1:0:0:0:
272,348,19685,1,8,1:3:0:0:
272,348,19741,1,8,1:3:0:0:
272,348,19797,1,8,1:3:0:0:
272,348,19852,1,8,1:0:0:0:
140,198,20019,1,4,0:3:0:0:
260,234,20185,5,0,1:0:0:0:
255,232,20519,5,0,1:0:0:0:
260,234,20852,5,0,1:0:0:0:
267,234,21185,5,8,1:0:0:0:
96,354,21519,6,0,L|115:180,1,167.999994873047,4|0,0:0|0:0,0:0:0:0:
201,368,22019,1,0,0:0:0:0:
416,30,22185,6,0,L|398:197,1,167.999994873047,4|0,0:0|0:0,0:0:0:0:
311,16,22685,1,0,0:0:0:0:
98,348,22852,6,0,L|104:252,1,83.9999974365235,4|0,0:0|0:0,0:0:0:0:
182,240,23102,1,0,0:0:0:0:
182,240,23185,2,0,L|179:326,1,83.9999974365235,4|0,0:2|0:0,0:0:0:0:
282,360,23519,2,0,L|276:189,1,167.999994873047,4|2,0:0|0:0,0:0:0:0:
172,138,24019,1,0,0:0:0:0:
390,15,24185,6,0,P|440:52|456:135,1,140,6|8,1:0|1:0,0:0:0:0:
348,196,24685,1,2,0:0:0:0:
260,131,24852,1,0,1:0:0:0:
311,39,25019,2,0,L|300:-2,2,23.3333333333333,2|2|0,1:2|1:2|1:2,1:2:0:0:
321,69,25185,1,8,1:0:0:0:
362,163,25352,1,2,0:0:0:0:
154,165,25519,5,0,1:0:0:0:
117,280,25685,1,0,1:0:0:0:
117,280,25769,1,0,1:0:0:0:
117,280,25852,1,8,1:0:0:0:
230,296,26019,1,2,0:0:0:0:
279,188,26185,1,0,1:0:0:0:
92,92,26352,1,8,1:3:0:0:
92,92,26408,1,8,1:3:0:0:
92,92,26463,1,8,1:3:0:0:
92,92,26519,1,8,1:0:0:0:
134,186,26685,1,4,1:3:0:0:
327,53,26852,6,0,L|502:48,1,167.999994873047,4|0,0:0|0:0,0:0:0:0:
250,117,27352,1,0,0:0:0:0:
187,299,27519,6,0,L|12:303,1,167.999994873047,4|0,0:0|0:0,0:0:0:0:
264,235,28019,1,0,0:0:0:0:
341,145,28185,6,0,L|436:145,1,83.9999974365235,4|0,0:0|0:0,0:0:0:0:
222,40,28435,1,0,0:0:0:0:
222,40,28519,2,0,L|123:42,1,83.9999974365235,4|0,0:2|0:0,0:0:0:0:
310,15,28852,1,4,0:0:0:0:
303,238,29185,5,2,0:0:0:0:
229,326,29352,1,0,0:0:0:0:
189,222,29519,1,6,1:0:0:0:
415,340,29685,6,0,L|501:360,1,70,2|8,0:0|1:0,0:0:0:0:
425,235,30019,1,2,0:0:0:0:
334,205,30185,1,0,1:0:0:0:
218,328,30352,2,0,L|203:296,2,23.3333333333333,2|2|0,1:2|1:2|1:0,1:0:0:0:
241,351,30519,2,0,L|317:339,1,70,8|2,1:0|0:0,0:0:0:0:
142,263,30852,5,0,1:0:0:0:
62,327,31019,1,0,1:0:0:0:
62,327,31102,1,0,1:0:0:0:
62,327,31185,1,8,1:0:0:0:
145,350,31352,1,4,0:0:0:0:
102,157,31519,1,0,1:0:0:0:
199,201,31685,1,8,1:3:0:0:
199,201,31741,1,8,1:3:0:0:
198,201,31797,1,8,1:3:0:0:
198,201,31852,2,0,L|178:280,1,70,8|4,1:0|0:3,0:0:0:0:
19,67,32185,6,0,L|27:151,2,70,4|8|8,1:0|0:2|1:2,0:0:0:0:
128,27,32685,1,2,1:2:0:0:
128,27,32852,2,0,L|117:105,2,70,0|8|8,1:0|0:2|1:0,0:0:0:0:
221,106,33352,1,2,1:2:0:0:
221,106,33519,2,0,L|197:186,1,70,0|2,1:0|0:0,0:0:0:0:
317,86,33852,2,0,L|327:12,1,70,8|2,1:0|0:0,0:0:0:0:
342,204,34185,2,2,L|485:185,1,140,0|8,1:0|1:0,0:1:0:0:
264,264,34685,5,2,0:0:0:0:
327,359,34852,2,2,L|166:345,1,140,0|8,1:0|1:0,0:1:0:0:
295,148,35352,1,8,1:2:0:0:
277,242,35519,1,2,1:2:0:0:
163,107,35685,2,0,L|118:114,2,23.3333333333333,2|2|0,1:2|1:2|1:2,1:2:0:0:
185,82,35852,6,0,L|186:-2,1,70,8|8,1:0|1:2,0:0:0:0:
148,191,36185,1,0,1:0:0:0:
247,231,36352,1,0,1:0:0:0:
247,231,36435,1,0,1:0:0:0:
247,231,36519,1,8,1:0:0:0:
381,159,36685,1,2,0:0:0:0:
289,122,36852,1,0,1:0:0:0:
291,347,37019,1,0,1:0:0:0:
291,347,37102,1,0,1:0:0:0:
291,347,37185,1,8,1:0:0:0:
367,285,37352,1,4,1:3:0:0:
211,229,37519,6,0,P|175:279|194:370,1,140,4|8,1:0|1:0,0:0:0:0:
289,188,38019,1,2,1:2:0:0:
202,131,38185,2,0,P|145:137|94:206,1,140,4|8,1:0|1:0,0:0:0:0:
297,103,38685,1,2,1:2:0:0:
197,23,38852,1,0,1:0:0:0:
296,77,39019,1,2,0:0:0:0:
406,51,39185,1,8,1:0:0:0:
314,0,39352,1,2,1:2:0:0:
208,170,39519,6,2,B|231:201|231:201|217:260,1,70,2|2,1:0|0:0,0:1:0:0:
340,344,39852,2,2,B|317:313|317:313|331:254,1,70,10|2,1:0|1:2,0:1:0:0:
105,333,40185,5,4,1:0:0:0:
206,355,40352,1,0,1:0:0:0:
206,355,40435,1,0,1:0:0:0:
206,355,40519,1,8,1:0:0:0:
63,242,40685,1,2,0:0:0:0:
161,254,40852,1,4,1:0:0:0:
295,157,41019,1,8,0:3:0:0:
295,157,41074,1,8,0:3:0:0:
295,157,41130,1,8,0:3:0:0:
295,157,41185,2,0,L|213:156,1,70,8|4,1:0|0:3,0:0:0:0:
386,23,41519,6,0,L|459:29,1,70,4|0,1:2|0:0,0:0:0:0:
489,56,41769,1,0,1:0:0:0:
489,56,41852,2,0,L|477:139,1,70,4|0,1:2|0:0,0:0:0:0:
468,159,42102,1,0,1:0:0:0:
468,159,42185,2,0,L|374:143,1,70,4|0,1:2|0:0,0:0:0:0:
286,333,42519,1,0,1:0:0:0:
344,235,42685,1,4,1:2:0:0:
156,339,42852,5,4,0:0:0:0:
123,344,42935,1,0,0:0:0:0:
89,342,43019,1,0,0:0:0:0:
57,330,43102,1,0,0:0:0:0:
38,301,43185,1,8,0:0:0:0:
34,267,43269,1,0,0:0:0:0:
41,234,43352,1,2,0:2:0:0:
63,209,43435,1,0,0:0:0:0:
95,198,43519,1,0,0:0:0:0:
128,195,43602,1,0,0:0:0:0:
161,191,43685,1,2,0:2:0:0:
191,175,43769,1,0,0:0:0:0:
207,145,43852,1,8,0:0:0:0:
201,112,43935,1,0,0:0:0:0:
183,83,44019,1,2,0:2:0:0:
151,71,44102,1,0,0:0:0:0:
117,69,44185,6,0,L|46:74,3,41.9999987182618
216,12,44519,2,0,L|141:21,3,41.9999987182618,8|0|2|0,0:0|0:0|0:2|0:0,0:0:0:0:
245,111,44852,2,0,L|176:118,3,41.9999987182618,2|0|0|0,0:0|0:0|0:0|0:0,0:0:0:0:
348,52,45185,2,0,L|277:57,3,41.9999987182618,8|0|2|0,0:0|0:0|0:0|0:0,0:0:0:0:
485,152,45519,5,4,0:2:0:0:
480,185,45602,1,0,0:0:0:0:
475,218,45685,1,0,0:0:0:0:
469,251,45769,1,0,0:0:0:0:
465,284,45852,1,8,0:0:0:0:
337,352,46019,1,2,0:2:0:0:
278,224,46185,5,0,0:0:0:0:
357,50,46352,1,2,0:2:0:0:
351,83,46435,1,0,0:0:0:0:
347,122,46519,1,8,0:0:0:0:
217,116,46685,1,2,0:2:0:0:
12,282,46852,5,0,0:0:0:0:
42,264,46935,1,0,0:0:0:0:
75,252,47019,1,0,0:0:0:0:
109,250,47102,1,0,0:0:0:0:
143,253,47185,1,8,0:0:0:0:
172,272,47269,1,0,0:0:0:0:
201,290,47352,1,2,0:2:0:0:
231,308,47435,1,0,0:0:0:0:
262,323,47519,2,0,P|311:340|355:345,1,83.9999974365235,10|0,0:0|0:0,0:0:0:0:
426,351,47769,5,8,0:2:0:0:
426,351,47852,1,8,0:0:0:0:
333,111,48019,1,6,0:0:0:0:
454,132,48185,5,4,0:0:0:0:
441,172,48269,1,0,0:0:0:0:
411,201,48352,1,0,0:0:0:0:
370,209,48435,1,0,0:0:0:0:
327,207,48519,1,8,0:0:0:0:
226,118,48685,1,2,0:2:0:0:
261,15,48852,2,0,L|325:20,3,41.9999987182618,2|0|0|0,0:0|0:0|0:0|0:0,0:0:0:0:
139,70,49185,2,0,L|79:66,3,41.9999987182618,10|0|0|0,0:0|0:0|0:0|0:0,0:0:0:0:
157,164,49519,5,4,0:0:0:0:
184,195,49602,1,0,0:0:0:0:
201,233,49685,1,0,0:0:0:0:
194,274,49769,1,0,0:0:0:0:
180,313,49852,1,8,0:0:0:0:
147,338,49935,1,0,0:0:0:0:
105,347,50019,1,2,0:2:0:0:
64,337,50102,1,0,0:0:0:0:
26,318,50185,2,0,L|38:251,3,41.9999987182618,2|0|0|0,0:0|0:0|0:0|0:0,0:0:0:0:
114,207,50519,2,0,L|126:274,3,41.9999987182618,10|0|2|0,0:0|0:0|0:2|0:0,0:0:0:0:
187,162,50852,5,4,0:0:0:0:
228,159,50935,1,0,0:0:0:0:
266,177,51019,1,0,0:0:0:0:
295,206,51102,1,0,0:0:0:0:
322,237,51185,1,8,0:0:0:0:
359,257,51269,1,0,0:0:0:0:
400,264,51352,1,2,0:2:0:0:
438,246,51435,1,0,0:0:0:0:
478,232,51519,5,4,0:0:0:0:
453,198,51602,1,0,0:0:0:0:
456,153,51685,1,0,0:0:0:0:
418,134,51769,1,0,0:0:0:0:
395,99,51852,5,8,0:0:0:0:
354,109,51935,1,0,0:0:0:0:
311,105,52019,1,2,0:2:0:0:
280,75,52102,1,0,0:0:0:0:
283,33,52185,5,4,0:0:0:0:
175,268,52435,1,0,0:2:0:0:
175,268,52519,1,8,0:0:0:0:
184,164,52685,1,2,0:2:0:0:
221,365,52852,5,2,0:0:0:0:
274,193,53019,1,2,0:2:0:0:
80,248,53185,1,2,0:0:0:0:
450,352,53519,5,4,0:2:0:0:
354,344,53685,1,0,0:0:0:0:
354,344,53769,1,0,0:0:0:0:
354,344,53852,1,8,0:0:0:0:
444,312,54019,1,8,0:2:0:0:
291,208,54185,5,0,0:0:0:0:
195,216,54351,1,0,0:0:0:0:
195,216,54435,1,0,0:0:0:0:
195,216,54518,1,8,0:0:0:0:
285,248,54685,1,8,0:2:0:0:
385,115,54852,5,0,0:0:0:0:
490,181,55018,1,0,0:0:0:0:
490,181,55102,1,0,0:0:0:0:
490,181,55185,1,8,0:0:0:0:
368,151,55352,1,8,0:2:0:0:
311,29,55519,5,0,0:0:0:0:
205,109,55685,1,0,0:0:0:0:
205,109,55769,1,0,0:0:0:0:
205,109,55852,1,8,0:0:0:0:
248,356,56185,5,4,0:0:0:0:
248,356,56352,1,4,0:2:0:0:
256,192,56435,12,4,57352,0:2:0:0:
240,238,57685,5,4,0:2:0:0:
240,238,57769,1,0,0:0:0:0:
240,238,57852,1,8,0:0:0:0:
181,328,58019,1,8,0:2:0:0:
33,217,58185,5,4,0:0:0:0:
32,195,58269,1,0,0:0:0:0:
30,174,58352,1,0,0:0:0:0:
27,153,58435,1,0,0:0:0:0:
55,121,58519,5,8,0:0:0:0:
54,99,58603,1,0,0:0:0:0:
52,78,58686,1,4,0:2:0:0:
49,57,58769,1,0,0:0:0:0:
78,27,58852,5,4,0:0:0:0:
283,89,59019,1,4,0:2:0:0:
173,102,59185,1,4,0:0:0:0:
167,143,59269,1,0,0:0:0:0:
163,184,59352,1,0,0:0:0:0:
159,225,59435,1,0,0:0:0:0:
155,267,59519,1,0,0:0:0:0:
149,308,59602,1,0,0:0:0:0:
146,349,59685,1,0,0:0:0:0:
478,342,59852,5,4,0:0:0:0:
273,280,60019,1,4,0:2:0:0:
383,267,60185,1,4,0:0:0:0:
389,226,60269,1,0,0:0:0:0:
393,185,60352,1,0,0:0:0:0:
397,144,60435,1,0,0:0:0:0:
401,102,60519,1,0,0:0:0:0:
407,61,60602,1,0,0:0:0:0:
410,20,60685,1,0,0:0:0:0:
124,147,60852,5,4,0:0:0:0:
164,349,61019,1,4,0:2:0:0:
90,237,61185,1,4,0:0:0:0:
130,246,61269,1,0,0:0:0:0:
170,253,61352,1,0,0:0:0:0:
210,263,61435,1,0,0:0:0:0:
252,267,61519,2,0,L|320:266,1,41.9999987182618
406,212,61685,2,0,B|368:165|368:165|223:154,1,167.999994873047,4|4,0:2|0:2,0:0:0:0:
40,132,62185,5,4,0:0:0:0:
81,125,62269,1,0,0:0:0:0:
115,101,62352,1,0,0:0:0:0:
139,66,62435,1,0,0:0:0:0:
143,23,62519,1,8,0:0:0:0:
24,24,62685,1,8,0:2:0:0:
265,80,62852,5,4,0:0:0:0:
189,273,63019,1,4,0:2:0:0:
259,181,63185,1,4,0:0:0:0:
268,222,63269,1,0,0:0:0:0:
278,262,63352,1,0,0:0:0:0:
286,303,63435,1,0,0:0:0:0:
303,345,63519,6,2,B|333:310|333:310|323:258,1,83.9999974365235,0|0,0:0|0:0,0:0:0:0:
189,273,63852,2,2,B|159:308|159:308|169:360,1,83.9999974365235,4|4,0:0|0:2,0:0:0:0:
337,159,64185,5,4,0:0:0:0:
378,166,64269,1,0,0:0:0:0:
418,174,64352,1,0,0:0:0:0:
458,183,64435,1,0,0:0:0:0:
441,134,64519,5,0,0:0:0:0:
400,141,64603,1,0,0:0:0:0:
360,149,64686,1,0,0:0:0:0:
320,158,64769,1,0,0:0:0:0:
271,170,64852,5,4,0:0:0:0:
310,14,65019,1,4,0:2:0:0:
107,121,65185,1,4,0:0:0:0:
145,138,65269,1,0,0:0:0:0:
163,175,65352,1,0,0:0:0:0:
162,216,65435,1,0,0:0:0:0:
149,256,65519,2,0,L|82:239,1,41.9999987182618
20,284,65685,1,4,0:2:0:0:
20,284,66019,5,4,0:2:0:0:
136,295,66185,2,0,L|235:309,1,83.9999974365235,4|0,0:0|0:0,0:0:0:0:
254,344,66435,1,0,0:0:0:0:
254,344,66519,2,0,L|362:335,1,83.9999974365235
466,357,66852,1,4,0:0:0:0:
428,248,67019,5,0,0:0:0:0:
400,216,67102,1,8,0:3:0:0:
375,182,67185,1,8,0:0:0:0:
306,81,67352,1,8,0:3:0:0:
351,57,67436,1,8,0:3:0:0:
395,33,67519,1,4,0:2:0:0:
119,160,67685,1,8,0:2:0:0:
169,18,67852,5,8,0:0:0:0:
146,239,68019,1,0,0:0:0:0:
209,118,68185,5,4,0:0:0:0:
58,87,68352,1,0,0:0:0:0:
58,87,68435,1,2,0:2:0:0:
58,87,68519,1,8,0:0:0:0:
19,221,68685,1,8,0:2:0:0:
160,248,68852,5,2,0:0:0:0:
208,234,68935,1,0,0:0:0:0:
258,240,69019,1,0,0:0:0:0:
296,272,69102,1,0,0:0:0:0:
343,256,69185,5,10,0:0:0:0:
367,300,69268,1,0,0:0:0:0:
411,324,69352,1,2,0:0:0:0:
460,329,69435,1,0,0:0:0:0:
496,364,69519,5,4,0:0:0:0:
471,207,69685,1,0,0:0:0:0:
471,207,69769,1,0,0:0:0:0:
471,207,69852,1,8,0:0:0:0:
297,251,70019,1,2,0:2:0:0:
392,282,70185,5,0,0:0:0:0:
360,139,70352,1,0,0:0:0:0:
175,109,70519,1,8,0:0:0:0:
257,173,70685,1,2,0:2:0:0:
271,9,70852,5,0,0:0:0:0:
210,93,71019,1,0,0:0:0:0:
210,93,71102,1,0,0:0:0:0:
210,93,71185,1,8,0:0:0:0:
110,40,71352,1,2,0:2:0:0:
212,185,71519,2,0,L|207:277,1,83.9999974365235
21,360,71852,5,8,0:0:0:0:
27,318,71935,1,0,0:0:0:0:
35,276,72019,1,2,0:2:0:0:
41,234,72102,1,0,0:0:0:0:
47,192,72185,1,0,0:0:0:0:
186,271,72352,1,0,0:0:0:0:
189,312,72435,1,0,0:0:0:0:
195,353,72519,1,8,0:0:0:0:
317,249,72685,1,2,0:2:0:0:
263,164,72852,2,0,L|173:173,1,83.9999974365235
402,291,73185,2,0,L|490:277,1,83.9999974365235,8|2,0:0|0:2,0:0:0:0:
405,95,73519,5,0,0:0:0:0:
299,61,73685,1,0,0:0:0:0:
257,52,73769,1,0,0:0:0:0:
217,39,73852,1,8,0:0:0:0:
323,170,74019,1,2,0:2:0:0:
209,183,74185,2,0,L|149:189,3,41.9999987182618,2|0|0|0,0:0|0:0|0:0|0:0,0:0:0:0:
374,261,74519,1,12,0:0:0:0:
327,365,74685,1,2,0:2:0:0:
184,316,74852,5,4,0:0:0:0:
41,197,75019,1,0,0:0:0:0:
51,237,75102,1,0,0:0:0:0:
63,276,75185,1,8,0:0:0:0:
138,110,75352,1,2,0:2:0:0:
48,26,75519,1,0,0:0:0:0:
157,77,75685,1,0,0:0:0:0:
277,54,75852,2,0,L|364:32,1,83.9999974365235,8|2,0:0|0:2,0:0:0:0:
490,229,76185,5,4,0:0:0:0:
342,264,76352,1,0,0:0:0:0:
355,223,76435,1,0,0:0:0:0:
365,181,76519,1,8,0:0:0:0:
393,350,76685,1,2,0:2:0:0:
235,239,76852,2,0,B|197:222|197:222|138:236,1,83.9999974365235,2|0,0:0|0:0,0:0:0:0:
26,340,77185,1,10,0:0:0:0:
68,342,77269,1,0,0:0:0:0:
109,346,77352,1,2,0:2:0:0:
150,352,77435,1,0,0:0:0:0:
192,356,77519,5,4,0:0:0:0:
384,277,77685,1,0,0:0:0:0:
384,277,77769,1,0,0:0:0:0:
384,277,77852,1,8,0:0:0:0:
201,188,78019,1,2,0:2:0:0:
390,115,78185,1,4,0:0:0:0:
209,195,78352,1,0,0:0:0:0:
209,195,78435,1,0,0:0:0:0:
209,195,78519,1,8,0:0:0:0:
384,277,78685,1,2,0:2:0:0:
30,234,78852,5,4,0:0:0:0:
49,114,79019,1,4,0:3:0:0:
152,58,79185,1,8,0:0:0:0:
92,142,79352,1,4,0:3:0:0:
284,88,79519,1,8,0:0:0:0:
180,83,79685,1,2,0:2:0:0:
185,103,79769,1,0,0:0:0:0:
191,122,79852,1,8,0:0:0:0:
385,72,80019,1,2,0:0:0:0:
321,14,80185,5,4,0:0:0:0:
288,40,80269,1,0,0:0:0:0:
249,56,80352,1,0,0:0:0:0:
207,53,80435,1,0,0:0:0:0:
165,43,80519,2,0,L|112:23,3,41.9999987182618,8|0|2|0,0:0|0:0|0:2|0:0,0:0:0:0:
170,134,80852,5,0,0:0:0:0:
195,166,80935,1,0,0:0:0:0:
197,208,81019,1,0,0:0:0:0:
177,245,81102,1,0,0:0:0:0:
135,251,81185,1,8,0:0:0:0:
92,252,81269,1,0,0:0:0:0:
55,271,81352,1,2,0:2:0:0:
39,309,81435,1,0,0:0:0:0:
52,349,81519,6,0,L|110:342,3,41.9999987182618
180,359,81852,2,0,L|238:366,3,41.9999987182618,8|0|2|0,0:0|0:0|0:2|0:0,0:0:0:0:
194,258,82185,5,0,0:0:0:0:
227,231,82269,1,0,0:0:0:0:
268,229,82352,1,0,0:0:0:0:
306,244,82435,1,0,0:0:0:0:
332,276,82519,1,8,0:0:0:0:
355,310,82602,1,0,0:0:0:0:
394,322,82685,1,2,0:2:0:0:
436,326,82769,1,0,0:0:0:0:
472,304,82852,6,0,L|474:240,3,41.9999987182618,2|0|2|0,0:0|0:0|0:0|0:0,0:0:0:0:
407,204,83185,2,0,P|409:153|417:102,1,83.9999974365235,8|2,0:0|0:2,0:0:0:0:
476,17,83519,1,0,0:0:0:0:
278,152,83685,1,2,0:2:0:0:
278,152,83769,1,0,0:0:0:0:
278,152,83852,2,0,P|222:149|175:142,1,83.9999974365235,8|2,0:0|0:2,0:0:0:0:
86,47,84185,5,2,0:0:0:0:
106,31,84269,1,0,0:0:0:0:
129,21,84352,1,0,0:0:0:0:
44,212,84519,1,8,0:0:0:0:
32,252,84602,1,0,0:0:0:0:
30,293,84685,1,2,0:0:0:0:
50,330,84769,1,0,0:0:0:0:
83,355,84852,2,0,L|173:333,1,83.9999974365235,2|0,0:0|0:0,0:0:0:0:
234,306,85102,1,8,0:2:0:0:
234,306,85185,1,8,0:0:0:0:
442,352,85352,1,4,0:2:0:0:
374,158,85519,6,0,B|326:199|326:199|245:186,1,125.999996154785,4|0,0:0|0:0,0:0:0:0:
224,175,85852,1,8,0:0:0:0:
176,51,86019,1,2,0:2:0:0:
291,25,86185,2,0,L|336:18,3,41.9999987182618,2|0|0|0,0:0|0:0|0:0|0:0,0:0:0:0:
420,78,86519,2,0,L|465:85,3,41.9999987182618,10|0|0|0,0:0|0:0|0:0|0:0,0:0:0:0:
321,120,86852,5,4,0:0:0:0:
289,146,86935,1,0,0:0:0:0:
276,186,87019,1,0,0:0:0:0:
276,227,87102,1,0,0:0:0:0:
320,265,87185,5,8,0:0:0:0:
359,252,87268,1,0,0:0:0:0:
401,255,87352,1,2,0:2:0:0:
436,276,87435,1,0,0:0:0:0:
427,334,87519,6,0,L|364:318,3,41.9999987182618,2|0|0|0,0:0|0:0|0:0|0:0,0:0:0:0:
301,344,87852,2,0,L|242:359,3,41.9999987182618,10|0|0|0,0:0|0:0|0:0|0:0,0:0:0:0:
214,250,88185,5,4,0:0:0:0:
172,256,88269,1,0,0:0:0:0:
142,285,88352,1,0,0:0:0:0:
74,366,88519,1,8,0:0:0:0:
80,171,88685,1,2,0:0:0:0:
291,44,88852,5,4,0:0:0:0:
260,73,88935,1,0,0:0:0:0:
222,93,89019,1,0,0:0:0:0:
181,104,89102,1,0,0:0:0:0:
139,101,89185,1,8,0:0:0:0:
100,82,89269,1,0,0:0:0:0:
70,51,89352,1,2,0:0:0:0:
397,30,89519,5,4,0:0:0:0:
338,319,89768,1,8,0:2:0:0:
338,319,89852,1,8,0:0:0:0:
355,216,90019,1,2,0:0:0:0:
442,324,90185,5,4,0:0:0:0:
260,249,90352,1,4,0:2:0:0:
144,364,90519,1,12,0:0:0:0:
314,57,90852,5,4,0:0:0:0:
394,80,91185,1,2,0:0:0:0:
226,122,91519,6,2,B|159:133|159:133|114:76,1,140,0|2,1:0|0:0,0:0:0:0:
122,86,93019,1,0,1:0:0:0:
122,86,93102,1,0,1:0:0:0:
122,86,93185,1,4,1:2:0:0:
160,187,93352,1,0,0:0:0:0:
288,149,93519,6,0,B|321:185|321:185|300:279,1,140,4|4,1:0|0:0,0:0:0:0:
92,343,94852,1,4,1:0:0:0:
150,258,95185,1,4,1:2:0:0:
234,302,95519,1,4,1:0:0:0:
122,173,95685,1,2,1:2:0:0:
122,173,95769,1,0,1:0:0:0:
122,173,95852,1,0,1:0:0:0:
383,290,96019,1,8,1:3:0:0:
383,290,96074,1,8,1:3:0:0:
383,290,96130,1,8,1:3:0:0:
383,290,96185,6,0,L|456:314,1,70,4|2,1:0|0:0,0:0:0:0:
321,128,96519,1,0,1:0:0:0:
303,211,96685,1,2,0:0:0:0:
228,43,96852,2,2,L|78:72,1,140,4|0,1:2|1:0,0:0:0:0:
27,175,97352,1,4,1:2:0:0:
27,175,97435,1,0,1:0:0:0:
27,175,97519,6,0,L|124:165,1,70,4|0,1:2|0:0,0:0:0:0:
160,220,97769,1,0,1:0:0:0:
160,220,97852,2,0,L|149:315,1,70,4|2,1:2|0:0,0:0:0:0:
186,114,98185,1,4,1:2:0:0:
271,161,98352,1,0,1:0:0:0:
305,167,98435,1,0,1:0:0:0:
339,174,98519,1,2,1:2:0:0:
373,180,98602,1,0,1:0:0:0:
407,186,98685,1,4,1:2:0:0:
472,330,98852,6,0,L|381:351,1,70,4|2,1:0|0:0,0:0:0:0:
246,351,99185,2,0,L|297:273,1,70,0|2,1:0|0:0,0:0:0:0:
230,235,99435,1,0,1:0:0:0:
230,235,99519,2,0,L|133:242,1,70,4|2,1:0|0:0,0:0:0:0:
235,126,99852,2,0,L|332:137,1,70,0|4,1:0|0:0,0:0:0:0:
335,116,100102,1,0,0:0:0:0:
366,100,100185,5,4,1:0:0:0:
255,20,100352,1,2,0:0:0:0:
125,156,100519,1,4,1:0:0:0:
228,117,100685,1,2,0:0:0:0:
25,113,100852,1,4,1:0:0:0:
182,245,101019,1,8,1:3:0:0:
182,245,101074,1,8,1:3:0:0:
182,245,101130,1,8,1:3:0:0:
182,245,101185,2,0,L|173:298,1,35,2|0,1:0|0:0,0:0:0:0:
98,298,101352,2,0,L|88:343,1,35,0|0,1:0|0:0,0:0:0:0:
55,215,101519,5,0,0:0:0:0:
132,144,101685,1,0,0:0:0:0:
132,144,101769,1,0,0:0:0:0:
132,144,101852,1,0,0:0:0:0:
236,156,102019,1,2,0:0:0:0:
469,171,102185,5,0,0:0:0:0:
392,242,102351,1,0,0:0:0:0:
392,242,102435,1,0,0:0:0:0:
392,242,102519,1,4,0:2:0:0:
288,230,102685,1,2,0:0:0:0:
283,33,102852,5,4,0:0:0:0:
263,189,103019,1,0,0:0:0:0:
263,189,103102,1,0,0:0:0:0:
263,189,103185,1,0,0:0:0:0:
237,348,103352,1,2,0:0:0:0:
158,147,103519,5,4,0:0:0:0:
267,194,103685,1,0,0:0:0:0:
267,194,103769,1,0,0:0:0:0:
267,194,103852,1,4,0:0:0:0:
364,235,104019,1,0,0:0:0:0:
130,273,104185,5,4,0:0:0:0:
32,135,104352,1,0,0:0:0:0:
58,94,104435,1,0,0:0:0:0:
99,67,104519,1,8,0:0:0:0:
147,73,104602,1,0,0:0:0:0:
195,80,104685,1,10,0:2:0:0:
244,74,104769,1,0,0:0:0:0:
273,34,104852,1,0,0:0:0:0:
121,194,105019,1,0,0:0:0:0:
105,240,105102,1,2,0:2:0:0:
118,286,105185,1,8,0:0:0:0:
181,360,105352,1,2,0:2:0:0:
320,260,105519,6,2,P|323:170|312:94,1,146.999995513916,2|0,0:0|2:0,0:0:0:0:
301,66,105852,1,10,0:0:0:0:
156,146,106019,1,10,0:2:0:0:
109,159,106102,1,0,0:0:0:0:
60,150,106185,1,2,0:0:0:0:
27,112,106269,1,0,0:0:0:0:
30,63,106352,1,2,0:2:0:0:
61,25,106435,1,0,0:0:0:0:
109,14,106519,1,8,0:0:0:0:
241,267,106685,5,2,0:0:0:0:
234,315,106769,1,2,0:2:0:0:
249,361,106852,1,0,0:0:0:0:
463,364,107019,5,0,0:0:0:0:
480,318,107102,1,0,0:0:0:0:
476,269,107185,1,10,0:0:0:0:
442,233,107269,1,0,0:0:0:0:
431,185,107352,1,10,0:2:0:0:
440,137,107435,1,0,0:0:0:0:
458,91,107519,1,0,0:0:0:0:
267,21,107685,1,0,0:0:0:0:
286,66,107769,1,0,0:0:0:0:
279,114,107852,1,8,0:0:0:0:
234,237,108019,1,2,0:0:0:0:
85,171,108185,6,0,L|30:155,3,48.9999985046387,2|0|0|0,0:2|0:0|0:0|0:0,0:0:0:0:
154,217,108519,1,10,0:0:0:0:
145,265,108602,1,0,0:0:0:0:
138,313,108685,1,10,0:2:0:0:
32,269,108852,1,2,0:0:0:0:
264,185,109019,1,0,0:0:0:0:
278,231,109102,1,2,0:2:0:0:
287,278,109185,2,0,L|273:384,1,97.9999970092774,10|0,0:0|0:0,0:0:0:0:
215,30,109519,5,0,0:0:0:0:
484,108,109685,1,0,0:0:0:0:
440,131,109769,1,0,0:0:0:0:
391,127,109852,1,8,0:0:0:0:
345,110,109935,1,0,0:0:0:0:
327,63,110019,2,0,L|334:-13,1,48.9999985046387,8|0,0:2|0:0,0:0:0:0:
235,137,110185,2,0,L|263:180,3,48.9999985046387,2|0|0|0,0:2|0:0|0:0|0:0,0:0:0:0:
203,248,110519,2,0,L|245:277,3,48.9999985046387,8|0|2|0,0:0|0:0|0:2|0:0,0:0:0:0:
363,264,110852,5,2,0:0:0:0:
408,281,110935,1,0,0:0:0:0:
455,265,111019,1,2,0:2:0:0:
243,150,111185,1,10,0:0:0:0:
193,152,111269,1,0,0:0:0:0:
147,169,111352,1,8,0:2:0:0:
121,210,111435,1,0,0:0:0:0:
80,238,111519,2,0,P|54:244|9:233,3,48.9999985046387,2|0|0|0,0:0|0:0|0:0|0:0,0:0:0:0:
148,298,111852,5,10,0:0:0:0:
194,282,111935,1,0,0:0:0:0:
243,285,112019,1,2,0:2:0:0:
283,311,112102,1,0,0:0:0:0:
306,353,112185,1,0,0:0:0:0:
60,326,112352,5,0,0:0:0:0:
60,326,112435,1,0,0:0:0:0:
60,326,112519,1,8,0:0:0:0:
234,181,112685,1,8,0:2:0:0:
142,80,112852,5,2,0:0:0:0:
356,207,113019,1,8,0:3:0:0:
356,207,113074,1,8,0:3:0:0:
356,207,113130,1,8,0:3:0:0:
356,207,113185,1,8,0:0:0:0:
460,147,113352,1,4,0:3:0:0:
331,31,113519,6,0,L|355:85,3,48.9999985046387,2|0|0|0,0:0|0:0|0:0|0:0,0:0:0:0:
251,169,113852,2,0,L|259:89,3,48.9999985046387,8|0|0|0,0:0|0:0|0:0|0:0,0:0:0:0:
334,234,114185,1,2,0:2:0:0:
328,263,114269,1,0,0:0:0:0:
322,291,114352,1,0,0:0:0:0:
318,320,114435,1,0,0:0:0:0:
310,348,114519,1,8,0:0:0:0:
438,241,114685,1,4,0:3:0:0:
202,348,114852,5,4,0:0:0:0:
9,161,115019,1,0,0:0:0:0:
56,152,115102,1,0,0:0:0:0:
102,165,115185,1,8,0:0:0:0:
132,203,115269,1,0,0:0:0:0:
140,251,115352,1,8,0:2:0:0:
122,296,115435,1,0,0:0:0:0:
82,324,115519,1,0,0:0:0:0:
199,159,115685,5,0,0:0:0:0:
194,109,115769,1,0,0:0:0:0:
220,68,115852,1,8,0:0:0:0:
278,228,116019,1,2,0:2:0:0:
428,45,116185,6,0,P|386:33|317:25,1,97.9999970092774,2|0,0:0|0:0,0:0:0:0:
370,203,116519,1,8,0:0:0:0:
416,217,116602,1,0,0:0:0:0:
464,212,116685,1,8,0:2:0:0:
505,184,116769,1,0,0:0:0:0:
487,138,116852,5,2,0:0:0:0:
439,149,116935,1,0,0:0:0:0:
412,190,117019,1,0,0:0:0:0:
402,237,117102,1,0,0:0:0:0:
408,285,117185,2,0,L|428:348,1,48.9999985046387,8|0,0:0|0:0,0:0:0:0:
293,129,117352,5,2,0:0:0:0:
295,80,117435,1,0,0:0:0:0:
272,35,117519,1,2,0:0:0:0:
235,272,117685,5,2,0:0:0:0:
189,254,117769,1,0,0:0:0:0:
140,253,117852,1,8,0:0:0:0:
110,292,117935,1,0,0:0:0:0:
78,329,118019,1,8,0:2:0:0:
29,329,118102,1,0,0:0:0:0:
7,285,118185,1,2,0:0:0:0:
28,99,118352,1,2,0:2:0:0:
76,101,118435,1,0,0:0:0:0:
89,148,118519,2,0,L|94:209,3,48.9999985046387,10|0|2|0,0:0|0:0|0:2|0:0,0:0:0:0:
197,228,118852,6,0,L|188:298,3,48.9999985046387,2|0|0|0,0:0|0:0|0:0|0:0,0:0:0:0:
182,142,119185,1,8,0:0:0:0:
364,266,119352,1,2,0:0:0:0:
364,266,119435,1,0,0:0:0:0:
364,266,119519,1,0,0:0:0:0:
278,181,119685,1,6,0:0:0:0:
487,258,119852,2,0,L|469:366,1,97.9999970092774,8|0,0:0|0:0,0:0:0:0:
439,134,120185,5,0,0:0:0:0:
347,21,120352,1,0,0:0:0:0:
298,22,120435,1,0,0:0:0:0:
253,43,120519,1,8,0:0:0:0:
216,75,120602,1,0,0:0:0:0:
169,90,120685,1,8,0:2:0:0:
119,90,120769,1,0,0:0:0:0:
71,77,120852,2,0,P|53:70|24:40,3,48.9999985046387,2|0|0|0,0:0|0:0|0:0|0:0,0:0:0:0:
110,166,121185,2,0,L|114:258,1,48.9999985046387,8|0,0:0|0:0,0:0:0:0:
32,237,121352,2,0,L|36:329,1,48.9999985046387,2|0,0:2|0:0,0:0:0:0:
280,240,121519,6,2,B|335:228|379:280|440:260,1,146.999995513916,2|0,0:0|2:0,0:0:0:0:
471,268,121852,1,8,0:0:0:0:
346,371,122019,1,8,0:2:0:0:
237,139,122185,1,2,0:0:0:0:
244,90,122269,1,0,0:0:0:0:
218,48,122352,1,0,0:0:0:0:
175,23,122435,1,0,0:0:0:0:
126,29,122519,2,0,L|147:107,3,48.9999985046387,10|0|2|0,0:0|0:0|0:2|0:0,0:0:0:0:
318,189,122852,5,0,0:0:0:0:
278,218,122935,1,0,0:0:0:0:
268,266,123019,1,0,0:0:0:0:
279,313,123102,1,0,0:0:0:0:
309,351,123185,1,8,0:0:0:0:
442,297,123352,1,8,0:2:0:0:
343,49,123519,5,2,0:0:0:0:
224,82,123685,1,8,0:3:0:0:
224,82,123741,1,8,0:3:0:0:
224,82,123797,1,8,0:3:0:0:
224,82,123852,1,8,0:0:0:0:
350,89,124019,1,2,0:2:0:0:
104,130,124185,6,0,L|22:108,1,48.9999985046387,6|0,0:0|0:0,0:0:0:0:
150,224,124352,2,0,L|73:207,1,48.9999985046387
271,258,124519,6,0,L|353:236,1,48.9999985046387,8|0,0:0|0:0,0:0:0:0:
225,352,124686,2,0,L|302:335,1,48.9999985046387,10|0,0:2|0:0,0:0:0:0:
116,300,124852,1,4,0:2:0:0:
104,308,124935,1,0,0:0:0:0:
91,316,125019,1,0,0:0:0:0:
78,323,125102,1,0,0:0:0:0:
31,336,125185,5,8,0:0:0:0:
58,294,125269,1,0,0:0:0:0:
85,253,125352,1,2,0:0:0:0:
112,212,125435,1,0,0:0:0:0:
137,169,125519,5,4,0:0:0:0:
342,223,125685,1,0,0:0:0:0:
342,223,125769,1,0,0:0:0:0:
342,223,125852,1,8,0:0:0:0:
248,281,126019,1,0,0:0:0:0:
193,24,126185,5,0,0:0:0:0:
239,168,126352,1,2,0:2:0:0:
427,56,126519,1,8,0:0:0:0:
405,163,126685,1,2,0:2:0:0:
307,84,126852,5,0,0:0:0:0:
115,84,127019,1,0,0:0:0:0:
76,76,127103,1,0,0:0:0:0:
37,70,127185,1,8,0:0:0:0:
193,24,127352,1,0,0:0:0:0:
33,163,127519,2,0,P|34:220|41:289,1,97.9999970092774,0|2,0:0|0:2,0:0:0:0:
295,361,127852,5,8,0:0:0:0:
261,326,127935,1,0,0:0:0:0:
217,305,128019,1,0,0:0:0:0:
169,304,128102,1,0,0:0:0:0:
124,321,128185,1,0,0:0:0:0:
295,225,128352,1,0,0:0:0:0:
339,205,128435,1,0,0:0:0:0:
388,203,128519,1,8,0:0:0:0:
493,263,128685,1,0,0:0:0:0:
410,57,128852,5,0,0:0:0:0:
286,125,129019,1,2,0:2:0:0:
126,19,129185,1,8,0:0:0:0:
239,42,129352,1,2,0:2:0:0:
219,285,129519,5,0,0:0:0:0:
35,251,129685,1,0,0:0:0:0:
70,233,129769,1,0,0:0:0:0:
104,215,129852,2,0,P|104:159|99:112,1,97.9999970092774,8|0,0:0|0:0,0:0:0:0:
202,295,130185,2,0,L|191:371,3,48.9999985046387,2|0|0|0,0:0|0:0|0:0|0:0,0:0:0:0:
305,214,130519,1,12,0:0:0:0:
464,269,130685,1,0,0:0:0:0:
361,332,130852,5,4,0:0:0:0:
260,121,131019,1,0,0:0:0:0:
260,121,131102,1,0,0:0:0:0:
260,121,131185,1,8,0:0:0:0:
375,162,131352,1,0,0:0:0:0:
120,124,131519,1,0,0:0:0:0:
322,32,131685,1,2,0:2:0:0:
183,223,131852,1,8,0:0:0:0:
260,121,132019,1,2,0:2:0:0:
55,229,132185,5,0,0:0:0:0:
266,282,132352,1,0,0:0:0:0:
266,282,132435,1,0,0:0:0:0:
266,282,132519,1,8,0:0:0:0:
168,221,132685,1,0,0:0:0:0:
352,358,132852,2,0,L|481:326,1,97.9999970092774,0|2,0:0|0:2,0:0:0:0:
243,148,133185,5,8,0:0:0:0:
194,157,133269,1,0,0:0:0:0:
146,167,133352,1,0,0:0:0:0:
99,180,133435,1,0,0:0:0:0:
51,193,133519,1,2,0:0:0:0:
305,30,133685,5,0,0:0:0:0:
353,38,133769,1,0,0:0:0:0:
400,47,133852,1,10,0:0:0:0:
173,31,134019,5,2,0:0:0:0:
254,355,134185,1,4,0:0:0:0:
320,202,134352,1,8,0:3:0:0:
320,202,134408,1,8,0:3:0:0:
320,202,134463,1,8,0:3:0:0:
320,202,134519,1,8,0:0:0:0:
158,251,134685,1,2,0:0:0:0:
442,307,134852,6,0,L|299:278,1,97.9999970092774,4|0,0:0|2:0,0:0:0:0:
67,234,135185,6,0,L|210:205,1,97.9999970092774,4|0,0:0|2:0,0:0:0:0:
455,138,135519,6,0,L|312:109,1,97.9999970092774,4|0,0:0|2:0,0:0:0:0:
66,30,135852,6,0,L|209:1,1,97.9999970092774,4|0,0:0|2:0,0:0:0:0:
341,149,136185,6,2,L|277:158,1,62.9999980773926,4|0,0:0|2:0,0:0:0:0:
144,205,136352,6,0,L|208:214,1,62.9999980773926,4|0,0:2|2:0,0:0:0:0:
354,247,136519,6,2,L|290:256,1,62.9999980773926,4|0,0:0|2:0,0:0:0:0:
264,369,136685,5,4,0:2:0:0:
264,369,136741,1,8,0:3:0:0:
264,369,136797,1,8,0:3:0:0:
264,369,136852,2,2,L|249:159,1,188.999994232178,4|0,0:0|2:0,0:2:0:0:
243,27,137185,1,4,0:0:0:0:
256,192,137269,12,0,138852,0:0:0:0:
