osu file format v14

[General]
AudioFilename: BSPower Explosion1.mp3
AudioLeadIn: 1996
PreviewTime: 68538
Countdown: 0
SampleSet: Soft
StackLeniency: 0.4
Mode: 0
LetterboxInBreaks: 0
WidescreenStoryboard: 1

[Editor]
Bookmarks: 11205,20538,21872,29538,32538,43205,53872,67205,80205,80538,85872,91205,95205,101872,104538,111538,113872,115205,124538,125872,134872,135205,136538,137538,141872
DistanceSpacing: 1.6
BeatDivisor: 8
GridSize: 8
TimelineZoom: 4.199998

[Metadata]
Title:BSPower Explosion
TitleUnicode:BSPower Explosion
Artist:Memme
ArtistUnicode:Memme
Creator:Naoka
Version:Expert
Source:O2jam Analog
Tags:parkmemme oriental core
BeatmapID:1389915
BeatmapSetID:655942

[Difficulty]
HPDrainRate:6
CircleSize:4.8
OverallDifficulty:8
ApproachRate:9
SliderMultiplier:2
SliderTickRate:1

[Events]
//Background and Video events
0,0,"555557.png",0,0
//Break Periods
2,91405,92938
//Storyboard Layer 0 (Background)
//Storyboard Layer 1 (Fail)
//Storyboard Layer 2 (Pass)
//Storyboard Layer 3 (Foreground)
//Storyboard Sound Samples

[TimingPoints]
539,333.333333333333,4,2,1,60,1,0
2872,-133.333333333333,4,2,1,60,0,0
10538,-200,4,2,1,60,0,0
10872,-133.333333333333,4,2,1,60,0,0
11205,-100,4,2,1,60,0,1
15872,-111.111111111111,4,2,1,60,0,0
16205,-100,4,2,1,60,0,1
16247,-100,4,2,1,60,0,0
16372,-100,4,2,1,60,0,1
16413,-100,4,2,1,60,0,0
16538,-100,4,2,1,60,0,1
20538,-100,4,2,1,60,0,0
42538,-111.111111111111,4,2,1,60,0,0
53538,-133.333333333333,4,2,1,60,0,0
53872,-100,4,2,1,60,0,0
56205,-200,4,2,1,60,0,0
56543,-100,4,2,1,60,0,0
57705,-133.333333333333,4,2,1,60,0,0
58038,-100,4,2,1,60,0,0
68538,-133.333333333333,4,2,1,60,0,0
69872,-100,4,2,1,60,0,1
74538,-133.333333333333,4,2,1,60,0,0
74872,-100,4,2,1,60,0,0
75205,-100,4,2,1,60,0,1
80205,-100,4,2,1,60,0,0
90872,-133.333333333333,4,2,1,60,0,0
101538,-200,4,2,1,60,0,0
101872,-100,4,2,1,60,0,0
125872,-100,4,2,1,60,0,1
135205,-100,4,2,1,60,0,0

[Colours]
Combo1 : 243,182,114
Combo2 : 83,249,149
Combo3 : 70,175,253
Combo4 : 241,253,100
Combo5 : 240,80,80

[HitObjects]
158,56,539,5,0,0:0:0:0:
265,43,705,1,0,0:0:0:0:
326,152,872,1,0,0:0:0:0:
218,140,1038,1,0,0:0:0:0:
158,248,1206,1,0,0:0:0:0:
265,236,1372,1,0,0:0:0:0:
334,344,1538,1,0,0:0:0:0:
227,332,1704,1,0,0:0:0:0:
372,248,1872,5,0,0:0:0:0:
393,260,1955,1,0,0:0:0:0:
412,277,2038,1,0,0:0:0:0:
426,297,2121,1,0,0:0:0:0:
437,320,2205,5,0,0:0:0:0:
499,213,2372,1,0,0:0:0:0:
437,112,2538,1,0,0:0:0:0:
327,124,2705,1,0,0:0:0:0:
218,140,2872,1,0,0:0:0:0:
218,140,3205,5,0,0:0:0:0:
232,164,3288,1,0,0:0:0:0:
238,191,3371,1,0,0:0:0:0:
235,219,3454,1,0,0:0:0:0:
224,245,3538,1,0,0:0:0:0:
125,162,3705,1,0,0:0:0:0:
26,238,3872,5,0,0:0:0:0:
119,135,4038,1,0,0:0:0:0:
125,162,4122,1,0,0:0:0:0:
122,189,4205,1,0,0:0:0:0:
26,86,4372,5,0,0:0:0:0:
220,121,4538,5,0,0:0:0:0:
256,119,4621,1,0,0:0:0:0:
293,129,4704,1,0,0:0:0:0:
323,151,4787,1,0,0:0:0:0:
346,180,4871,1,0,0:0:0:0:
261,274,5038,1,0,0:0:0:0:
122,253,5205,2,0,P|89:270|63:316,1,75.0000028610231
220,121,5538,2,0,P|188:100|135:101,1,75.0000028610231
120,126,5788,1,0,0:0:0:0:
120,126,5872,5,0,0:0:0:0:
41,222,6038,1,0,0:0:0:0:
160,197,6205,1,0,0:0:0:0:
140,319,6371,1,0,0:0:0:0:
230,238,6539,1,0,0:0:0:0:
273,354,6705,1,0,0:0:0:0:
311,238,6872,1,0,0:0:0:0:
406,317,7038,1,0,0:0:0:0:
381,197,7205,5,0,0:0:0:0:
363,175,7288,1,0,0:0:0:0:
338,161,7371,1,0,0:0:0:0:
311,156,7454,1,0,0:0:0:0:
283,160,7538,5,0,0:0:0:0:
377,113,7705,1,0,0:0:0:0:
436,26,7872,1,0,0:0:0:0:
456,128,8038,1,0,0:0:0:0:
474,231,8205,1,0,0:0:0:0:
474,231,8539,5,0,0:0:0:0:
448,241,8622,1,0,0:0:0:0:
420,244,8705,1,0,0:0:0:0:
392,239,8789,1,0,0:0:0:0:
367,226,8872,1,0,0:0:0:0:
283,160,9039,1,0,0:0:0:0:
268,266,9205,1,0,0:0:0:0:
283,160,9372,5,0,0:0:0:0:
257,150,9455,1,0,0:0:0:0:
229,147,9538,1,0,0:0:0:0:
125,165,9705,1,0,0:0:0:0:
161,65,9872,5,0,0:0:0:0:
185,52,9955,1,0,0:0:0:0:
213,45,10038,1,0,0:0:0:0:
241,47,10122,1,0,0:0:0:0:
273,66,10205,5,0,0:0:0:0:
300,74,10288,1,0,0:0:0:0:
327,77,10372,1,0,0:0:0:0:
355,76,10455,1,0,0:0:0:0:
383,68,10538,6,0,B|421:71|452:34|452:34,1,75
469,16,10872,6,0,P|447:62|472:120,1,112.500004291535
493,141,11205,5,0,0:0:0:0:
363,131,11372,1,0,0:0:0:0:
314,138,11455,1,0,0:0:0:0:
276,169,11538,1,0,0:0:0:0:
198,273,11705,1,0,0:0:0:0:
276,169,11872,5,0,0:0:0:0:
138,194,12038,1,0,0:0:0:0:
163,332,12205,1,0,0:0:0:0:
301,307,12371,1,0,0:0:0:0:
220,249,12538,5,0,0:0:0:0:
80,242,12705,1,0,0:0:0:0:
62,195,12788,1,0,0:0:0:0:
77,148,12871,1,0,0:0:0:0:
217,134,13038,1,0,0:0:0:0:
300,247,13205,1,0,0:0:0:0:
357,119,13372,1,0,0:0:0:0:
382,256,13538,5,0,0:0:0:0:
362,301,13621,1,0,0:0:0:0:
321,328,13704,1,0,0:0:0:0:
272,328,13788,1,0,0:0:0:0:
231,300,13871,1,0,0:0:0:0:
322,194,14038,1,0,0:0:0:0:
365,170,14121,1,0,0:0:0:0:
414,175,14204,1,0,0:0:0:0:
493,292,14372,5,0,0:0:0:0:
414,175,14538,1,0,0:0:0:0:
476,48,14705,1,0,0:0:0:0:
447,185,14872,1,0,0:0:0:0:
314,231,15039,1,0,0:0:0:0:
351,83,15205,5,0,0:0:0:0:
384,219,15372,1,0,0:0:0:0:
376,267,15455,1,0,0:0:0:0:
341,302,15538,1,0,0:0:0:0:
201,297,15705,1,0,0:0:0:0:
314,231,15872,2,0,B|298:163|270:133|270:133|254:148|254:170,1,134.999995880127
235,215,16205,5,0,0:0:0:0:
384,219,16372,1,0,0:0:0:0:
462,92,16538,1,0,0:0:0:0:
364,151,16705,1,0,0:0:0:0:
326,183,16788,1,0,0:0:0:0:
314,231,16871,1,0,0:0:0:0:
452,254,17038,1,0,0:0:0:0:
364,151,17205,5,0,0:0:0:0:
226,181,17372,1,0,0:0:0:0:
257,319,17538,1,0,0:0:0:0:
394,289,17705,1,0,0:0:0:0:
314,231,17872,5,0,0:0:0:0:
321,91,18038,1,0,0:0:0:0:
368,78,18121,1,0,0:0:0:0:
413,98,18204,1,0,0:0:0:0:
314,231,18372,5,0,0:0:0:0:
368,78,18538,1,0,0:0:0:0:
209,107,18704,1,0,0:0:0:0:
340,157,18872,5,0,0:0:0:0:
389,158,18955,1,0,0:0:0:0:
430,131,19038,1,0,0:0:0:0:
450,86,19121,1,0,0:0:0:0:
441,38,19205,1,0,0:0:0:0:
310,89,19372,1,0,0:0:0:0:
274,123,19455,1,0,0:0:0:0:
267,171,19538,1,0,0:0:0:0:
351,283,19705,1,0,0:0:0:0:
267,171,19872,5,0,0:0:0:0:
138,224,20038,2,0,L|117:253,4,25
157,85,20372,1,0,0:0:0:0:
267,171,20538,5,0,0:0:0:0:
270,174,20872,5,0,0:0:0:0:
271,176,21205,2,0,B|291:166|291:166|327:164|327:164|416:195|448:77|382:44|336:54|336:54|343:81,1,300
352,111,21872,5,0,0:0:0:0:
352,111,22205,5,0,0:0:0:0:
246,203,22372,1,0,0:0:0:0:
140,295,22538,1,0,0:0:0:0:
142,297,22872,5,0,0:0:0:0:
88,168,23038,1,0,0:0:0:0:
172,56,23205,1,0,0:0:0:0:
310,72,23372,1,0,0:0:0:0:
365,199,23538,1,0,0:0:0:0:
227,183,23705,1,0,0:0:0:0:
448,88,23872,6,0,L|443:137,1,50
365,199,24038,2,0,L|369:248,1,50
383,127,24205,1,0,0:0:0:0:
351,127,24288,1,0,0:0:0:0:
323,139,24371,1,0,0:0:0:0:
301,161,24454,1,0,0:0:0:0:
288,189,24538,6,0,P|300:231|290:292,1,100
244,339,24788,1,0,0:0:0:0:
244,339,24872,1,0,0:0:0:0:
136,224,25038,1,0,0:0:0:0:
251,116,25205,2,0,B|298:105|298:105|355:129,1,100
376,144,25455,1,0,0:0:0:0:
384,152,25538,6,0,P|415:164|433:161,1,50
288,189,25705,2,0,P|267:202|242:204,1,50
175,181,25872,1,0,0:0:0:0:
229,52,26038,1,0,0:0:0:0:
254,48,26121,1,0,0:0:0:0:
278,53,26204,1,0,0:0:0:0:
152,117,26372,1,0,0:0:0:0:
33,40,26538,2,0,B|45:87|45:87|30:142,1,100
20,161,26788,1,0,0:0:0:0:
20,161,26872,5,0,0:0:0:0:
66,292,27038,1,0,0:0:0:0:
157,187,27205,1,0,0:0:0:0:
157,187,27538,5,0,0:0:0:0:
291,223,27704,1,0,0:0:0:0:
425,259,27871,1,0,0:0:0:0:
428,262,28205,5,0,0:0:0:0:
396,125,28372,1,0,0:0:0:0:
261,84,28538,1,0,0:0:0:0:
157,180,28705,1,0,0:0:0:0:
188,318,28872,1,0,0:0:0:0:
261,84,29038,1,0,0:0:0:0:
428,262,29205,1,0,0:0:0:0:
428,262,29538,5,0,0:0:0:0:
408,293,29621,1,0,0:0:0:0:
379,317,29704,1,0,0:0:0:0:
344,330,29787,1,0,0:0:0:0:
307,330,29872,6,0,P|269:317|211:319,1,100
143,341,30122,1,0,0:0:0:0:
143,341,30205,1,0,0:0:0:0:
228,230,30372,1,0,0:0:0:0:
174,101,30538,2,0,B|130:118|130:118|94:167,1,100
98,196,30788,1,0,0:0:0:0:
98,196,30872,5,0,0:0:0:0:
230,152,31038,1,0,0:0:0:0:
328,252,31205,1,0,0:0:0:0:
295,115,31372,1,0,0:0:0:0:
278,96,31455,1,0,0:0:0:0:
256,83,31538,1,0,0:0:0:0:
187,206,31705,1,0,0:0:0:0:
295,115,31872,2,0,B|344:107|344:107|411:130,1,100
422,140,32122,1,0,0:0:0:0:
422,140,32205,6,0,P|448:145|484:136,1,50
368,37,32372,2,0,P|343:33|318:38,1,50
259,171,32538,6,0,P|254:218|276:269,1,100
338,293,32788,1,0,0:0:0:0:
338,293,32872,6,0,L|282:304,1,50
207,266,33038,2,0,L|151:277,1,50
76,239,33205,2,0,P|103:205|160:186,1,100
225,191,33455,1,0,0:0:0:0:
225,191,33538,6,0,L|304:195,1,50
354,26,33705,2,0,L|275:22,1,50
372,173,33872,2,0,L|376:94,1,50
207,44,34038,2,0,L|202:123,1,50
283,216,34205,6,0,P|284:264|308:297,1,50
184,177,34372,2,0,P|185:224|209:257,1,50
101,103,34538,2,0,P|76:150|80:196,1,100
95,245,34788,1,0,0:0:0:0:
95,245,34872,6,0,L|77:311,1,50
184,177,35038,2,0,L|197:225,1,50
224,72,35205,2,0,P|263:98|317:102,1,100
381,79,35455,1,0,0:0:0:0:
381,79,35538,5,0,0:0:0:0:
326,208,35705,1,0,0:0:0:0:
466,192,35872,2,0,B|428:159|428:159|359:143,1,100
344,148,36122,1,0,0:0:0:0:
344,148,36205,5,0,0:0:0:0:
209,186,36372,1,0,0:0:0:0:
243,50,36538,1,0,0:0:0:0:
379,84,36705,1,0,0:0:0:0:
415,89,36788,1,0,0:0:0:0:
451,79,36871,1,0,0:0:0:0:
344,148,37038,5,0,0:0:0:0:
287,276,37205,2,0,P|318:292|381:277,1,100
427,227,37455,1,0,0:0:0:0:
427,227,37538,5,0,0:0:0:0:
308,195,37705,1,0,0:0:0:0:
189,163,37872,2,0,P|151:205|140:258,1,100
167,310,38122,1,0,0:0:0:0:
167,310,38205,6,0,L|235:302,1,50
290,254,38372,2,0,L|358:246,1,50
413,198,38538,2,0,P|425:229|412:301,1,100
354,327,38788,1,0,0:0:0:0:
354,327,38872,6,0,L|287:329,1,50
172,190,39038,2,0,L|239:192,1,50
194,349,39205,2,0,L|192:282,1,50
331,167,39371,2,0,L|329:234,1,50
304,328,39538,6,0,P|274:320|254:306,1,50
415,235,39705,2,0,P|403:264|388:282,1,50
284,116,39872,2,0,P|331:99|378:115,1,100
441,146,40122,1,0,0:0:0:0:
441,146,40205,6,0,L|423:210,1,50
304,328,40372,2,0,L|304:278,1,50
167,146,40538,2,0,P|169:199|194:249,1,100
242,286,40788,1,0,0:0:0:0:
242,286,40872,6,0,P|196:309|134:281,1,100
39,212,41205,1,0,0:0:0:0:
167,146,41372,2,0,L|188:107,4,25
151,297,41705,1,0,0:0:0:0:
94,168,41872,5,0,0:0:0:0:
249,130,42038,1,0,0:0:0:0:
241,94,42121,1,0,0:0:0:0:
216,66,42204,1,0,0:0:0:0:
204,206,42372,1,0,0:0:0:0:
343,161,42538,2,0,B|301:134|247:130|247:130|262:131|288:145,1,134.999995880127
286,203,42872,6,0,B|328:224|328:224|385:222,1,89.9999972534181
400,216,43122,1,0,0:0:0:0:
416,224,43205,6,0,L|444:274,1,44.999998626709
367,344,43372,2,0,L|339:294,1,44.999998626709
286,203,43538,1,0,0:0:0:0:
252,185,43621,1,0,0:0:0:0:
213,185,43704,1,0,0:0:0:0:
179,205,43788,1,0,0:0:0:0:
159,238,43872,6,0,L|166:296,1,44.999998626709
286,203,44038,2,0,L|291:158,1,44.999998626709
140,91,44205,2,0,L|147:149,1,44.999998626709
267,56,44371,2,0,L|272:11,1,44.999998626709
106,27,44538,5,0,0:0:0:0:
76,59,44621,1,0,0:0:0:0:
69,103,44704,1,0,0:0:0:0:
89,143,44788,1,0,0:0:0:0:
127,165,44872,5,0,0:0:0:0:
170,152,44955,1,0,0:0:0:0:
215,147,45038,1,0,0:0:0:0:
259,151,45122,1,0,0:0:0:0:
302,164,45205,5,0,0:0:0:0:
346,173,45288,1,0,0:0:0:0:
384,151,45371,1,0,0:0:0:0:
398,109,45455,1,0,0:0:0:0:
381,69,45538,5,0,0:0:0:0:
368,100,45622,1,0,0:0:0:0:
364,133,45704,1,0,0:0:0:0:
371,166,45788,1,0,0:0:0:0:
387,195,45872,5,0,0:0:0:0:
401,237,45955,1,0,0:0:0:0:
385,278,46038,1,0,0:0:0:0:
346,299,46122,1,0,0:0:0:0:
303,289,46205,5,0,0:0:0:0:
261,273,46288,1,0,0:0:0:0:
217,270,46371,1,0,0:0:0:0:
173,279,46455,1,0,0:0:0:0:
133,300,46538,5,0,0:0:0:0:
162,265,46621,1,0,0:0:0:0:
173,222,46704,1,0,0:0:0:0:
165,178,46788,1,0,0:0:0:0:
140,142,46872,5,0,0:0:0:0:
149,98,46955,1,0,0:0:0:0:
179,65,47038,1,0,0:0:0:0:
221,51,47122,1,0,0:0:0:0:
265,60,47205,6,0,L|326:67,1,44.999998626709
385,156,47372,2,0,L|323:150,1,44.999998626709
247,225,47538,2,0,L|308:232,1,44.999998626709
367,321,47705,2,0,L|305:313,1,44.999998626709
168,304,47872,1,0,0:0:0:0:
134,298,47955,1,0,0:0:0:0:
101,303,48038,1,0,0:0:0:0:
70,316,48122,1,0,0:0:0:0:
44,337,48205,5,0,0:0:0:0:
18,300,48288,1,0,0:0:0:0:
11,256,48371,1,0,0:0:0:0:
24,213,48455,1,0,0:0:0:0:
54,180,48538,5,0,0:0:0:0:
92,192,48621,1,0,0:0:0:0:
132,200,48704,1,0,0:0:0:0:
172,200,48788,1,0,0:0:0:0:
211,192,48872,5,0,0:0:0:0:
253,182,48955,1,0,0:0:0:0:
280,147,49038,1,0,0:0:0:0:
278,103,49122,1,0,0:0:0:0:
269,62,49205,5,0,0:0:0:0:
302,82,49288,1,0,0:0:0:0:
341,89,49371,1,0,0:0:0:0:
380,83,49455,1,0,0:0:0:0:
414,65,49538,5,0,0:0:0:0:
458,69,49621,1,0,0:0:0:0:
486,103,49704,1,0,0:0:0:0:
482,146,49788,1,0,0:0:0:0:
449,175,49872,5,0,0:0:0:0:
405,168,49955,1,0,0:0:0:0:
365,186,50038,1,0,0:0:0:0:
341,223,50122,1,0,0:0:0:0:
341,267,50205,5,0,0:0:0:0:
341,311,50288,1,0,0:0:0:0:
317,348,50372,1,0,0:0:0:0:
276,366,50455,1,0,0:0:0:0:
233,360,50538,5,0,0:0:0:0:
266,338,50621,1,0,0:0:0:0:
303,327,50704,1,0,0:0:0:0:
342,327,50788,1,0,0:0:0:0:
380,337,50872,5,0,0:0:0:0:
423,326,50955,1,0,0:0:0:0:
451,292,51038,1,0,0:0:0:0:
453,248,51122,1,0,0:0:0:0:
427,212,51205,5,0,0:0:0:0:
382,218,51288,1,0,0:0:0:0:
350,242,51372,5,0,0:0:0:0:
316,237,51455,1,0,0:0:0:0:
283,210,51538,5,0,0:0:0:0:
257,213,51621,1,0,0:0:0:0:
219,233,51705,5,0,0:0:0:0:
200,231,51788,1,0,0:0:0:0:
180,195,51872,5,0,0:0:0:0:
165,196,51955,1,0,0:0:0:0:
128,215,52038,5,0,0:0:0:0:
111,195,52122,1,0,0:0:0:0:
100,171,52205,1,0,0:0:0:0:
98,145,52288,1,0,0:0:0:0:
102,120,52372,1,0,0:0:0:0:
114,96,52455,1,0,0:0:0:0:
133,78,52538,6,0,P|185:83|232:71,1,89.9999972534181
252,65,52788,5,0,0:0:0:0:
253,82,52871,1,0,0:0:0:0:
254,100,52954,1,0,0:0:0:0:
255,118,53038,1,0,0:0:0:0:
256,136,53121,1,0,0:0:0:0:
257,154,53205,6,0,L|254:195,1,22.4999993133545
176,277,53372,2,0,L|212:260,1,22.4999993133545
322,286,53538,2,0,P|345:312|288:335,1,112.500004291535
264,319,53872,5,0,0:0:0:0:
352,229,54038,1,0,0:0:0:0:
382,249,54121,1,0,0:0:0:0:
402,281,54204,1,0,0:0:0:0:
264,319,54372,5,0,0:0:0:0:
176,229,54538,1,0,0:0:0:0:
340,163,54705,1,0,0:0:0:0:
366,162,54788,1,0,0:0:0:0:
391,175,54871,1,0,0:0:0:0:
314,254,55038,5,0,0:0:0:0:
223,228,55204,1,0,0:0:0:0:
303,110,55372,1,0,0:0:0:0:
320,100,55455,1,0,0:0:0:0:
341,99,55538,1,0,0:0:0:0:
321,178,55705,5,0,0:0:0:0:
253,195,55871,1,0,0:0:0:0:
245,81,56039,1,0,0:0:0:0:
251,67,56122,1,0,0:0:0:0:
264,59,56205,2,0,P|296:41|340:37,1,75
375,37,56538,5,0,0:0:0:0:
343,158,56704,1,0,0:0:0:0:
306,155,56787,1,0,0:0:0:0:
273,138,56872,1,0,0:0:0:0:
375,37,57038,5,0,0:0:0:0:
495,69,57204,1,0,0:0:0:0:
387,209,57371,1,0,0:0:0:0:
364,222,57454,1,0,0:0:0:0:
337,224,57537,1,0,0:0:0:0:
364,119,57705,6,0,P|403:94|446:97,1,75.0000028610231
448,229,58038,6,0,P|433:253|406:272,1,50
305,282,58205,2,0,P|286:265|286:183,1,100
391,277,58538,5,0,0:0:0:0:
265,338,58705,1,0,0:0:0:0:
240,315,58788,1,0,0:0:0:0:
221,288,58871,1,0,0:0:0:0:
210,256,58955,1,0,0:0:0:0:
206,223,59038,1,0,0:0:0:0:
210,190,59121,1,0,0:0:0:0:
222,159,59205,5,0,0:0:0:0:
395,180,59372,1,0,0:0:0:0:
241,77,59538,1,0,0:0:0:0:
216,76,59621,1,0,0:0:0:0:
191,82,59704,1,0,0:0:0:0:
170,95,59788,1,0,0:0:0:0:
152,113,59872,6,0,L|149:174,1,50
206,305,60038,2,0,L|210:256,1,50
222,159,60205,5,0,0:0:0:0:
62,226,60372,1,0,0:0:0:0:
247,239,60538,1,0,0:0:0:0:
269,227,60621,1,0,0:0:0:0:
286,209,60704,1,0,0:0:0:0:
299,188,60788,1,0,0:0:0:0:
305,163,60872,6,0,L|282:118,1,50
162,23,61038,2,0,L|184:67,1,50
222,159,61205,5,0,0:0:0:0:
381,92,61372,1,0,0:0:0:0:
197,79,61538,1,0,0:0:0:0:
174,91,61621,1,0,0:0:0:0:
157,109,61704,1,0,0:0:0:0:
144,130,61788,1,0,0:0:0:0:
139,155,61872,6,0,L|161:199,1,50
281,295,62038,1,0,0:0:0:0:
281,295,62372,6,0,L|258:250,1,50
194,124,62538,1,0,0:0:0:0:
168,123,62621,1,0,0:0:0:0:
144,130,62704,1,0,0:0:0:0:
123,142,62788,1,0,0:0:0:0:
106,161,62872,6,0,L|102:210,1,50
159,353,63038,2,0,L|162:303,1,50
172,201,63205,5,0,0:0:0:0:
67,339,63372,1,0,0:0:0:0:
233,258,63538,1,0,0:0:0:0:
247,236,63621,1,0,0:0:0:0:
253,212,63704,1,0,0:0:0:0:
254,188,63788,1,0,0:0:0:0:
245,163,63872,6,0,L|203:135,1,50,0|0,0:0|0:0,0:0:0:0:
52,113,64038,2,0,L|93:140,1,50,0|0,0:0|0:0,0:0:0:0:
172,201,64205,5,0,0:0:0:0:
277,63,64372,1,0,0:0:0:0:
111,144,64538,1,0,0:0:0:0:
97,166,64621,1,0,0:0:0:0:
91,190,64704,1,0,0:0:0:0:
90,214,64788,1,0,0:0:0:0:
99,239,64872,6,0,L|140:266,1,50,0|0,0:0|0:0,0:0:0:0:
292,289,65038,2,0,L|250:261,1,50,0|0,0:0|0:0,0:0:0:0:
172,201,65205,5,0,0:0:0:0:
150,373,65372,1,0,0:0:0:0:
253,219,65538,1,0,0:0:0:0:
254,193,65621,1,0,0:0:0:0:
247,170,65704,1,0,0:0:0:0:
236,148,65788,1,0,0:0:0:0:
216,131,65872,6,0,L|166:127,1,50,0|0,0:0|0:0,0:0:0:0:
24,184,66038,1,0,0:0:0:0:
24,184,66372,6,0,L|73:187,1,50
254,193,66538,1,0,0:0:0:0:
251,223,66621,1,0,0:0:0:0:
236,250,66704,1,0,0:0:0:0:
210,267,66787,1,0,0:0:0:0:
179,271,66872,6,0,P|131:262|114:264,1,50
215,342,67038,2,0,P|263:351|280:349,1,50
389,306,67205,6,0,L|394:361,3,50
315,245,67538,2,0,L|310:190,3,50
236,134,67872,1,0,0:0:0:0:
264,110,67955,1,0,0:0:0:0:
300,99,68038,1,0,0:0:0:0:
337,103,68121,1,0,0:0:0:0:
370,120,68205,5,0,0:0:0:0:
398,143,68288,1,0,0:0:0:0:
434,154,68371,1,0,0:0:0:0:
471,150,68454,1,0,0:0:0:0:
504,133,68538,6,0,L|512:220,1,75
229,208,68872,2,0,L|235:133,1,75
370,85,69205,1,0,0:0:0:0:
383,98,69288,1,0,0:0:0:0:
370,111,69372,1,0,0:0:0:0:
356,98,69455,1,0,0:0:0:0:
370,85,69538,5,0,0:0:0:0:
379,130,69621,1,0,0:0:0:0:
374,177,69704,1,0,0:0:0:0:
362,221,69787,1,0,0:0:0:0:
371,267,69872,6,0,P|388:307|440:330,1,100
473,334,70122,1,0,0:0:0:0:
504,321,70205,1,0,0:0:0:0:
484,182,70372,1,0,0:0:0:0:
354,130,70538,1,0,0:0:0:0:
244,217,70705,1,0,0:0:0:0:
113,165,70872,1,0,0:0:0:0:
92,25,71038,1,0,0:0:0:0:
220,80,71205,6,0,L|173:205,1,100
169,203,71455,1,0,0:0:0:0:
156,238,71538,1,0,0:0:0:0:
257,334,71705,1,0,0:0:0:0:
353,233,71872,1,0,0:0:0:0:
252,137,72039,1,0,0:0:0:0:
291,270,72205,5,0,0:0:0:0:
327,302,72288,1,0,0:0:0:0:
376,305,72371,1,0,0:0:0:0:
415,275,72454,1,0,0:0:0:0:
425,227,72538,1,0,0:0:0:0:
288,196,72705,1,0,0:0:0:0:
241,210,72788,1,0,0:0:0:0:
214,251,72871,5,0,0:0:0:0:
294,366,73038,1,0,0:0:0:0:
432,354,73205,1,0,0:0:0:0:
490,228,73372,1,0,0:0:0:0:
409,114,73538,2,0,L|363:218,1,100
294,366,73872,5,0,0:0:0:0:
213,251,74038,1,0,0:0:0:0:
253,220,74121,1,0,0:0:0:0:
301,218,74204,1,0,0:0:0:0:
436,255,74372,1,0,0:0:0:0:
279,301,74538,2,0,B|235:321|188:322|188:322|202:292,1,112.500004291535
213,251,74872,5,0,0:0:0:0:
278,127,75038,1,0,0:0:0:0:
418,119,75205,2,0,P|417:170|388:209,1,100
357,223,75455,1,0,0:0:0:0:
320,226,75538,5,0,0:0:0:0:
323,85,75705,1,0,0:0:0:0:
202,11,75872,1,0,0:0:0:0:
77,78,76038,1,0,0:0:0:0:
72,219,76205,1,0,0:0:0:0:
191,293,76372,1,0,0:0:0:0:
199,153,76538,5,0,0:0:0:0:
123,271,76705,1,0,0:0:0:0:
123,320,76788,1,0,0:0:0:0:
152,359,76871,1,0,0:0:0:0:
267,280,77038,1,0,0:0:0:0:
394,340,77205,1,0,0:0:0:0:
382,200,77372,1,0,0:0:0:0:
326,328,77538,5,0,0:0:0:0:
285,354,77622,1,0,0:0:0:0:
235,350,77705,1,0,0:0:0:0:
199,316,77788,1,0,0:0:0:0:
191,268,77871,1,0,0:0:0:0:
325,247,78038,1,0,0:0:0:0:
371,260,78121,1,0,0:0:0:0:
400,300,78204,1,0,0:0:0:0:
261,282,78372,5,0,0:0:0:0:
209,152,78538,1,0,0:0:0:0:
295,41,78705,1,0,0:0:0:0:
434,60,78872,1,0,0:0:0:0:
487,190,79038,1,0,0:0:0:0:
400,300,79205,2,0,L|358:196,1,100
295,41,79538,2,0,L|225:129,1,100
123,261,79872,2,0,L|234:276,1,100
360,295,80205,6,0,P|360:264|351:233,1,50
217,225,80372,2,0,P|217:256|226:287,1,50
281,177,80538,1,0,0:0:0:0:
252,153,80621,1,0,0:0:0:0:
216,144,80704,1,0,0:0:0:0:
179,152,80787,1,0,0:0:0:0:
150,174,80872,5,0,0:0:0:0:
107,197,80955,1,0,0:0:0:0:
64,177,81038,1,0,0:0:0:0:
53,130,81121,1,0,0:0:0:0:
84,93,81205,6,0,L|144:115,1,50
295,72,81372,2,0,L|235:50,1,50
211,220,81538,2,0,L|258:236,1,50
422,199,81705,2,0,L|374:182,1,50
263,142,81872,5,0,0:0:0:0:
220,136,81955,1,0,0:0:0:0:
179,152,82038,1,0,0:0:0:0:
152,185,82121,1,0,0:0:0:0:
143,227,82205,5,0,0:0:0:0:
159,260,82288,1,0,0:0:0:0:
162,297,82371,1,0,0:0:0:0:
149,332,82454,1,0,0:0:0:0:
123,358,82538,5,0,0:0:0:0:
157,343,82621,1,0,0:0:0:0:
193,334,82704,1,0,0:0:0:0:
231,334,82787,1,0,0:0:0:0:
267,341,82872,5,0,0:0:0:0:
300,356,82955,1,0,0:0:0:0:
337,365,83038,1,0,0:0:0:0:
374,365,83121,1,0,0:0:0:0:
411,358,83205,6,0,L|457:332,1,50
323,251,83372,2,0,L|279:275,1,50
461,262,83538,2,0,L|507:236,1,50
373,155,83705,2,0,L|329:179,1,50
228,229,83872,5,0,0:0:0:0:
179,235,83955,1,0,0:0:0:0:
140,205,84038,1,0,0:0:0:0:
132,157,84121,1,0,0:0:0:0:
159,117,84205,5,0,0:0:0:0:
205,101,84288,1,0,0:0:0:0:
254,112,84371,1,0,0:0:0:0:
301,127,84454,1,0,0:0:0:0:
350,121,84538,6,0,P|381:108|404:79,1,50
230,154,84705,2,0,P|249:127|254:91,1,50
141,243,84872,2,0,P|144:210|131:176,1,50
108,364,85038,2,0,P|94:333|65:310,1,50
24,249,85205,5,0,0:0:0:0:
30,205,85288,1,0,0:0:0:0:
52,168,85371,1,0,0:0:0:0:
88,144,85454,1,0,0:0:0:0:
130,135,85538,5,0,0:0:0:0:
170,145,85622,1,0,0:0:0:0:
199,181,85705,5,0,0:0:0:0:
238,190,85789,1,0,0:0:0:0:
267,226,85872,5,0,0:0:0:0:
308,239,85955,1,0,0:0:0:0:
351,234,86038,1,0,0:0:0:0:
387,210,86121,1,0,0:0:0:0:
409,173,86205,1,0,0:0:0:0:
412,129,86288,1,0,0:0:0:0:
396,89,86372,6,0,P|365:79|343:78,1,50
219,123,86538,2,0,P|242:132|266:135,1,50
412,129,86705,1,0,0:0:0:0:
451,127,86788,1,0,0:0:0:0:
484,150,86872,6,0,L|487:202,1,50
348,284,87038,2,0,L|350:234,1,50
417,325,87205,1,0,0:0:0:0:
388,349,87288,1,0,0:0:0:0:
352,358,87371,1,0,0:0:0:0:
316,350,87454,1,0,0:0:0:0:
287,327,87538,5,0,0:0:0:0:
258,302,87621,1,0,0:0:0:0:
222,293,87704,1,0,0:0:0:0:
186,301,87787,1,0,0:0:0:0:
157,324,87872,5,0,0:0:0:0:
117,340,87955,1,0,0:0:0:0:
74,334,88038,1,0,0:0:0:0:
39,308,88121,1,0,0:0:0:0:
22,268,88205,1,0,0:0:0:0:
28,226,88288,1,0,0:0:0:0:
54,191,88371,1,0,0:0:0:0:
93,174,88455,1,0,0:0:0:0:
136,179,88538,6,0,P|161:184|196:179,1,50
279,29,88705,2,0,P|254:24|219:29,1,50
312,181,88872,2,0,P|337:186|372:181,1,50
455,31,89039,2,0,P|430:26|395:31,1,50
274,117,89205,1,0,0:0:0:0:
247,143,89288,1,0,0:0:0:0:
236,178,89371,1,0,0:0:0:0:
242,215,89454,1,0,0:0:0:0:
265,244,89538,5,0,0:0:0:0:
306,231,89621,1,0,0:0:0:0:
350,234,89704,1,0,0:0:0:0:
390,251,89787,1,0,0:0:0:0:
421,281,89872,5,0,0:0:0:0:
372,281,89955,1,0,0:0:0:0:
332,253,90038,1,0,0:0:0:0:
315,207,90121,1,0,0:0:0:0:
328,160,90205,5,0,0:0:0:0:
341,113,90288,1,0,0:0:0:0:
324,66,90371,1,0,0:0:0:0:
284,38,90454,1,0,0:0:0:0:
235,38,90538,6,0,L|184:52,1,50
315,207,90705,2,0,L|328:156,1,50
129,193,90872,2,0,P|144:227|226:244,1,112.500004291535
252,240,91205,5,0,0:0:0:0:
252,240,93538,5,0,0:0:0:0:
235,38,93872,1,0,0:0:0:0:
235,38,95205,5,0,0:0:0:0:
244,139,95539,1,0,0:0:0:0:
252,240,95872,1,0,0:0:0:0:
260,341,96205,1,0,0:0:0:0:
344,284,96372,2,0,L|379:283,2,18.7500007152558
252,240,96538,6,0,P|203:246|169:233,1,75.0000028610231
257,91,96872,2,0,P|286:130|292:166,1,75.0000028610231
126,161,97205,2,0,P|145:115|173:92,1,75.0000028610231
252,240,97538,5,0,0:0:0:0:
247,258,97621,1,0,0:0:0:0:
239,275,97704,1,0,0:0:0:0:
228,290,97787,1,0,0:0:0:0:
214,302,97872,6,0,L|184:307,1,18.7500007152558
47,308,98038,2,0,L|64:279,1,18.7500007152558
126,161,98205,2,0,L|129:245,1,75.0000028610231
130,262,98455,1,0,0:0:0:0:
131,288,98538,1,0,0:0:0:0:
247,367,98705,5,0,0:0:0:0:
248,341,98788,1,0,0:0:0:0:
249,314,98872,2,0,L|251:239,1,75.0000028610231
256,90,99205,6,0,P|305:83|339:97,1,75.0000028610231
251,239,99538,2,0,P|221:199|215:163,1,75.0000028610231
382,168,99872,2,0,P|362:213|334:236,1,75.0000028610231
256,90,100205,2,0,P|275:44|303:21,1,75.0000028610231
320,16,100455,1,0,0:0:0:0:
345,14,100538,6,0,L|353:44,1,18.7500007152558
420,208,100705,2,0,L|390:199,1,18.7500007152558
215,175,100872,2,0,L|293:152,1,75.0000028610231
312,147,101121,1,0,0:0:0:0:
337,140,101205,6,0,L|331:179,1,37.5000014305115
425,245,101372,2,0,L|419:207,1,37.5000014305115
374,81,101538,2,0,P|352:72|298:84,1,75
279,102,101872,5,0,0:0:0:0:
239,235,102038,1,0,0:0:0:0:
287,245,102121,1,0,0:0:0:0:
334,231,102204,1,0,0:0:0:0:
279,102,102372,5,0,0:0:0:0:
141,124,102538,1,0,0:0:0:0:
182,261,102705,1,0,0:0:0:0:
209,286,102788,1,0,0:0:0:0:
245,294,102871,1,0,0:0:0:0:
258,190,103038,5,0,0:0:0:0:
160,152,103204,1,0,0:0:0:0:
118,267,103372,1,0,0:0:0:0:
126,293,103455,1,0,0:0:0:0:
146,312,103538,1,0,0:0:0:0:
193,249,103705,5,0,0:0:0:0:
144,187,103871,1,0,0:0:0:0:
54,249,104038,1,0,0:0:0:0:
49,268,104121,1,0,0:0:0:0:
55,288,104205,1,0,0:0:0:0:
74,256,104288,1,0,0:0:0:0:
83,220,104371,1,0,0:0:0:0:
80,183,104454,1,0,0:0:0:0:
64,149,104538,6,0,P|52:112|76:55,1,100
107,39,104788,1,0,0:0:0:0:
142,38,104872,6,0,L|191:43,1,50
226,139,105038,2,0,L|271:119,1,50
349,184,105205,2,0,P|369:151|363:80,1,100
353,59,105455,1,0,0:0:0:0:
315,45,105538,1,0,0:0:0:0:
279,192,105705,1,0,0:0:0:0:
289,226,105788,1,0,0:0:0:0:
320,249,105872,2,0,P|356:258|414:222,1,100
436,134,106205,5,0,0:0:0:0:
412,125,106288,1,0,0:0:0:0:
387,125,106371,1,0,0:0:0:0:
364,133,106454,1,0,0:0:0:0:
344,148,106538,5,0,0:0:0:0:
310,159,106622,1,0,0:0:0:0:
275,160,106705,1,0,0:0:0:0:
241,148,106788,1,0,0:0:0:0:
213,127,106872,2,0,P|159:114|111:134,1,100
94,153,107122,1,0,0:0:0:0:
84,190,107205,1,0,0:0:0:0:
202,280,107372,5,0,0:0:0:0:
227,293,107455,1,0,0:0:0:0:
255,301,107538,1,0,0:0:0:0:
284,303,107621,1,0,0:0:0:0:
313,300,107705,1,0,0:0:0:0:
341,291,107788,1,0,0:0:0:0:
367,278,107872,2,0,P|409:260|461:269,1,100
490,288,108122,1,0,0:0:0:0:
502,322,108205,1,0,0:0:0:0:
437,199,108372,5,0,0:0:0:0:
425,164,108455,1,0,0:0:0:0:
433,128,108538,2,0,L|464:66,1,50
341,80,108705,2,0,L|338:30,1,50
241,98,108872,2,0,P|264:152|309:190,1,100
330,201,109121,1,0,0:0:0:0:
367,213,109205,6,0,L|397:200,1,25
233,229,109372,2,0,L|263:216,1,25
99,245,109538,2,0,P|104:184|134:142,1,100
202,34,109872,1,0,0:0:0:0:
264,158,110038,1,0,0:0:0:0:
286,168,110121,1,0,0:0:0:0:
310,173,110204,1,0,0:0:0:0:
335,173,110287,1,0,0:0:0:0:
360,168,110371,1,0,0:0:0:0:
382,157,110454,1,0,0:0:0:0:
402,141,110538,5,0,0:0:0:0:
369,123,110621,1,0,0:0:0:0:
333,115,110704,1,0,0:0:0:0:
296,119,110787,1,0,0:0:0:0:
261,134,110871,5,0,0:0:0:0:
228,150,110954,1,0,0:0:0:0:
191,156,111037,1,0,0:0:0:0:
154,151,111121,1,0,0:0:0:0:
118,138,111205,6,0,P|104:89|123:27,1,100
261,134,111538,2,0,P|271:182|257:229,1,100
237,259,111788,1,0,0:0:0:0:
206,267,111871,1,0,0:0:0:0:
174,265,111954,1,0,0:0:0:0:
145,251,112037,1,0,0:0:0:0:
123,228,112121,1,0,0:0:0:0:
110,199,112204,1,0,0:0:0:0:
108,167,112287,1,0,0:0:0:0:
117,137,112371,5,0,0:0:0:0:
256,157,112538,1,0,0:0:0:0:
143,72,112705,1,0,0:0:0:0:
106,66,112788,1,0,0:0:0:0:
72,82,112871,1,0,0:0:0:0:
117,137,113038,5,0,0:0:0:0:
245,82,113205,1,0,0:0:0:0:
157,193,113372,1,0,0:0:0:0:
123,208,113455,1,0,0:0:0:0:
87,202,113538,1,0,0:0:0:0:
117,137,113705,5,0,0:0:0:0:
245,82,113872,6,0,L|299:66,1,50
256,157,114038,2,0,L|310:170,1,50
228,227,114205,2,0,L|268:265,1,50
168,273,114372,2,0,L|183:327,1,50
182,170,114538,6,0,L|166:116,1,50
256,157,114704,2,0,L|269:102,1,50
327,185,114871,2,0,L|365:144,1,50
372,246,115038,2,0,L|426:230,1,50
381,321,115205,6,0,P|320:310|265:315,1,100
249,325,115455,1,0,0:0:0:0:
214,329,115538,1,0,0:0:0:0:
179,325,115621,1,0,0:0:0:0:
146,313,115704,1,0,0:0:0:0:
117,294,115788,1,0,0:0:0:0:
94,268,115872,6,0,P|105:217|98:153,1,100
89,134,116122,1,0,0:0:0:0:
58,104,116205,1,0,0:0:0:0:
170,247,116372,5,0,0:0:0:0:
210,259,116455,1,0,0:0:0:0:
248,252,116539,2,0,P|292:229|329:195,1,100
395,122,116872,1,0,0:0:0:0:
408,100,116955,1,0,0:0:0:0:
414,76,117038,1,0,0:0:0:0:
414,51,117121,1,0,0:0:0:0:
406,28,117205,5,0,0:0:0:0:
388,74,117288,1,0,0:0:0:0:
386,124,117371,1,0,0:0:0:0:
399,172,117454,1,0,0:0:0:0:
428,213,117538,2,0,P|448:252|434:320,1,100
424,337,117788,1,0,0:0:0:0:
390,354,117872,1,0,0:0:0:0:
257,311,118038,5,0,0:0:0:0:
230,299,118121,1,0,0:0:0:0:
201,296,118204,1,0,0:0:0:0:
172,301,118287,1,0,0:0:0:0:
143,307,118371,1,0,0:0:0:0:
114,305,118454,1,0,0:0:0:0:
88,294,118538,6,0,P|76:253|94:194,1,100
118,176,118788,1,0,0:0:0:0:
153,163,118872,2,0,P|209:170|288:147,1,100
391,161,119205,6,0,L|456:168,1,50
333,96,119372,2,0,L|283:90,1,50
201,157,119538,2,0,L|266:164,1,50
143,92,119705,2,0,L|93:86,1,50
30,126,119872,6,0,L|38:164,1,25
135,232,120038,2,0,L|122:187,1,25
143,92,120205,2,0,P|182:71|243:81,1,100
337,173,120538,1,0,0:0:0:0:
473,138,120705,1,0,0:0:0:0:
462,106,120788,1,0,0:0:0:0:
445,78,120871,1,0,0:0:0:0:
420,55,120954,1,0,0:0:0:0:
391,40,121038,1,0,0:0:0:0:
358,32,121121,1,0,0:0:0:0:
325,33,121205,5,0,0:0:0:0:
291,47,121288,1,0,0:0:0:0:
254,52,121371,1,0,0:0:0:0:
217,47,121454,1,0,0:0:0:0:
182,32,121538,5,0,0:0:0:0:
142,50,121621,1,0,0:0:0:0:
121,87,121704,1,0,0:0:0:0:
126,130,121787,1,0,0:0:0:0:
155,162,121872,2,0,P|188:180|258:177,1,100
375,124,122205,6,0,P|402:165|406:214,1,100
394,251,122455,1,0,0:0:0:0:
363,268,122538,1,0,0:0:0:0:
327,271,122621,1,0,0:0:0:0:
296,248,122704,5,0,0:0:0:0:
260,241,122788,1,0,0:0:0:0:
225,238,122871,1,0,0:0:0:0:
190,242,122954,1,0,0:0:0:0:
157,262,123038,6,0,L|167:328,1,50
229,167,123205,1,0,0:0:0:0:
191,165,123288,1,0,0:0:0:0:
155,173,123371,1,0,0:0:0:0:
122,192,123454,1,0,0:0:0:0:
96,218,123538,1,0,0:0:0:0:
237,315,123705,1,0,0:0:0:0:
295,108,123872,5,0,0:0:0:0:
264,95,123955,1,0,0:0:0:0:
231,88,124038,1,0,0:0:0:0:
198,87,124121,1,0,0:0:0:0:
165,92,124205,1,0,0:0:0:0:
133,101,124288,1,0,0:0:0:0:
103,117,124372,2,0,P|128:122|152:136,1,50
184,244,124538,6,0,P|195:281|198:315,1,50
260,214,124705,2,0,P|288:240|307:268,1,50
310,150,124872,2,0,P|347:158|378:173,1,50
321,69,125038,2,0,P|358:57|392:54,1,50
165,92,125205,6,0,P|127:83|96:68,1,50
152,172,125372,2,0,P|114:183|80:186,1,50
183,248,125539,2,0,P|221:289|275:298,1,100
298,297,125789,1,0,0:0:0:0:
328,280,125872,5,0,0:0:0:0:
436,203,126038,1,0,0:0:0:0:
409,162,126121,1,0,0:0:0:0:
363,145,126204,1,0,0:0:0:0:
398,281,126372,1,0,0:0:0:0:
461,156,126538,1,0,0:0:0:0:
384,39,126705,1,0,0:0:0:0:
244,47,126872,1,0,0:0:0:0:
180,172,127038,1,0,0:0:0:0:
321,165,127205,5,0,0:0:0:0:
194,104,127372,1,0,0:0:0:0:
145,112,127455,1,0,0:0:0:0:
114,150,127538,1,0,0:0:0:0:
254,137,127705,1,0,0:0:0:0:
173,23,127872,1,0,0:0:0:0:
180,172,128039,1,0,0:0:0:0:
280,75,128205,5,0,0:0:0:0:
315,108,128288,1,0,0:0:0:0:
319,157,128371,1,0,0:0:0:0:
289,196,128454,1,0,0:0:0:0:
241,205,128538,1,0,0:0:0:0:
208,68,128705,1,0,0:0:0:0:
226,22,128788,1,0,0:0:0:0:
270,3,128871,1,0,0:0:0:0:
403,50,129038,5,0,0:0:0:0:
262,54,129205,1,0,0:0:0:0:
195,178,129372,1,0,0:0:0:0:
268,298,129538,1,0,0:0:0:0:
408,295,129705,1,0,0:0:0:0:
336,176,129872,5,0,0:0:0:0:
217,247,130038,1,0,0:0:0:0:
168,244,130121,1,0,0:0:0:0:
133,209,130204,1,0,0:0:0:0:
219,97,130372,1,0,0:0:0:0:
283,220,130538,2,0,P|338:246|405:183,1,150
418,126,130872,5,0,0:0:0:0:
267,37,131038,1,0,0:0:0:0:
115,124,131205,2,0,P|106:171|124:240,1,100
135,253,131455,1,0,0:0:0:0:
171,272,131538,5,0,0:0:0:0:
217,129,131705,1,0,0:0:0:0:
363,97,131872,1,0,0:0:0:0:
463,207,132038,1,0,0:0:0:0:
417,348,132205,1,0,0:0:0:0:
271,378,132372,1,0,0:0:0:0:
317,237,132538,5,0,0:0:0:0:
287,93,132705,1,0,0:0:0:0:
252,58,132788,1,0,0:0:0:0:
203,52,132871,1,0,0:0:0:0:
57,90,133038,1,0,0:0:0:0:
216,130,133205,1,0,0:0:0:0:
260,287,133372,1,0,0:0:0:0:
149,164,133538,5,0,0:0:0:0:
136,116,133621,1,0,0:0:0:0:
159,72,133704,1,0,0:0:0:0:
203,52,133788,1,0,0:0:0:0:
249,63,133871,1,0,0:0:0:0:
218,210,134038,1,0,0:0:0:0:
185,246,134121,1,0,0:0:0:0:
136,247,134204,1,0,0:0:0:0:
57,117,134372,1,0,0:0:0:0:
206,122,134538,5,0,0:0:0:0:
272,256,134705,1,0,0:0:0:0:
421,265,134872,1,0,0:0:0:0:
503,140,135038,1,0,0:0:0:0:
435,6,135205,5,0,0:0:0:0:
421,265,135538,1,0,0:0:0:0:
89,121,135872,1,0,0:0:0:0:
190,380,136205,1,0,0:0:0:0:
365,162,136538,5,0,0:0:0:0:
239,62,136705,1,0,0:0:0:0:
89,121,136872,1,0,0:0:0:0:
65,280,137038,1,0,0:0:0:0:
190,380,137205,1,0,0:0:0:0:
239,62,137538,5,0,0:0:0:0:
