osu file format v14

[General]
AudioFilename: audio.mp3
AudioLeadIn: 0
PreviewTime: 69872
Countdown: 0
SampleSet: Soft
StackLeniency: 0.2
Mode: 0
LetterboxInBreaks: 0
WidescreenStoryboard: 1

[Editor]
Bookmarks: 11205,21872,43205,69872,80538,91205,104538,125872
DistanceSpacing: 1.3
BeatDivisor: 4
GridSize: 4
TimelineZoom: 2.699999

[Metadata]
Title:BSPower Explosion
TitleUnicode:BSPower Explosion
Artist:Memme
ArtistUnicode:Memme
Creator:Mr HeliX
Version:TAG4 MADNESS
Source:
Tags:
BeatmapID:1795874
BeatmapSetID:678006

[Difficulty]
HPDrainRate:3
CircleSize:4
OverallDifficulty:8
ApproachRate:10
SliderMultiplier:2.1
SliderTickRate:0.5

[Events]
//Background and Video events
0,0,"maxresdefault.jpg",0,0
//Break Periods
//Storyboard Layer 0 (Background)
//Storyboard Layer 1 (Fail)
//Storyboard Layer 2 (Pass)
//Storyboard Layer 3 (Foreground)
//Storyboard Layer 4 (Overlay)
//Storyboard Sound Samples

[TimingPoints]
539,333.333333333333,4,2,0,100,1,0
22705,-50,4,2,0,100,0,0
23955,-100,4,2,0,100,0,0
27372,-50,4,2,0,100,0,0
29372,-100,4,2,0,100,0,0
33372,-50,4,2,0,100,0,0
34705,-100,4,2,0,100,0,0
38705,-50,4,2,0,100,0,0
40038,-100,4,2,0,100,0,0
41788,-50,4,2,0,100,0,0
43038,-133.333333333333,4,2,0,100,0,0
53872,-50,4,2,0,100,0,0
58372,-100,4,2,0,100,0,0
63538,-50,4,2,0,100,0,0
67122,-10,4,2,0,100,0,0
68538,-100,4,2,0,100,0,0
69872,-10,4,2,0,100,0,0
80538,-100,4,2,0,100,0,0
87788,-50,4,2,0,100,0,0
88288,-100,4,2,0,100,0,0
101872,-50,4,2,0,100,0,0
104538,-100,4,2,0,100,0,0
109455,-50,4,2,0,100,0,0
109788,-100,4,2,0,100,0,0
125872,-25,4,2,0,100,0,0
131205,-10,4,2,0,100,0,0
136455,-100,4,2,0,100,0,0

[HitObjects]
76,112,539,5,0,0:0:0:0:
128,272,705,1,0,0:0:0:0:
176,64,872,1,0,0:0:0:0:
204,228,1038,1,0,0:0:0:0:
280,32,1205,1,0,0:0:0:0:
278,200,1372,1,0,0:0:0:0:
384,24,1538,1,0,0:0:0:0:
356,189,1705,1,0,0:0:0:0:
128,272,1872,5,0,0:0:0:0:
160,312,1955,1,0,0:0:0:0:
200,340,2038,1,0,0:0:0:0:
248,356,2122,1,0,0:0:0:0:
296,360,2205,1,0,0:0:0:0:
276,192,2372,1,0,0:0:0:0:
56,152,2538,1,0,0:0:0:0:
0,212,2705,1,0,0:0:0:0:
44,280,2872,1,0,0:0:0:0:
280,112,3205,5,0,0:0:0:0:
292,76,3288,1,0,0:0:0:0:
264,40,3372,1,0,0:0:0:0:
224,72,3455,1,0,0:0:0:0:
236,112,3538,1,0,0:0:0:0:
376,208,3705,1,0,0:0:0:0:
160,168,3872,1,0,0:0:0:0:
324,292,4038,1,0,0:0:0:0:
324,292,4122,1,0,0:0:0:0:
324,292,4205,1,0,0:0:0:0:
360,100,4372,1,0,0:0:0:0:
92,64,4538,5,0,0:0:0:0:
56,96,4622,1,0,0:0:0:0:
32,136,4705,1,0,0:0:0:0:
24,180,4788,1,0,0:0:0:0:
28,228,4872,1,0,0:0:0:0:
184,176,5038,1,0,0:0:0:0:
348,144,5205,2,0,B|360:212|336:260|296:304|252:324,1,210
96,148,5872,5,0,0:0:0:0:
180,292,6038,1,0,0:0:0:0:
324,208,6205,1,0,0:0:0:0:
244,60,6372,1,0,0:0:0:0:
132,216,6538,1,0,0:0:0:0:
256,252,6705,1,0,0:0:0:0:
284,132,6872,1,0,0:0:0:0:
164,96,7038,1,0,0:0:0:0:
440,184,7205,5,0,0:0:0:0:
412,224,7288,1,0,0:0:0:0:
384,264,7372,1,0,0:0:0:0:
356,304,7455,1,0,0:0:0:0:
328,344,7538,1,0,0:0:0:0:
312,176,7705,1,0,0:0:0:0:
56,288,7872,1,0,0:0:0:0:
48,332,8038,1,0,0:0:0:0:
80,356,8205,1,0,0:0:0:0:
356,164,8538,5,0,0:0:0:0:
304,104,8622,1,0,0:0:0:0:
228,76,8705,1,0,0:0:0:0:
156,104,8788,1,0,0:0:0:0:
100,160,8872,1,0,0:0:0:0:
392,300,9038,1,0,0:0:0:0:
144,288,9205,1,0,0:0:0:0:
200,360,9372,1,0,0:0:0:0:
200,360,9455,1,0,0:0:0:0:
200,360,9538,1,0,0:0:0:0:
240,280,9705,1,0,0:0:0:0:
76,144,9872,5,0,0:0:0:0:
92,120,9955,1,0,0:0:0:0:
120,88,10038,1,0,0:0:0:0:
152,60,10122,1,0,0:0:0:0:
196,44,10205,1,0,0:0:0:0:
260,36,10288,1,0,0:0:0:0:
336,48,10372,1,0,0:0:0:0:
408,88,10455,1,0,0:0:0:0:
480,156,10538,1,0,0:0:0:0:
68,112,11205,5,0,0:0:0:0:
68,112,11205,1,0,0:0:0:0:
132,256,11372,1,0,0:0:0:0:
132,256,11455,1,0,0:0:0:0:
132,256,11538,1,0,0:0:0:0:
228,132,11705,1,0,0:0:0:0:
328,352,11872,1,0,0:0:0:0:
292,200,12038,1,0,0:0:0:0:
440,256,12205,1,0,0:0:0:0:
340,136,12372,1,0,0:0:0:0:
204,288,12538,5,0,0:0:0:0:
204,288,12538,1,0,0:0:0:0:
360,268,12705,1,0,0:0:0:0:
360,268,12788,1,0,0:0:0:0:
360,268,12872,1,0,0:0:0:0:
256,152,13038,1,0,0:0:0:0:
68,220,13205,1,0,0:0:0:0:
152,108,13372,1,0,0:0:0:0:
360,268,13538,1,0,0:0:0:0:
300,288,13622,1,0,0:0:0:0:
244,304,13705,1,0,0:0:0:0:
224,248,13788,1,0,0:0:0:0:
204,192,13872,5,0,0:0:0:0:
360,268,14038,1,0,0:0:0:0:
360,268,14122,1,0,0:0:0:0:
360,268,14205,1,0,0:0:0:0:
204,192,14372,1,0,0:0:0:0:
412,292,14538,1,0,0:0:0:0:
156,168,14705,1,0,0:0:0:0:
464,312,14872,1,0,0:0:0:0:
108,144,15038,1,0,0:0:0:0:
372,76,15205,5,0,0:0:0:0:
212,368,15372,1,0,0:0:0:0:
212,368,15455,1,0,0:0:0:0:
212,368,15538,1,0,0:0:0:0:
348,128,15705,1,0,0:0:0:0:
244,316,15872,2,0,B|332:164|332:164|304:212,1,210
144,300,16538,5,0,0:0:0:0:
144,300,16538,1,0,0:0:0:0:
144,144,16705,1,0,0:0:0:0:
144,144,16788,1,0,0:0:0:0:
144,144,16872,1,0,0:0:0:0:
336,228,17038,1,0,0:0:0:0:
316,20,17205,1,0,0:0:0:0:
144,144,17372,1,0,0:0:0:0:
336,228,17538,1,0,0:0:0:0:
316,20,17705,1,0,0:0:0:0:
144,144,17872,5,0,0:0:0:0:
144,144,17872,1,0,0:0:0:0:
316,20,18038,1,0,0:0:0:0:
316,20,18122,1,0,0:0:0:0:
316,20,18205,1,0,0:0:0:0:
144,144,18372,1,0,0:0:0:0:
336,228,18538,1,0,0:0:0:0:
168,264,18705,1,0,0:0:0:0:
308,332,18872,1,0,0:0:0:0:
364,332,18955,1,0,0:0:0:0:
404,312,19038,1,0,0:0:0:0:
428,284,19122,1,0,0:0:0:0:
440,256,19205,5,0,0:0:0:0:
320,152,19372,1,0,0:0:0:0:
320,152,19455,1,0,0:0:0:0:
320,152,19538,1,0,0:0:0:0:
264,300,19705,1,0,0:0:0:0:
152,108,19872,1,0,0:0:0:0:
176,264,20038,1,0,0:0:0:0:
44,176,20205,1,0,0:0:0:0:
108,320,20372,1,0,0:0:0:0:
268,124,20538,5,0,0:0:0:0:
268,124,20538,1,0,0:0:0:0:
176,264,20872,5,0,0:0:0:0:
176,264,20872,1,0,0:0:0:0:
348,264,21205,5,0,0:0:0:0:
348,264,21205,1,0,0:0:0:0:
76,88,21872,5,0,0:0:0:0:
196,380,22205,1,0,0:0:0:0:
268,240,22372,1,0,0:0:0:0:
340,380,22538,1,0,0:0:0:0:
480,36,22872,2,0,B|444:244|444:244|356:52|356:52|268:240|268:240|176:52|176:52|88:244|88:244|56:36|56:36|104:-16,1,1260
444,244,23038,1,0,0:0:0:0:
356,52,23205,1,0,0:0:0:0:
268,240,23372,1,0,0:0:0:0:
176,52,23538,1,0,0:0:0:0:
88,244,23705,1,0,0:0:0:0:
56,36,23872,1,0,0:0:0:0:
208,336,24205,2,0,B|256:360|256:360|308:336,1,105
404,220,24538,2,0,B|350:159|284:108|182:139|120:180,1,315
256,272,25205,1,0,0:0:0:0:
256,48,25372,1,0,0:0:0:0:
256,48,25455,1,0,0:0:0:0:
256,48,25538,1,0,0:0:0:0:
108,108,25705,1,0,0:0:0:0:
256,272,25872,1,0,0:0:0:0:
356,152,26038,1,0,0:0:0:0:
356,152,26122,1,0,0:0:0:0:
356,152,26205,1,0,0:0:0:0:
492,236,26372,1,0,0:0:0:0:
356,336,26538,2,0,B|256:392|152:328,1,210
392,28,27205,1,0,0:0:0:0:
116,25,27538,2,0,B|256:185|256:185|420:-3,1,420
392,28,28205,2,0,B|184:40|184:40|368:136|368:136|160:172|160:172|368:208|368:208|184:308|184:308|392:324|392:324|424:328,1,1260
184,40,28372,1,0,0:0:0:0:
368,136,28538,1,0,0:0:0:0:
160,172,28705,1,0,0:0:0:0:
368,208,28872,1,0,0:0:0:0:
184,308,29038,1,0,0:0:0:0:
395,324,29205,1,0,0:0:0:0:
84,228,29538,2,0,B|44:188|44:188|84:144,1,105
204,60,29872,2,0,B|280:108|328:192|280:264|212:336,1,315
148,188,30538,1,0,0:0:0:0:
392,188,30705,1,0,0:0:0:0:
392,188,30788,1,0,0:0:0:0:
392,188,30872,1,0,0:0:0:0:
304,56,31038,1,0,0:0:0:0:
222,324,31205,1,0,0:0:0:0:
188,168,31372,1,0,0:0:0:0:
188,168,31455,1,0,0:0:0:0:
188,168,31538,1,0,0:0:0:0:
76,280,31705,1,0,0:0:0:0:
188,168,31872,2,0,B|300:168|284:276|380:276,1,210
68,80,32538,1,0,0:0:0:0:
364,188,32872,1,0,0:0:0:0:
216,132,33038,1,0,0:0:0:0:
364,188,33205,1,0,0:0:0:0:
96,352,33538,2,0,B|272:236|272:236|96:352|96:352|272:236|272:236|96:352|96:352|272:236|272:236|96:352|96:352|76:364,1,1260
272,236,33705,1,0,0:0:0:0:
96,352,33872,1,0,0:0:0:0:
272,236,34038,1,0,0:0:0:0:
96,352,34205,1,0,0:0:0:0:
272,236,34372,1,0,0:0:0:0:
96,352,34538,1,0,0:0:0:0:
208,8,34872,2,0,P|260:0|324:28,1,105
124,176,35205,1,0,0:0:0:0:
272,236,35372,1,0,0:0:0:0:
272,236,35455,1,0,0:0:0:0:
272,236,35538,1,0,0:0:0:0:
252,80,35705,1,0,0:0:0:0:
124,176,35872,1,0,0:0:0:0:
272,236,36038,1,0,0:0:0:0:
272,236,36122,1,0,0:0:0:0:
272,236,36205,1,0,0:0:0:0:
144,328,36372,1,0,0:0:0:0:
240,116,36538,1,0,0:0:0:0:
176,260,36705,1,0,0:0:0:0:
176,260,36788,1,0,0:0:0:0:
176,260,36872,1,0,0:0:0:0:
264,56,37038,1,0,0:0:0:0:
200,200,37205,2,0,B|256:80|256:80|200:196,1,210
96,324,37872,1,0,0:0:0:0:
96,324,38205,1,0,0:0:0:0:
96,324,38372,1,0,0:0:0:0:
96,324,38538,1,0,0:0:0:0:
220,128,38872,2,0,B|416:56|416:56|380:264|380:264|220:128|220:128|416:56|416:56|380:264|380:264|220:128|220:128|196:112,1,1260
416,56,39038,1,0,0:0:0:0:
380,264,39205,1,0,0:0:0:0:
220,128,39372,1,0,0:0:0:0:
416,56,39538,1,0,0:0:0:0:
380,264,39705,1,0,0:0:0:0:
220,128,39872,1,0,0:0:0:0:
184,240,40205,2,0,B|140:280|140:280|188:236,1,105
184,40,40538,1,0,0:0:0:0:
56,136,40705,1,0,0:0:0:0:
56,136,40788,1,0,0:0:0:0:
56,136,40872,1,0,0:0:0:0:
268,168,41038,1,0,0:0:0:0:
80,328,41205,1,0,0:0:0:0:
232,364,41372,1,0,0:0:0:0:
232,364,41455,1,0,0:0:0:0:
232,364,41538,1,0,0:0:0:0:
120,200,41705,1,0,0:0:0:0:
372,228,41872,2,0,P|444:204|392:240,1,210
124,124,42205,2,0,P|165:60|147:121,1,210
320,348,42538,2,0,P|219:315|258:312,1,420
336,64,43205,5,0,0:0:0:0:
296,80,43288,1,0,0:0:0:0:
264,108,43372,1,0,0:0:0:0:
244,144,43455,1,0,0:0:0:0:
228,184,43538,2,0,L|216:232,3,39.3750015020371
204,264,43872,5,0,0:0:0:0:
176,300,43955,1,0,0:0:0:0:
136,320,44038,1,0,0:0:0:0:
92,316,44122,1,0,0:0:0:0:
56,292,44205,2,0,L|20:264,3,39.3750015020371
16,228,44538,5,0,0:0:0:0:
28,184,44622,1,0,0:0:0:0:
56,148,44705,1,0,0:0:0:0:
92,124,44788,1,0,0:0:0:0:
132,108,44914,2,0,L,1,39.3750015020371
176,104,44997,2,0,L,1,39.3750015020371
220,100,45080,2,0,L,1,39.3750015020371
264,104,45164,2,0,L,1,39.3750015020371
312,112,45205,2,0,L|360:120,3,39.3750015020371
384,140,45538,2,0,L|416:172,3,39.3750015020371
432,208,45872,5,0,0:0:0:0:
444,248,45955,1,0,0:0:0:0:
440,292,46038,1,0,0:0:0:0:
412,324,46122,1,0,0:0:0:0:
372,344,46205,2,0,L|324:360,3,39.3750015020371
292,360,46538,5,0,0:0:0:0:
248,356,46622,1,0,0:0:0:0:
212,328,46705,1,0,0:0:0:0:
212,284,46788,1,0,0:0:0:0:
228,244,46872,2,0,L|256:196,3,39.3750015020371
272,172,47205,5,0,0:0:0:0:
276,128,47288,1,0,0:0:0:0:
260,88,47372,1,0,0:0:0:0:
228,60,47455,1,0,0:0:0:0:
184,48,47580,2,0,L,1,39.3750015020371
136,60,47664,2,0,L,1,39.3750015020371
96,80,47747,2,0,L,1,39.3750015020371
68,112,47830,2,0,L,1,39.3750015020371
48,152,47872,2,0,L|36:192,3,39.3750015020371
36,232,48205,2,0,L|44:280,3,39.3750015020371
64,308,48538,5,0,0:0:0:0:
96,336,48622,1,0,0:0:0:0:
140,344,48705,1,0,0:0:0:0:
184,336,48788,1,0,0:0:0:0:
224,316,48872,2,0,L|280:280,3,39.3750015020371
292,268,49205,5,0,0:0:0:0:
316,232,49288,1,0,0:0:0:0:
316,188,49372,1,0,0:0:0:0:
300,148,49455,1,0,0:0:0:0:
272,116,49538,2,0,L|236:72,3,39.3750015020371
212,56,49872,5,0,0:0:0:0:
168,48,49955,1,0,0:0:0:0:
124,56,50038,1,0,0:0:0:0:
92,84,50122,1,0,0:0:0:0:
76,124,50247,2,0,L,1,39.3750015020371
84,164,50330,2,0,L,1,39.3750015020371
104,204,50414,2,0,L,1,39.3750015020371
144,220,50497,2,0,L,1,39.3750015020371
184,220,50538,2,0,L|224:216,3,39.3750015020371
256,248,50872,2,0,L|304:252,3,39.3750015020371
356,316,51205,6,0,L|408:332,3,39.3750015020371
452,260,51538,2,0,L|400:244,3,39.3750015020371
372,236,51872,5,0,0:0:0:0:
332,224,51955,5,0,0:0:0:0:
296,208,52038,5,0,0:0:0:0:
256,196,52162,6,0,L,1,39.3750015020371
216,180,52246,6,0,L,1,39.3750015020371
176,168,52329,6,0,L,1,39.3750015020371
136,152,52372,5,0,0:0:0:0:
96,140,52455,5,0,0:0:0:0:
56,124,52538,6,0,L|16:108,3,39.3750015020371
36,52,52872,2,0,L|84:36,3,39.3750015020371
156,40,53205,1,0,0:0:0:0:
344,100,53372,1,0,0:0:0:0:
204,224,53538,1,0,0:0:0:0:
92,160,53872,5,0,0:0:0:0:
320,200,54038,2,0,B|356:176|356:176|320:200,1,52.5
320,200,54122,2,0,B|320:244|320:244|320:200,1,52.5
320,200,54205,2,0,B|280:176|280:176|320:200,1,52.5
164,272,54372,1,0,0:0:0:0:
280,40,54538,5,0,0:0:0:0:
88,128,54705,2,0,B|136:124|136:124|88:128,1,52.5
88,128,54789,2,0,B|68:168|68:168|88:128,1,52.5
88,128,54872,2,0,B|60:88|60:88|88:128,1,52.5
164,272,55038,1,0,0:0:0:0:
412,196,55205,5,0,0:0:0:0:
284,304,55372,5,0,0:0:0:0:
284,304,55455,5,0,0:0:0:0:
284,304,55538,5,0,0:0:0:0:
276,136,55705,1,0,0:0:0:0:
48,200,55872,1,0,0:0:0:0:
212,232,56038,5,0,0:0:0:0:
212,232,56122,5,0,0:0:0:0:
212,232,56205,5,0,0:0:0:0:
164,72,56372,1,0,0:0:0:0:
388,260,56538,5,0,0:0:0:0:
212,232,56705,2,0,B|240:272|240:272|212:232,1,52.5
212,232,56789,2,0,B|164:236|164:236|212:232,1,52.5
212,232,56872,2,0,B|232:188|232:188|212:232,1,52.5
164,72,57038,1,0,0:0:0:0:
12,184,57205,5,0,0:0:0:0:
164,69,57372,2,0,B|156:20|156:20|164:69,1,52.5
164,69,57456,2,0,B|208:88|208:88|164:69,1,52.5
164,69,57539,2,0,B|124:100|124:100|164:69,1,52.5
212,232,57705,1,0,0:0:0:0:
444,112,58038,5,0,0:0:0:0:
56,220,58205,1,0,0:0:0:0:
372,220,58538,2,0,L|404:284,1,52.5
328,308,58705,2,0,L|300:248,1,52.5
228,280,58872,2,0,L|252:340,1,52.5
184,372,59038,2,0,L|160:312,1,52.5
112,264,59205,5,0,0:0:0:0:
88,108,59372,1,0,0:0:0:0:
228,36,59538,5,0,0:0:0:0:
280,48,59622,1,0,0:0:0:0:
324,76,59705,5,0,0:0:0:0:
360,112,59788,1,0,0:0:0:0:
384,160,59872,5,0,0:0:0:0:
368,316,60038,1,0,0:0:0:0:
248,156,60205,5,0,0:0:0:0:
160,288,60372,1,0,0:0:0:0:
48,176,60538,5,0,0:0:0:0:
68,128,60622,1,0,0:0:0:0:
104,88,60705,5,0,0:0:0:0:
148,60,60788,1,0,0:0:0:0:
200,48,60872,5,0,0:0:0:0:
340,120,61038,1,0,0:0:0:0:
132,216,61205,5,0,0:0:0:0:
260,312,61372,1,0,0:0:0:0:
392,228,61538,2,0,L|400:288,1,52.5
296,188,61705,2,0,L|300:248,1,52.5
364,104,61872,1,0,0:0:0:0:
212,136,62038,1,0,0:0:0:0:
364,8,62205,5,0,0:0:0:0:
208,40,62372,1,0,0:0:0:0:
84,136,62538,5,0,0:0:0:0:
60,184,62622,1,0,0:0:0:0:
60,236,62705,1,0,0:0:0:0:
80,284,62788,5,0,0:0:0:0:
116,324,62872,1,0,0:0:0:0:
164,344,62955,5,0,0:0:0:0:
216,352,63038,5,0,0:0:0:0:
176,116,63205,5,0,0:0:0:0:
292,224,63372,1,0,0:0:0:0:
404,48,63538,2,0,B|436:100|436:100|380:132|380:132|348:76|348:76|404:48|404:48|436:100|436:100|380:132|380:132|348:76|348:76|404:48,1,420
208,116,64038,1,0,0:0:0:0:
184,316,64205,5,0,0:0:0:0:
84,208,64372,1,0,0:0:0:0:
308,220,64538,2,0,B|372:280|372:280|304:312|304:312|308:220|308:220|372:280|372:280|304:312|304:312|308:220,1,420
192,136,65038,1,0,0:0:0:0:
144,304,65205,5,0,0:0:0:0:
328,292,65372,1,0,0:0:0:0:
192,136,65538,2,0,B|208:44|104:32|88:140|192:136|192:136|208:44|104:32|88:140|192:136,1,420
408,248,66205,5,0,0:0:0:0:
264,292,66372,1,0,0:0:0:0:
360,52,66538,2,0,B|288:140|288:140|360:52|360:52|288:140|288:140|364:48,1,420
184,96,67038,1,0,0:0:0:0:
336,192,67205,6,0,B|256:112|256:112|176:192|176:192|256:272|256:272|336:192|336:192|256:112|256:112|176:192|176:192|256:272|256:272|336:192|336:192|256:112|256:112|176:192|176:192|256:272|256:272|336:192|336:192|256:112|256:112|176:192|176:192|256:272|256:272|336:192|336:192|256:112|256:112|176:192|176:192|256:272|256:272|336:192|336:192|256:112|256:112|176:192|176:192|256:272|256:272|336:192|336:192|256:112|256:112|176:192|176:192|256:272|256:272|336:192|336:192|256:112|256:112|176:192|176:192|256:272|256:272|336:192|336:192|256:112|256:112|176:192|176:192|256:272|256:272|336:192|336:192|256:112|256:112|176:192|176:192|256:272|256:272|336:192|336:192|344:184,1,4200
256,192,67955,12,0,68372,0:0:0:0:
256,192,68538,5,0,0:0:0:0:
188,92,68705,1,0,0:0:0:0:
256,52,68788,1,0,0:0:0:0:
324,92,68872,1,0,0:0:0:0:
84,192,69038,5,0,0:0:0:0:
112,236,69122,5,0,0:0:0:0:
156,268,69205,5,0,0:0:0:0:
204,288,69288,5,0,0:0:0:0:
256,296,69372,5,0,0:0:0:0:
308,288,69455,5,0,0:0:0:0:
356,272,69538,5,0,0:0:0:0:
400,240,69622,5,0,0:0:0:0:
432,196,69705,5,0,0:0:0:0:
136,116,69872,5,0,0:0:0:0:
320,192,70038,1,0,0:0:0:0:
320,192,70122,1,0,0:0:0:0:
320,192,70205,1,0,0:0:0:0:
172,220,70372,1,0,0:0:0:0:
240,140,70538,6,0,P|430:347|245:217,1,1050
248,226,70705,2,0,P|40:416|170:231,1,1050
161,234,70872,2,0,P|-29:26|155:156,1,1050
152,147,71038,2,0,P|359:-43|229:141,1,1050
238,138,71205,5,0,0:0:0:0:
208,312,71372,1,0,0:0:0:0:
208,312,71455,1,0,0:0:0:0:
208,312,71538,1,0,0:0:0:0:
376,248,71705,1,0,0:0:0:0:
238,138,71872,6,0,P|-37:170|147:204,1,1050
124,208,72039,2,0,P|156:483|190:298,1,1050
196,320,72206,2,0,P|471:287|286:253,1,1050
313,245,72372,2,0,P|280:-30|246:154,1,1050
238,127,72538,5,0,0:0:0:0:
52,256,72705,1,0,0:0:0:0:
96,240,72788,1,0,0:0:0:0:
140,224,72872,1,0,0:0:0:0:
340,156,73038,1,0,0:0:0:0:
272,236,73205,6,0,P|8:163|219:178,1,1050
115,139,73372,2,0,P|165:407|86:211,1,1050
97,322,73538,2,0,P|298:137|173:308,1,1050
261,239,73705,2,0,P|-7:289|188:210,1,1050
77,221,73872,6,0,P|198:-23|143:180,1,1050
201,85,74038,1,0,0:0:0:0:
201,85,74122,1,0,0:0:0:0:
201,85,74205,1,0,0:0:0:0:
348,140,74372,1,0,0:0:0:0:
256,192,74538,2,0,B|256:480|256:480|496:480|496:480|730:480|730:480|730:-105|730:-105|256:-105|256:-105|256:176|256:176|256:288,1,2100
336,228,75205,5,0,0:0:0:0:
284,100,75372,1,0,0:0:0:0:
284,100,75455,1,0,0:0:0:0:
284,100,75538,1,0,0:0:0:0:
204,288,75705,1,0,0:0:0:0:
128,162,75872,6,0,P|-49:-71|267:115,1,1050
283,99,76038,2,0,P|248:-192|149:162,1,1050
128,162,76205,2,0,P|-49:-71|267:115,1,1050
283,99,76372,2,0,P|248:-192|149:162,1,1050
127,162,76538,5,0,0:0:0:0:
196,296,76705,1,0,0:0:0:0:
196,296,76788,1,0,0:0:0:0:
196,296,76872,1,0,0:0:0:0:
283,99,77038,1,0,0:0:0:0:
432,224,77205,6,0,P|456:-55|387:123,1,1050
392,41,77372,2,0,P|367:320|436:141,1,1050
432,224,77538,2,0,P|456:-55|387:123,1,1050
392,41,77705,2,0,P|367:320|436:141,1,1050
296,156,77872,5,0,0:0:0:0:
172,228,78038,1,0,0:0:0:0:
172,228,78122,1,0,0:0:0:0:
172,228,78205,1,0,0:0:0:0:
152,40,78372,1,0,0:0:0:0:
276,88,78538,6,0,P|229:-227|144:134,1,1050
142,134,78705,2,0,P|-48:390|268:193,1,1050
269,195,78872,2,0,P|228:-121|136:239,1,1050
135,239,79038,2,0,P|-77:477|255:309,1,1050
256,310,79205,5,0,0:0:0:0:
200,208,79538,1,0,0:0:0:0:
140,108,79872,1,0,0:0:0:0:
416,272,80205,5,0,0:0:0:0:
312,288,80372,1,0,0:0:0:0:
400,12,80538,5,0,0:0:0:0:
320,20,80622,5,0,0:0:0:0:
244,40,80705,5,0,0:0:0:0:
172,72,80788,5,0,0:0:0:0:
120,132,80872,5,0,0:0:0:0:
88,204,80955,5,0,0:0:0:0:
84,284,81038,5,0,0:0:0:0:
112,360,81122,5,0,0:0:0:0:
164,248,81205,5,0,0:0:0:0:
196,340,81288,5,0,0:0:0:0:
244,208,81372,5,0,0:0:0:0:
280,352,81455,5,0,0:0:0:0:
324,168,81538,5,0,0:0:0:0:
364,360,81622,5,0,0:0:0:0:
404,132,81705,5,0,0:0:0:0:
444,368,81788,5,0,0:0:0:0:
488,96,81872,5,0,0:0:0:0:
376,32,81955,5,0,0:0:0:0:
248,36,82038,5,0,0:0:0:0:
136,80,82122,5,0,0:0:0:0:
28,172,82205,5,0,0:0:0:0:
132,240,82288,5,0,0:0:0:0:
252,268,82372,5,0,0:0:0:0:
384,260,82455,5,0,0:0:0:0:
484,208,82538,5,0,0:0:0:0:
448,184,82622,5,0,0:0:0:0:
416,168,82705,5,0,0:0:0:0:
376,168,82788,5,0,0:0:0:0:
344,176,82872,5,0,0:0:0:0:
308,176,82955,5,0,0:0:0:0:
276,168,83038,5,0,0:0:0:0:
252,144,83122,5,0,0:0:0:0:
248,112,83205,5,0,0:0:0:0:
192,244,83288,5,0,0:0:0:0:
72,192,83372,5,0,0:0:0:0:
128,64,83455,5,0,0:0:0:0:
104,292,83538,5,0,0:0:0:0:
32,104,83622,5,0,0:0:0:0:
224,20,83705,5,0,0:0:0:0:
292,216,83788,5,0,0:0:0:0:
248,112,83872,5,0,0:0:0:0:
268,312,83955,5,0,0:0:0:0:
368,152,84038,5,0,0:0:0:0:
192,224,84122,5,0,0:0:0:0:
380,260,84205,5,0,0:0:0:0:
248,112,84288,5,0,0:0:0:0:
268,312,84372,5,0,0:0:0:0:
368,152,84455,5,0,0:0:0:0:
192,224,84538,5,0,0:0:0:0:
368,340,84622,5,0,0:0:0:0:
208,176,84705,5,0,0:0:0:0:
408,260,84788,5,0,0:0:0:0:
216,128,84872,5,0,0:0:0:0:
440,160,84955,5,0,0:0:0:0:
208,80,85038,5,0,0:0:0:0:
460,32,85122,5,0,0:0:0:0:
196,40,85205,5,0,0:0:0:0:
156,48,85288,5,0,0:0:0:0:
120,68,85372,5,0,0:0:0:0:
84,108,85455,5,0,0:0:0:0:
64,164,85538,5,0,0:0:0:0:
64,244,85622,5,0,0:0:0:0:
112,320,85705,5,0,0:0:0:0:
208,368,85788,5,0,0:0:0:0:
328,360,85872,5,0,0:0:0:0:
456,184,85955,5,0,0:0:0:0:
240,164,86038,5,0,0:0:0:0:
352,240,86122,5,0,0:0:0:0:
172,24,86205,5,0,0:0:0:0:
112,300,86288,5,0,0:0:0:0:
284,80,86372,5,0,0:0:0:0:
228,264,86455,5,0,0:0:0:0:
88,136,86538,5,0,0:0:0:0:
328,360,86622,5,0,0:0:0:0:
512,264,86705,5,0,0:0:0:0:
336,152,86788,5,0,0:0:0:0:
128,212,86872,5,0,0:0:0:0:
408,364,86955,5,0,0:0:0:0:
412,44,87038,5,0,0:0:0:0:
128,212,87122,5,0,0:0:0:0:
336,152,87205,5,0,0:0:0:0:
376,240,87288,5,0,0:0:0:0:
176,152,87372,5,0,0:0:0:0:
136,240,87455,5,0,0:0:0:0:
344,104,87538,5,0,0:0:0:0:
416,268,87622,5,0,0:0:0:0:
168,104,87705,5,0,0:0:0:0:
96,268,87789,5,0,0:0:0:0:
352,48,87872,5,0,0:0:0:0:
464,300,87955,5,0,0:0:0:0:
160,48,88038,5,0,0:0:0:0:
48,300,88121,5,0,0:0:0:0:
384,0,88205,5,0,0:0:0:0:
512,320,88288,5,0,0:0:0:0:
128,0,88372,5,0,0:0:0:0:
0,320,88455,5,0,0:0:0:0:
488,164,88538,5,0,0:0:0:0:
24,220,88622,5,0,0:0:0:0:
420,216,88705,5,0,0:0:0:0:
92,168,88788,5,0,0:0:0:0:
360,152,88872,5,0,0:0:0:0:
152,232,88955,5,0,0:0:0:0:
296,204,89038,5,0,0:0:0:0:
216,180,89122,5,0,0:0:0:0:
280,128,89205,5,0,0:0:0:0:
232,256,89288,5,0,0:0:0:0:
188,88,89372,5,0,0:0:0:0:
324,296,89455,5,0,0:0:0:0:
356,56,89538,5,0,0:0:0:0:
156,328,89622,5,0,0:0:0:0:
76,0,89705,5,0,0:0:0:0:
436,384,89788,5,0,0:0:0:0:
40,332,89872,5,0,0:0:0:0:
80,252,89955,5,0,0:0:0:0:
140,180,90038,5,0,0:0:0:0:
212,128,90122,5,0,0:0:0:0:
300,128,90205,5,0,0:0:0:0:
372,180,90288,5,0,0:0:0:0:
432,252,90372,5,0,0:0:0:0:
472,332,90455,5,0,0:0:0:0:
220,292,90538,5,0,0:0:0:0:
256,232,90705,1,0,0:0:0:0:
292,292,90872,1,0,0:0:0:0:
40,272,91205,5,0,0:0:0:0:
344,192,91538,1,0,0:0:0:0:
248,316,91705,1,0,0:0:0:0:
240,152,91872,2,0,B|328:72|432:136,1,210
104,124,92538,6,0,L|76:128,1,26.25
240,120,92705,2,0,L|272:112,1,26.25
160,224,92872,2,0,L|136:240,1,26.25
296,224,93038,2,0,L|336:200,1,26.25
232,332,93205,1,0,0:0:0:0:
432,260,93372,1,0,0:0:0:0:
432,260,93455,1,0,0:0:0:0:
432,260,93538,1,0,0:0:0:0:
76,188,93872,5,0,0:0:0:0:
376,96,94205,1,0,0:0:0:0:
432,260,94372,1,0,0:0:0:0:
308,164,94538,2,0,P|288:64|368:0,1,210
88,232,95205,5,0,0:0:0:0:
88,232,95205,1,0,0:0:0:0:
400,184,95538,5,0,0:0:0:0:
400,184,95538,1,0,0:0:0:0:
140,8,95872,5,0,0:0:0:0:
140,8,95872,1,0,0:0:0:0:
312,272,96205,5,0,0:0:0:0:
312,272,96205,1,0,0:0:0:0:
176,304,96372,1,0,0:0:0:0:
176,304,96372,1,0,0:0:0:0:
76,76,96538,5,0,0:0:0:0:
76,76,96538,1,0,0:0:0:0:
104,232,96705,1,0,0:0:0:0:
104,232,96705,1,0,0:0:0:0:
192,56,96872,5,0,0:0:0:0:
192,56,96872,1,0,0:0:0:0:
200,212,97038,1,0,0:0:0:0:
200,212,97038,1,0,0:0:0:0:
308,40,97205,5,0,0:0:0:0:
308,40,97205,1,0,0:0:0:0:
296,196,97372,1,0,0:0:0:0:
296,196,97372,1,0,0:0:0:0:
424,48,97538,5,0,0:0:0:0:
424,48,97538,1,0,0:0:0:0:
380,200,97705,1,0,0:0:0:0:
380,200,97705,1,0,0:0:0:0:
168,52,97872,5,0,0:0:0:0:
316,100,98038,1,0,0:0:0:0:
272,252,98205,1,0,0:0:0:0:
120,204,98372,1,0,0:0:0:0:
316,100,98538,1,0,0:0:0:0:
168,52,98705,1,0,0:0:0:0:
168,52,98788,1,0,0:0:0:0:
168,52,98872,1,0,0:0:0:0:
404,300,99205,5,0,0:0:0:0:
404,300,99205,1,0,0:0:0:0:
308,176,99372,5,0,0:0:0:0:
308,176,99372,1,0,0:0:0:0:
460,220,99538,5,0,0:0:0:0:
460,220,99538,1,0,0:0:0:0:
272,284,99705,5,0,0:0:0:0:
272,284,99705,1,0,0:0:0:0:
308,176,99872,5,0,0:0:0:0:
308,176,99872,1,0,0:0:0:0:
112,224,100038,5,0,0:0:0:0:
112,224,100038,1,0,0:0:0:0:
272,284,100205,5,0,0:0:0:0:
272,284,100205,1,0,0:0:0:0:
200,112,100372,5,0,0:0:0:0:
200,112,100372,1,0,0:0:0:0:
420,208,100538,5,0,0:0:0:0:
272,284,100705,1,0,0:0:0:0:
284,128,100872,1,0,0:0:0:0:
420,208,101038,1,0,0:0:0:0:
272,284,101205,1,0,0:0:0:0:
296,32,101372,1,0,0:0:0:0:
296,32,101455,1,0,0:0:0:0:
296,32,101538,1,0,0:0:0:0:
112,288,101872,5,0,0:0:0:0:
304,260,102038,2,0,B|333:228|333:228|304:260,1,52.5
304,260,102122,2,0,B|313:302|313:302|304:260,1,52.5
304,260,102205,2,0,B|259:245|259:245|304:260,1,52.5
196,168,102372,1,0,0:0:0:0:
432,140,102538,5,0,0:0:0:0:
308,44,102705,2,0,B|344:20|344:20|308:44,1,52.5
308,44,102789,2,0,B|308:88|308:88|308:44,1,52.5
308,44,102872,2,0,B|268:20|268:20|308:44,1,52.5
196,168,103038,1,0,0:0:0:0:
388,224,103205,5,0,0:0:0:0:
196,168,103372,2,0,B|232:144|232:144|196:168,1,52.5
196,168,103456,2,0,B|196:212|196:212|196:168,1,52.5
196,168,103539,2,0,B|156:144|156:144|196:168,1,52.5
248,284,103705,1,0,0:0:0:0:
84,76,103872,5,0,0:0:0:0:
268,60,104038,2,0,B|295:93|295:93|268:60,1,52.5
268,60,104122,2,0,B|224:64|224:64|268:60,1,52.5
268,60,104205,2,0,B|287:17|287:17|268:60,1,52.5
240,184,104372,1,0,0:0:0:0:
476,116,104538,5,0,0:0:0:0:
436,200,104622,5,0,0:0:0:0:
392,280,104705,5,0,0:0:0:0:
348,360,104789,5,0,0:0:0:0:
328,24,104872,5,0,0:0:0:0:
315,116,104956,5,0,0:0:0:0:
298,205,105039,5,0,0:0:0:0:
281,295,105123,5,0,0:0:0:0:
164,0,105205,5,0,0:0:0:0:
177,92,105289,5,0,0:0:0:0:
186,183,105372,5,0,0:0:0:0:
194,274,105456,5,0,0:0:0:0:
0,40,105538,5,0,0:0:0:0:
38,122,105622,5,0,0:0:0:0:
73,207,105705,5,0,0:0:0:0:
107,292,105789,5,0,0:0:0:0:
292,164,105872,5,0,0:0:0:0:
304,216,105955,5,0,0:0:0:0:
256,204,106038,5,0,0:0:0:0:
240,144,106122,5,0,0:0:0:0:
344,172,106205,5,0,0:0:0:0:
268,260,106288,5,0,0:0:0:0:
192,224,106372,5,0,0:0:0:0:
312,104,106455,5,0,0:0:0:0:
344,264,106538,5,0,0:0:0:0:
212,80,106622,5,0,0:0:0:0:
244,320,106705,5,0,0:0:0:0:
412,156,106788,5,0,0:0:0:0:
108,248,106872,5,0,0:0:0:0:
344,36,106955,5,0,0:0:0:0:
388,344,107038,5,0,0:0:0:0:
108,248,107122,5,0,0:0:0:0:
460,40,107205,5,0,0:0:0:0:
488,124,107288,5,0,0:0:0:0:
484,212,107372,5,0,0:0:0:0:
428,280,107455,5,0,0:0:0:0:
344,308,107538,5,0,0:0:0:0:
260,280,107622,5,0,0:0:0:0:
224,200,107705,5,0,0:0:0:0:
248,116,107788,5,0,0:0:0:0:
204,36,107872,5,0,0:0:0:0:
116,16,107955,5,0,0:0:0:0:
48,72,108038,5,0,0:0:0:0:
24,160,108122,5,0,0:0:0:0:
76,232,108205,5,0,0:0:0:0:
148,280,108288,5,0,0:0:0:0:
236,292,108372,5,0,0:0:0:0:
316,256,108455,5,0,0:0:0:0:
380,192,108538,5,0,0:0:0:0:
400,296,108622,5,0,0:0:0:0:
304,136,108705,5,0,0:0:0:0:
288,344,108788,5,0,0:0:0:0:
232,80,108872,5,0,0:0:0:0:
132,316,108955,5,0,0:0:0:0:
184,8,109038,5,0,0:0:0:0:
0,244,109122,5,0,0:0:0:0:
16,36,109205,5,0,0:0:0:0:
60,100,109288,5,0,0:0:0:0:
116,156,109372,5,0,0:0:0:0:
180,200,109455,5,0,0:0:0:0:
252,232,109538,5,0,0:0:0:0:
328,240,109622,5,0,0:0:0:0:
400,232,109705,5,0,0:0:0:0:
468,208,109788,5,0,0:0:0:0:
92,40,109872,5,0,0:0:0:0:
392,40,109955,5,0,0:0:0:0:
392,128,110038,5,0,0:0:0:0:
92,128,110122,5,0,0:0:0:0:
92,216,110205,5,0,0:0:0:0:
392,216,110288,5,0,0:0:0:0:
392,304,110372,5,0,0:0:0:0:
92,304,110455,5,0,0:0:0:0:
392,304,110538,5,0,0:0:0:0:
92,216,110622,5,0,0:0:0:0:
392,128,110705,5,0,0:0:0:0:
92,40,110788,5,0,0:0:0:0:
392,40,110872,5,0,0:0:0:0:
92,128,110955,5,0,0:0:0:0:
392,216,111038,5,0,0:0:0:0:
92,304,111122,5,0,0:0:0:0:
256,132,111205,5,0,0:0:0:0:
300,152,111288,5,0,0:0:0:0:
316,192,111372,5,0,0:0:0:0:
300,236,111455,5,0,0:0:0:0:
256,260,111538,5,0,0:0:0:0:
212,236,111622,5,0,0:0:0:0:
196,192,111705,5,0,0:0:0:0:
212,152,111788,5,0,0:0:0:0:
256,22,111872,5,0,0:0:0:0:
380,79,111955,5,0,0:0:0:0:
425,192,112039,5,0,0:0:0:0:
380,316,112122,5,0,0:0:0:0:
256,383,112205,5,0,0:0:0:0:
131,316,112289,5,0,0:0:0:0:
86,192,112372,5,0,0:0:0:0:
131,79,112455,5,0,0:0:0:0:
256,22,112538,5,0,0:0:0:0:
256,192,112705,1,0,0:0:0:0:
256,192,112788,1,0,0:0:0:0:
256,192,112872,1,0,0:0:0:0:
86,192,113038,1,0,0:0:0:0:
416,192,113205,5,0,0:0:0:0:
256,192,113372,1,0,0:0:0:0:
256,192,113455,1,0,0:0:0:0:
256,192,113538,1,0,0:0:0:0:
256,352,113705,1,0,0:0:0:0:
144,120,113872,5,0,0:0:0:0:
200,72,113955,1,0,0:0:0:0:
256,28,114038,1,0,0:0:0:0:
312,72,114122,1,0,0:0:0:0:
368,120,114205,1,0,0:0:0:0:
256,192,114372,1,0,0:0:0:0:
92,264,114538,5,0,0:0:0:0:
416,264,114705,1,0,0:0:0:0:
92,352,114872,1,0,0:0:0:0:
416,352,115038,1,0,0:0:0:0:
244,156,115205,5,0,0:0:0:0:
276,188,115288,5,0,0:0:0:0:
244,216,115372,5,0,0:0:0:0:
212,188,115455,5,0,0:0:0:0:
300,128,115538,5,0,0:0:0:0:
300,244,115621,5,0,0:0:0:0:
184,244,115705,5,0,0:0:0:0:
184,128,115788,5,0,0:0:0:0:
244,60,115871,5,0,0:0:0:0:
368,184,115955,5,0,0:0:0:0:
244,316,116038,5,0,0:0:0:0:
112,188,116121,5,0,0:0:0:0:
104,48,116205,5,0,0:0:0:0:
384,48,116288,5,0,0:0:0:0:
384,344,116371,5,0,0:0:0:0:
104,344,116455,5,0,0:0:0:0:
448,116,116538,5,0,0:0:0:0:
440,184,116622,1,0,0:0:0:0:
432,252,116705,1,0,0:0:0:0:
424,320,116789,1,0,0:0:0:0:
328,272,116872,5,0,0:0:0:0:
320,204,116955,1,0,0:0:0:0:
316,136,117038,1,0,0:0:0:0:
312,68,117122,1,0,0:0:0:0:
232,168,117205,5,0,0:0:0:0:
192,224,117288,1,0,0:0:0:0:
148,276,117372,1,0,0:0:0:0:
104,328,117455,1,0,0:0:0:0:
24,132,117538,5,0,0:0:0:0:
88,112,117622,1,0,0:0:0:0:
152,96,117705,1,0,0:0:0:0:
216,80,117788,1,0,0:0:0:0:
488,68,117872,5,0,0:0:0:0:
496,332,117955,5,0,0:0:0:0:
412,104,118038,5,0,0:0:0:0:
420,292,118122,5,0,0:0:0:0:
344,316,118205,5,0,0:0:0:0:
332,88,118288,5,0,0:0:0:0:
280,376,118372,5,0,0:0:0:0:
260,40,118455,5,0,0:0:0:0:
188,80,118538,5,0,0:0:0:0:
204,336,118622,5,0,0:0:0:0:
140,152,118705,5,0,0:0:0:0:
144,276,118788,5,0,0:0:0:0:
108,348,118872,5,0,0:0:0:0:
76,100,118955,5,0,0:0:0:0:
40,384,119038,5,0,0:0:0:0:
4,68,119122,5,0,0:0:0:0:
460,192,119205,5,0,0:0:0:0:
36,192,119288,5,0,0:0:0:0:
408,192,119372,5,0,0:0:0:0:
88,192,119455,5,0,0:0:0:0:
360,192,119538,5,0,0:0:0:0:
136,192,119622,5,0,0:0:0:0:
320,192,119705,5,0,0:0:0:0:
176,192,119788,5,0,0:0:0:0:
248,132,119872,5,0,0:0:0:0:
248,252,119955,5,0,0:0:0:0:
248,92,120038,5,0,0:0:0:0:
248,288,120122,5,0,0:0:0:0:
248,48,120205,5,0,0:0:0:0:
248,332,120288,5,0,0:0:0:0:
248,0,120372,5,0,0:0:0:0:
248,380,120455,5,0,0:0:0:0:
396,192,120538,5,0,0:0:0:0:
116,192,120622,5,0,0:0:0:0:
364,112,120705,5,0,0:0:0:0:
148,272,120789,5,0,0:0:0:0:
304,52,120871,5,0,0:0:0:0:
208,332,120955,5,0,0:0:0:0:
224,28,121038,5,0,0:0:0:0:
288,356,121122,5,0,0:0:0:0:
144,40,121205,5,0,0:0:0:0:
368,344,121289,5,0,0:0:0:0:
76,84,121371,5,0,0:0:0:0:
436,300,121455,5,0,0:0:0:0:
48,160,121538,5,0,0:0:0:0:
464,224,121622,5,0,0:0:0:0:
60,240,121705,5,0,0:0:0:0:
452,144,121789,5,0,0:0:0:0:
96,312,121872,5,0,0:0:0:0:
96,312,121955,1,0,0:0:0:0:
340,36,122038,5,0,0:0:0:0:
340,36,122122,1,0,0:0:0:0:
356,240,122205,5,0,0:0:0:0:
356,240,122288,1,0,0:0:0:0:
116,112,122372,5,0,0:0:0:0:
116,112,122455,1,0,0:0:0:0:
284,376,122538,5,0,0:0:0:0:
284,376,122622,1,0,0:0:0:0:
504,192,122705,5,0,0:0:0:0:
504,192,122788,1,0,0:0:0:0:
204,216,122872,5,0,0:0:0:0:
204,216,122955,1,0,0:0:0:0:
476,16,123038,5,0,0:0:0:0:
476,16,123122,1,0,0:0:0:0:
388,272,123205,5,0,0:0:0:0:
216,72,123288,5,0,0:0:0:0:
132,340,123372,5,0,0:0:0:0:
296,176,123455,5,0,0:0:0:0:
80,32,123538,5,0,0:0:0:0:
396,144,123622,5,0,0:0:0:0:
60,188,123705,5,0,0:0:0:0:
244,316,123788,5,0,0:0:0:0:
320,28,123872,5,0,0:0:0:0:
172,180,123955,5,0,0:0:0:0:
476,364,124038,5,0,0:0:0:0:
404,64,124122,5,0,0:0:0:0:
120,248,124205,5,0,0:0:0:0:
384,300,124288,5,0,0:0:0:0:
84,108,124372,5,0,0:0:0:0:
500,184,124455,5,0,0:0:0:0:
332,224,124538,5,0,0:0:0:0:
64,344,124622,5,0,0:0:0:0:
180,104,124705,5,0,0:0:0:0:
232,288,124788,5,0,0:0:0:0:
252,168,124872,5,0,0:0:0:0:
60,196,124955,5,0,0:0:0:0:
496,92,125038,5,0,0:0:0:0:
468,260,125122,5,0,0:0:0:0:
264,16,125205,5,0,0:0:0:0:
332,144,125538,5,0,0:0:0:0:
412,16,125705,1,0,0:0:0:0:
280,76,125872,5,0,0:0:0:0:
112,184,126038,1,0,0:0:0:0:
112,184,126122,1,0,0:0:0:0:
112,184,126205,1,0,0:0:0:0:
248,264,126372,1,0,0:0:0:0:
408,156,126538,2,0,P|504:294|352:224,1,420
354,258,126705,2,0,P|186:233|341:171,1,420
315,149,126872,2,0,P|388:301|249:207,1,420
246,241,127038,2,0,P|77:225|229:154,1,420
202,134,127205,5,0,0:0:0:0:
364,32,127372,1,0,0:0:0:0:
364,32,127455,1,0,0:0:0:0:
364,32,127538,1,0,0:0:0:0:
232,32,127705,1,0,0:0:0:0:
460,124,127872,2,0,P|447:292|374:142,1,420
353,169,128038,2,0,P|340:337|267:187,1,420
246,216,128205,2,0,P|233:384|160:234,1,420
140,257,128372,2,0,P|127:425|54:275,1,420
34,302,128538,5,0,0:0:0:0:
72,136,128705,1,0,0:0:0:0:
72,136,128788,1,0,0:0:0:0:
72,136,128872,1,0,0:0:0:0:
200,156,129038,1,0,0:0:0:0:
224,44,129205,2,0,P|339:-78|302:83,1,420
335,75,129372,2,0,P|501:49|372:154,1,420
403,167,129538,2,0,P|551:247|384:252,1,420
401,282,129705,2,0,P|420:449|320:316,1,420
305,347,129872,6,0,P|227:497|218:330,1,420
189,347,130038,2,0,P|172:179|270:314,1,420
284,280,130205,2,0,P|274:111|198:260,1,420
178,232,130372,2,0,P|175:63|261:206,1,420
279,177,130538,2,0,P|197:-23|232:256,1,840
280,108,131205,5,0,0:0:0:0:
140,208,131372,1,0,0:0:0:0:
140,208,131455,1,0,0:0:0:0:
140,208,131538,1,0,0:0:0:0:
292,280,131705,1,0,0:0:0:0:
200,120,131872,2,0,P|-93:329|214:215,1,1050
213,222,132038,2,0,P|422:515|308:207,1,1050,8|0,3:0|3:0,3:0:0:0:
316,206,132205,2,0,P|609:-3|301:110,1,1050,8|0,3:0|3:0,3:0:0:0:
304,106,132372,2,0,P|94:-187|208:120,1,1050,8|0,3:0|3:0,3:0:0:0:
199,119,132538,5,0,0:0:0:0:
292,280,132705,1,0,0:0:0:0:
292,280,132788,1,0,0:0:0:0:
292,280,132872,1,0,0:0:0:0:
104,264,133038,1,0,0:0:0:0:
288,216,133205,2,0,P|671:167|294:122,1,1050
328,61,133372,2,0,P|-25:-94|274:137,1,1050,8|0,0:0|0:0,0:0:0:0:
213,172,133538,2,0,P|596:123|219:78,1,1050,8|0,0:0|0:0,0:0:0:0:
253,17,133705,2,0,P|-100:-138|199:93,1,1050,8|0,0:0|0:0,0:0:0:0:
138,128,133872,5,0,0:0:0:0:
328,60,134038,1,0,0:0:0:0:
328,60,134122,1,0,0:0:0:0:
328,60,134205,1,0,0:0:0:0:
288,260,134372,1,0,0:0:0:0:
148,236,134538,2,0,P|517:196|165:290,1,1050
200,339,134705,2,0,P|155:-29|109:301,1,1050
70,263,134872,2,0,P|439:223|87:317,1,1050
121,366,135038,2,0,P|484:283|176:251,1,1050
223,215,135205,5,0,0:0:0:0:
223,215,135538,1,0,0:0:0:0:
223,215,135872,1,0,0:0:0:0:
424,260,136205,1,0,0:0:0:0:
256,67,136538,5,0,0:0:0:0:
171,305,136705,5,0,0:0:0:0:
380,169,136872,5,0,0:0:0:0:
131,169,137038,5,0,0:0:0:0:
346,305,137205,5,0,0:0:0:0:
256,192,137580,6,4,L,1,52.5
