osu file format v14

[General]
AudioFilename: Avalanche.mp3
AudioLeadIn: 0
PreviewTime: 56368
Countdown: 0
SampleSet: Soft
StackLeniency: 0.2
Mode: 0
LetterboxInBreaks: 0
WidescreenStoryboard: 1

[Editor]
Bookmarks: 21054,79344
DistanceSpacing: 1.4
BeatDivisor: 16
GridSize: 32
TimelineZoom: 2.899999

[Metadata]
Title:Avalanche
TitleUnicode:Avalanche
Artist:Memme
ArtistUnicode:Memme
Creator:byfar
Version:Glacial Cascade
Source:Pump it up Prime
Tags:parkmemme winter classical drumstep dubstep a_mystery asphyxia captin1 captin bonzi toybot asahina momoko -yuzuriha sharkie rrtyui irre irreversible piu piup fiery fieryrage m_o_k_o_r_i xilver mikii kjlfaklf suzuki_1112 suzuki eiji eijikuinbii
BeatmapID:3664899
BeatmapSetID:340048

[Difficulty]
HPDrainRate:4
CircleSize:4.2
OverallDifficulty:9.3
ApproachRate:9.8
SliderMultiplier:2
SliderTickRate:1

[Events]
//Background and Video events
0,0,"Avalanche.jpg",0,0
//Break Periods
2,42854,44861
//Storyboard Layer 0 (Background)
//Storyboard Layer 1 (Fail)
//Storyboard Layer 2 (Pass)
//Storyboard Layer 3 (Foreground)
//Storyboard Layer 4 (Overlay)
//Storyboard Sound Samples

[TimingPoints]
2883,342.857142857143,4,2,1,80,1,0
3568,-100,4,2,1,80,0,0
4254,-100,4,2,1,80,0,0
5455,-133.333333333333,4,2,1,80,0,0
5541,-133.333333333333,4,2,1,5,0,0
5625,-125,4,2,1,70,0,0
6997,-66.6666666666667,4,2,1,70,0,0
8368,-66.6666666666667,4,2,1,80,0,0
8710,-66.6666666666667,4,2,1,80,0,0
9311,-50,4,2,1,80,0,0
10424,-50,4,2,1,80,0,0
12825,-71.4285714285714,4,2,1,90,0,0
12997,-50,4,2,1,90,0,0
13254,-66.6666666666667,4,2,1,90,0,0
13511,-50,4,2,1,90,0,0
13683,-66.6666666666667,4,2,1,90,0,0
16597,-57.1428571428571,4,2,1,80,0,0
17968,-50,4,2,1,80,0,0
18654,-50,4,2,1,80,0,0
18997,-50,4,2,1,80,0,0
19339,-50,4,2,1,80,0,0
19340,-40,4,2,1,80,0,0
21397,-33.3333333333333,4,2,1,80,0,0
22425,-50,4,2,1,80,0,0
23025,-66.6666666666667,4,2,1,80,0,0
23283,-100,4,2,1,80,0,0
23454,-200,4,2,1,80,0,0
24140,-100,4,2,1,80,0,0
24225,-50,4,2,1,80,0,0
24311,-33,4,2,1,80,0,0
24824,-66.6666666666667,4,2,1,100,0,0
25511,-66.6666666666667,4,2,1,90,0,0
26197,-62.5,4,1,1,90,0,1
26625,-50,4,1,1,86,0,1
26711,-50,4,1,1,84,0,1
26797,-50,4,1,1,80,0,1
26882,-50,4,1,1,90,0,1
26968,-50,4,1,1,88,0,1
27054,-50,4,1,1,86,0,1
27140,-66.6666666666667,4,1,1,84,0,1
27225,-66.6666666666667,4,1,1,82,0,1
27311,-66.6666666666667,4,1,1,80,0,1
27568,-50,4,1,1,80,0,1
28597,-50,4,1,1,80,0,1
28940,-125,4,2,1,80,0,1
29454,-83.3333333333333,4,2,1,80,0,1
29797,-125,4,2,1,80,0,1
30140,-50,4,1,1,90,0,1
30825,-50,4,2,1,90,0,1
31340,-133.333333333333,4,1,1,80,0,0
31683,-83.3333333333333,4,2,1,100,0,1
32368,-62.5,4,1,1,80,0,1
33054,-62.5,4,1,1,90,0,1
33140,-62.5,4,1,1,86,0,1
33225,-62.5,4,1,1,84,0,1
33311,-62.5,4,1,1,82,0,1
33740,-50,4,1,1,90,0,1
34425,-62.5,4,1,1,60,0,1
34468,-62.5,4,1,1,60,0,1
34768,-62.5,4,1,1,80,0,1
35454,-50,4,1,1,80,0,1
35797,-125,4,2,1,80,0,1
36311,-83.3333333333333,4,2,1,80,0,1
36997,-50,4,2,1,80,0,1
37340,-83.3333333333333,4,2,1,80,0,1
37683,-50,4,2,1,80,0,1
38025,-166.666666666667,4,2,1,80,0,0
38540,-83.3333333333333,4,2,1,100,0,1
38583,-83.3333333333333,4,2,1,80,0,1
39225,-50,4,1,1,80,0,1
41454,-90.9090909090909,4,2,1,80,0,1
41968,-50,4,2,1,60,0,1
42140,-66.6666666666667,4,2,1,60,0,1
42311,-100,4,2,1,40,0,1
42483,-200,4,2,1,40,0,1
42654,-133.333333333333,4,2,1,40,0,0
46083,-100,4,2,1,80,0,0
46254,-66.6666666666667,4,2,1,80,0,0
46425,-40,4,2,1,80,0,0
46768,-50,4,2,1,80,0,0
47025,-83.3333333333333,4,2,1,75,0,0
47111,-83.3333333333333,4,2,1,70,0,0
47797,-100,4,2,1,70,0,0
48140,-83.3333333333333,4,2,1,80,0,0
48825,-83.3333333333333,4,2,1,80,0,0
49168,-100,4,2,1,80,0,0
49511,-83.3333333333333,4,2,1,80,0,0
49854,-100,4,2,1,80,0,0
50197,-71.4285714285714,4,2,1,80,0,0
50883,-50,4,2,1,80,0,0
51225,-45.4545454545455,4,2,1,80,0,0
51568,-41.6666666666667,4,2,1,80,0,0
51911,-33,4,2,1,80,0,0
52254,-62.5,4,1,1,80,0,0
54311,-55.5555555555556,4,1,1,80,0,0
54654,-50,4,1,1,80,0,0
56454,-50,4,1,1,5,0,0
56540,-40,4,2,1,80,0,0
56625,-58.8235294117647,4,2,1,40,0,0
56711,-58.8235294117647,4,2,1,50,0,0
56797,-58.8235294117647,4,2,1,60,0,0
56883,-58.8235294117647,4,2,1,70,0,0
57054,-50,4,2,1,70,0,0
57740,-83.3333333333333,4,2,1,80,0,1
58768,-83.3333333333333,4,2,1,60,0,1
58940,-83.3333333333333,4,2,1,80,0,1
60140,-50,4,2,1,80,0,1
61854,-166.666666666667,4,2,1,80,0,1
62540,-40,4,2,1,80,0,1
63225,-83.3333333333333,4,2,1,80,0,1
64768,-100,4,2,1,80,0,1
65025,-100,4,2,1,80,0,1
65111,-100,4,2,1,80,0,1
65197,-100,4,2,1,80,0,1
65283,-50,4,2,1,80,0,0
66997,-40,4,2,1,80,0,0
67340,-100,4,2,1,80,0,0
67854,-66.6666666666667,4,2,1,80,0,0
68540,-50,4,1,1,80,0,0
68711,-83.3333333333333,4,2,1,80,0,0
70768,-83.3333333333333,4,2,1,80,0,0
71454,-83.3333333333333,4,2,1,85,0,0
72140,-83.3333333333333,4,2,1,90,0,0
72483,-83.3333333333333,4,2,1,90,0,0
72825,-83.3333333333333,4,2,1,80,0,0
72911,-83.3333333333333,4,2,1,82,0,0
72997,-83.3333333333333,4,2,1,84,0,0
73083,-83.3333333333333,4,2,1,86,0,0
73168,-83.3333333333333,4,2,1,88,0,0
73254,-83.3333333333333,4,2,1,90,0,0
73340,-83.3333333333333,4,2,1,92,0,0
73425,-83.3333333333333,4,2,1,94,0,0
73511,-83.3333333333333,4,2,1,80,0,0
73597,-83.3333333333333,4,2,1,82,0,0
73683,-83.3333333333333,4,2,1,84,0,0
73768,-83.3333333333333,4,2,1,86,0,0
73854,-83.3333333333333,4,2,1,88,0,0
73940,-83.3333333333333,4,2,1,90,0,0
74025,-83.3333333333333,4,2,1,92,0,0
74111,-83.3333333333333,4,2,1,94,0,0
74540,-83.3333333333333,4,2,1,80,0,0
74883,-83.3333333333333,4,2,1,80,0,0
77025,-83.3333333333333,4,2,1,82,0,0
77111,-83.3333333333333,4,2,1,84,0,0
77197,-83.3333333333333,4,2,1,86,0,0
77283,-83.3333333333333,4,2,1,88,0,0
77368,-83.3333333333333,4,2,1,90,0,0
77454,-83.3333333333333,4,2,1,92,0,0
77540,-83.3333333333333,4,2,1,94,0,0
77625,-83.3333333333333,4,2,1,80,0,0
77711,-83.3333333333333,4,2,1,82,0,0
77797,-83.3333333333333,4,2,1,84,0,0
77883,-83.3333333333333,4,2,1,86,0,0
77968,-83.3333333333333,4,2,1,88,0,0
78054,-83.3333333333333,4,2,1,90,0,0
78140,-83.3333333333333,4,2,1,92,0,0
78225,-83.3333333333333,4,2,1,94,0,0
78997,-83.3333333333333,4,2,1,80,0,0
79340,-50,4,2,1,80,0,0
81054,-50,4,1,1,80,0,0
82083,-50,4,1,1,80,0,0
82425,-62.5,4,1,1,80,0,1
82940,-50,4,1,1,80,0,1
83797,-62.5,4,1,1,80,0,1
84140,-62.5,4,1,1,80,0,1
84311,-50,4,1,1,80,0,1
85168,-62.5,4,1,1,80,0,1
85511,-40,4,2,1,80,0,0
85854,-83.3333333333333,4,2,1,80,0,0
86197,-40,4,2,1,80,0,0
86540,-100,4,2,1,80,0,0
86711,-66.6666666666667,4,2,1,80,0,0
86883,-50,4,2,1,80,0,0
87054,-40,4,2,1,80,0,0
87225,-100,4,2,1,80,0,0
87568,-40,4,2,1,80,0,0
87997,-100,4,2,1,40,0,0
88168,-133.333333333333,4,2,1,40,0,0
88425,-100,4,2,1,40,0,0
88597,-90.9090909090909,4,2,1,40,0,0
88854,-117.647058823529,4,2,1,40,0,0
89111,-166.666666666667,4,2,1,40,0,0
89283,-83.3333333333333,4,2,1,50,0,0
89968,-76.9230769230769,4,2,1,50,0,0
90225,-66.6666666666667,4,2,1,50,0,0
90483,-83.3333333333333,4,2,1,50,0,0
90654,-71.4285714285714,4,2,1,60,0,0
91340,-100,4,2,1,80,0,0
91597,-62.5,4,2,1,80,0,0
92025,-55.5555555555556,4,2,1,80,0,0
93054,-40,4,2,1,80,0,0
93397,-50,4,1,1,80,0,0
97511,-400,4,1,1,80,0,0
97597,-50,4,1,1,5,0,0
98368,-83.3333333333333,4,2,1,80,0,0
98540,-33.3333333333333,4,2,1,80,0,0
98893,342.857142857143,4,1,1,80,1,1
98893,-33.3333333333333,4,1,1,80,0,1
99235,-33.3333333333333,4,1,1,80,0,1
99321,-33.3333333333333,4,1,1,5,0,1
99407,-33.3333333333333,4,1,1,80,0,1
99493,-33.3333333333333,4,1,1,5,0,1
99579,-33.3333333333333,4,1,1,80,0,1
99665,-33.3333333333333,4,1,1,5,0,1
99751,-33.3333333333333,4,1,1,80,0,1
99837,-33.3333333333333,4,1,1,5,0,1
99923,-33.3333333333333,4,1,1,80,0,1
100009,-33.3333333333333,4,1,1,5,0,1
100095,-33.3333333333333,4,1,1,80,0,1
100181,-33.3333333333333,4,1,1,5,0,1
100264,-33.3333333333333,4,1,1,80,0,1
100435,-50,4,1,1,80,0,1
100607,-44.4444444444445,4,1,1,80,0,1
100693,-40,4,1,1,80,0,1
100778,-36.3636363636364,4,1,1,80,0,1
100950,-33.3333333333333,4,1,1,80,0,1
101977,-33.3333333333333,4,1,1,80,0,1
102063,-33.3333333333333,4,1,1,5,0,1
102149,-33.3333333333333,4,1,1,80,0,1
102235,-33.3333333333333,4,1,1,5,0,1
102321,-33.3333333333333,4,1,1,80,0,1
102407,-33.3333333333333,4,1,1,5,0,1
102493,-33.3333333333333,4,1,1,80,0,1
102579,-33.3333333333333,4,1,1,5,0,1
102663,-33.3333333333333,4,1,1,80,0,1
102751,-33.3333333333333,4,1,1,5,0,1
102835,-33.3333333333333,4,1,1,80,0,1
102921,-33.3333333333333,4,1,1,5,0,1
103007,-33.3333333333333,4,1,1,80,0,1
103178,-50,4,1,1,80,0,1
103350,-44.4444444444445,4,1,1,80,0,1
103436,-40,4,1,1,80,0,1
103521,-36.3636363636364,4,1,1,80,0,1
103693,-33.3333333333333,4,1,1,80,0,1
104035,-33.3333333333333,4,1,1,80,0,1
104378,-33.3333333333333,4,1,1,80,0,1
104807,-33.3333333333333,4,1,1,5,0,1
104891,-33.3333333333333,4,1,1,80,0,1
104977,-33.3333333333333,4,1,1,5,0,1
105063,-33.3333333333333,4,1,1,80,0,1
105149,-33.3333333333333,4,1,1,5,0,1
105235,-33.3333333333333,4,1,1,80,0,1
105321,-33.3333333333333,4,1,1,5,0,1
105407,-33.3333333333333,4,1,1,80,0,1
105493,-33.3333333333333,4,1,1,5,0,1
105577,-33.3333333333333,4,1,1,80,0,1
105665,-33.3333333333333,4,1,1,5,0,1
105750,-83.3333333333333,4,1,1,80,0,1
106607,-50,4,1,1,80,0,1
106778,-25,4,1,1,80,0,0
107121,-50,4,1,1,80,0,1
107807,-40,4,1,1,80,0,0
108150,-32,4,1,1,80,0,1
108493,-100,4,1,1,80,0,1
108835,-50,4,1,1,80,0,1
112950,-62.5,4,1,1,80,0,1
113978,-55.5555555555556,4,1,1,80,0,1
114321,-62.5,4,1,1,80,0,1
115693,-50,4,1,1,80,0,1
116035,-40,4,1,1,90,0,1
116721,-20,4,1,1,100,0,1
117064,-200,4,1,1,80,0,0
117235,-200,4,1,1,5,0,0

[Colours]
Combo1 : 128,128,255
Combo2 : 192,192,192
Combo3 : 0,128,255
Combo4 : 224,224,224
Combo5 : 0,0,255

[HitObjects]
507,141,2882,6,0,P|461:125|411:122,1,100,2|0,1:2|0:0,0:0:0:0:
373,49,3140,1,0,0:0:0:0:
373,49,3225,2,0,L|264:59,1,100,2|0,0:0|0:0,0:0:0:0:
169,347,3568,6,0,P|99:366|43:321,1,150,0|0,1:0|0:0,0:0:0:0:
101,186,3911,2,0,P|113:234|117:284,1,100,2|0,0:0|0:0,0:0:0:0:
254,369,4254,6,0,P|293:339|308:292,1,100,0|0,1:0|0:0,0:0:0:0:
380,253,4511,1,0,0:0:0:0:
380,253,4597,2,0,P|427:264|473:245,1,100,2|0,0:0|0:0,0:0:0:0:
467,39,4940,22,0,P|397:20|338:63,1,150,0|0,1:0|0:0,0:0:0:0:
406,229,5283,2,0,P|454:221|489:187,1,100,2|0,0:0|0:0,0:0:0:0:
317,163,5625,6,0,L|197:153,1,120,2|2,1:0|0:0,0:0:0:0:
179,153,5968,1,0,0:0:0:0:
10,144,6140,2,0,L|49:147,1,40,0|2,1:0|0:0,0:0:0:0:
112,200,6311,6,0,L|122:320,1,120,2|2,1:0|0:0,0:0:0:0:
124,338,6654,1,0,0:0:0:0:
321,297,6825,1,0,0:0:0:0:
313,304,6911,1,0,0:0:0:0:
305,311,6997,6,0,P|309:236|343:166,1,150.000005722046,2|0,1:0|0:0,0:0:0:0:
333,0,7254,1,2,0:0:0:0:
260,34,7340,2,0,P|264:71|282:103,1,75.0000028610231,2|0,1:0|0:0,0:0:0:0:
459,200,7511,2,0,P|425:216|400:244,1,75.0000028610231,2|0,1:2|0:0,0:0:0:0:
190,329,7683,6,0,P|166:257|115:198,1,150.000005722046,2|0,1:0|0:0,0:0:0:0:
0,264,7940,1,2,0:0:0:0:
11,261,8025,2,0,P|47:267|79:288,1,75.0000028610231,2|0,1:0|0:0,1:0:0:0:
158,49,8197,2,0,P|162:86|153:123,1,75.0000028610231,2|0,1:2|0:0,0:0:0:0:
319,346,8368,6,0,P|387:321|475:317,1,150.000005722046,2|0,1:1|0:1,0:1:0:0:
484,231,8625,1,2,0:0:0:0:
469,230,8711,2,0,P|433:218|403:196,1,75.0000028610231,2|0,1:0|0:0,0:0:0:0:
391,40,8883,2,0,P|394:77|387:114,1,75.0000028610231,2|0,1:2|0:0,0:0:0:0:
193,219,9054,6,0,P|268:223|338:249,1,150.000005722046,2|0,1:1|0:1,0:1:0:0:
401,298,9311,1,2,0:0:0:0:
405,309,9397,6,0,B|421:333|410:359|410:359|390:342|393:316,1,100,2|0,1:0|0:0,0:0:0:0:
308,338,9568,2,0,P|310:288|339:248,1,100,2|0,1:2|0:0,0:0:0:0:
390,81,9740,6,0,B|454:135|418:217|418:217|407:192|387:179,1,200,2|0,1:0|0:3,0:3:0:0:
339,249,9997,1,2,0:0:0:0:
322,247,10083,2,0,L|223:235,1,100,2|0,1:0|0:0,0:0:0:0:
490,309,10254,2,0,B|502:332|528:334|528:334|522:306|495:295,1,100,2|0,1:2|0:0,0:0:0:0:
491,0,10425,6,0,B|293:26,1,200,6|0,1:1|0:0,0:0:0:0:
246,169,10683,1,2,0:0:0:0:
175,132,10768,2,0,B|150:104|150:104|156:40,1,100,2|0,1:0|0:0,0:0:0:0:
293,26,10940,2,0,B|316:83|316:83|302:117,1,100,2|0,1:2|0:0,0:0:0:0:
0,241,11111,6,8,B|-40:199|-40:199|109:221,1,200,2|0,1:0|0:0,0:0:0:0:
293,369,11368,1,2,0:0:0:0:
315,383,11454,2,0,P|340:342|310:280,1,100,2|0,1:0|0:0,0:0:0:0:
252,215,11625,2,0,L|239:115,1,100,2|0,1:2|0:0,0:0:0:0:
455,109,11797,6,8,B|495:151|495:151|346:129,1,200,2|0,1:0|0:0,0:0:0:0:
52,139,12054,1,2,0:0:0:0:
42,166,12140,2,0,P|83:186|131:152,1,100,2|0,1:0|0:0,0:0:0:0:
237,100,12311,2,0,L|224:0,1,100,2|0,1:2|0:0,0:0:0:0:
133,374,12483,5,2,1:1:0:0:
116,296,12568,1,2,1:2:0:0:
166,233,12654,1,2,1:2:0:0:
245,225,12740,1,2,1:2:0:0:
305,273,12825,2,0,L|317:360,1,69.9999978637696,2|0,1:3|0:0,0:0:0:0:
448,73,12997,2,0,P|400:65|356:88,1,100,2|0,1:3|0:0,0:0:0:0:
116,296,13168,5,2,1:0:0:0:
104,309,13254,2,0,L|67:301,4,37.5000014305115,2|0|0|0|0,1:3|0:0|1:0|0:0|1:0,0:0:0:0:
0,209,13511,2,0,P|43:186|90:199,1,100,0|0,1:2|0:0,0:0:0:0:
269,100,13683,2,0,L|260:136,2,37.5000014305115,2|0|0,1:3|0:0|0:0,0:0:0:0:
98,20,13854,6,0,B|101:90|167:109|167:109|180:211,1,225.000008583069,6|0,1:3|0:0,0:0:0:0:
197,290,14197,2,0,L|271:298,1,75.0000028610231,10|0,1:1|0:0,0:0:0:0:
475,366,14368,1,2,0:0:0:0:
475,366,14454,1,2,0:0:0:0:
475,366,14540,6,8,B|377:366|362:287|382:244|430:222|462:236|484:267,1,225.000008583069,2|0,1:3|0:0,0:0:0:0:
467,82,14883,2,8,P|457:120|459:157,1,75.0000028610231,10|0,1:1|0:0,0:0:0:0:
320,222,15054,1,2,0:0:0:0:
320,222,15140,1,2,0:0:0:0:
320,222,15225,6,0,P|270:128|163:133,1,225.000008583069,2|0,1:3|0:0,0:0:0:0:
31,60,15568,2,0,B|65:79|65:79|101:73,1,75.0000028610231,10|0,1:1|0:0,0:0:0:0:
220,219,15740,1,2,0:0:0:0:
220,219,15825,1,2,0:0:0:0:
220,219,15911,6,8,B|194:124|114:130|78:160|69:212|91:240|126:253,1,225.000008583069,2|0,1:3|0:3,0:3:0:0:
63,327,16254,2,0,P|105:330|136:300,1,75.0000028610231,10|0,1:0|0:0,0:0:0:0:
288,89,16425,2,0,P|293:52|273:22,1,75.0000028610231,0|0,1:0|0:0,0:0:0:0:
95,230,16597,6,0,B|122:281|183:273|183:273|404:241,1,262.500002503395,2|0,1:3|0:0,0:0:0:0:
416,238,16940,2,0,B|460:231|460:231|415:217,1,87.500000834465,10|0,1:1|0:0,0:0:0:0:
156,143,17111,1,2,0:0:0:0:
153,154,17197,1,2,0:0:0:0:
150,165,17283,6,0,B|139:206|139:206|167:240|167:240|387:211,1,262.500002503395,2|0,1:3|0:0,0:0:0:0:
420,206,17626,2,0,B|450:172|450:172|442:130,1,87.500000834465,10|0,1:1|0:0,0:0:0:0:
85,61,17797,1,2,0:0:0:0:
81,81,17883,1,2,0:0:0:0:
77,101,17968,6,0,B|129:110|149:165|149:165|356:139,1,300,2|0,1:3|0:0,0:0:0:0:
425,130,18311,2,0,B|493:121|493:121|456:114,1,100,10|0,1:1|3:0,0:0:0:0:
18,12,18483,1,2,0:2:0:0:
9,44,18568,1,2,0:2:0:0:
0,76,18654,6,0,B|-9:99|-29:111|-29:111|15:141|62:127|86:89|86:89|124:35|194:51,1,300,6|0,1:3|0:0,3:3:0:0:
264,101,18997,2,0,P|282:144|264:203,1,100,14|0,1:1|0:0,0:0:0:0:
59,256,19168,2,0,B|52:215|88:203|88:203|94:227|76:253,1,100,2|0,1:1|0:0,0:0:0:0:
443,184,19340,6,8,B|467:216|467:216|449:283|368:321|292:285,1,250,6|2,1:3|1:3,0:3:0:0:
186,136,19597,1,2,1:3:0:0:
186,136,19683,2,0,B|177:221|177:221|187:236|187:236|173:381,1,250,10|2,1:2|1:3,0:3:0:0:
420,98,19940,1,0,0:0:0:0:
420,98,20026,2,0,B|411:183|411:183|421:198|421:198|407:346,1,250,2|2,1:3|1:3,0:3:0:0:
157,7,20283,1,2,1:3:0:0:
158,7,20369,2,0,B|149:92|149:92|159:107|159:107|146:253,1,250,10|2,1:2|1:3,0:3:0:0:
270,304,20625,1,2,1:3:0:0:
347,333,20711,6,0,B|409:354|451:308|451:308|444:298|444:298|482:240|446:164,1,250,6|2,1:3|1:3,3:0:0:0:
157,7,20968,1,10,1:3:0:0:
237,0,21054,2,0,B|303:2|327:60|327:60|317:67|317:67|333:134|273:193,1,250,8|2,1:1|1:3,3:0:0:0:
260,296,21311,1,2,1:3:0:0:
338,324,21397,6,0,B|400:345|442:299|442:299|435:289|435:289|481:233|414:124|344:267,1,300.000011444092,2|2,1:3|1:3,3:0:0:0:
148,27,21654,1,2,1:3:0:0:
226,6,21740,2,0,B|292:8|316:66|316:66|304:64|304:64|316:146|233:132|247:218,1,300.000011444092,8|2,1:2|1:3,3:0:0:0:
432,354,21997,1,2,1:3:0:0:
512,333,22083,6,6,P|476:199|338:209,1,300.000011444092,6|2,1:3|1:3,1:2:0:0:
157,178,22340,1,2,1:3:0:0:
138,191,22425,2,0,L|35:179,1,100,2|0,1:2|1:3,0:0:0:0:
135,345,22597,2,0,P|181:363|229:350,1,100,2|2,1:3|1:3,0:0:0:0:
359,87,22768,6,0,P|270:124|249:218,1,200,2|2,1:3|1:3,1:3:0:0:
307,294,23025,1,2,1:3:0:0:
317,303,23111,6,0,P|342:262|343:216,1,75.0000028610231,8|0,1:2|0:0,0:0:0:0:
166,231,23283,2,0,P|169:255|182:275,1,50,2|2,1:3|1:3,0:3:0:0:
257,227,23454,5,2,1:3:0:0:
266,218,23540,5,0,1:3:0:0:
257,209,23625,5,2,1:3:0:0:
249,218,23711,5,0,1:3:0:0:
264,224,23797,5,2,1:3:0:0:
264,211,23883,5,0,1:3:0:0:
251,211,23968,5,2,1:3:0:0:
252,223,24054,5,0,1:3:0:0:
300,142,24140,6,0,P|310:134|322:130,1,25,2|0,3:2|1:0,0:0:0:0:
344,207,24225,6,0,P|367:217|385:235,1,50,2|0,3:2|1:0,0:0:0:0:
321,283,24311,6,0,P|327:320|321:358,1,75.7575757575758,2|0,3:2|1:0,0:0:0:0:
246,310,24397,6,0,P|221:338|188:358,1,75.7575757575758,2|0,3:2|1:0,0:0:0:0:
30,202,24483,6,0,B|483:232,1,454.545454545455,10|0,1:2|0:0,0:0:0:0:
243,5,24825,6,0,L|249:42,14,37.5000014305115,2|0|0|0|0|0|0|0|0|0|0|0|0|0|0,1:3|0:0|0:0|0:0|0:0|0:0|0:0|0:0|0:0|0:0|0:0|0:0|0:0|0:0|0:0,0:0:0:0:
327,129,25511,5,8,1:2:0:0:
319,111,25597,1,2,2:0:0:0:
318,80,25683,1,0,2:0:0:0:
336,44,25768,1,2,2:0:0:0:
374,17,25854,1,0,2:0:0:0:
434,24,25940,1,2,2:0:0:0:
476,73,26026,2,0,B|480:109|480:109|457:139,1,75.0000028610231,2|2,1:3|2:0,2:0:0:0:
158,378,26197,5,2,0:3:0:0:
238,384,26284,1,2,0:2:0:0:
312,358,26368,1,2,0:2:0:0:
361,294,26455,1,2,0:2:0:0:
376,217,26540,5,2,0:2:0:0:
345,218,26625,1,2,0:2:0:0:
317,227,26711,1,2,0:2:0:0:
297,249,26798,1,2,0:2:0:0:
361,294,26883,5,10,1:2:0:0:
352,213,26968,1,2,1:2:0:0:
313,145,27054,1,2,1:2:0:0:
242,108,27140,6,0,P|234:79|219:55,1,37.5000014305115,2|0,1:3|1:3,0:3:0:0:
163,106,27225,6,0,L|122:70,1,37.5000014305115,2|0,1:3|1:3,0:3:0:0:
171,187,27311,6,0,P|142:183|117:172,1,37.5000014305115,2|0,1:3|1:3,0:3:0:0:
210,255,27397,5,2,1:2:0:0:
281,291,27484,1,2,1:2:0:0:
361,294,27568,6,0,B|390:241|390:241|360:267,1,100,2|0,0:3|0:0,0:0:0:0:
435,174,27740,1,2,1:3:0:0:
435,174,27825,1,2,1:3:0:0:
435,174,27911,6,0,B|464:121|464:121|434:147,1,100,2|0,0:3|0:0,0:0:0:0:
195,348,28083,1,2,1:3:0:0:
195,348,28168,1,2,1:3:0:0:
195,348,28254,6,0,B|209:321|209:321|194:334,2,50,2|0|0,1:3|0:0|0:0,0:0:0:0:
308,158,28425,2,0,B|293:184|293:184|295:164,2,50,2|0|0,1:3|0:0|0:0,0:0:0:0:
62,362,28597,6,0,B|-6:319|19:229|19:229|55:259|122:253|148:197,1,300,0|0,1:1|0:0,0:0:0:0:
103,58,28940,6,8,P|70:106|73:165,1,120,6|0,1:3|0:0,0:0:0:0:
146,202,29283,2,8,P|151:221|148:241,1,40,8|0,0:0|0:0,0:0:0:0:
10,277,29454,6,0,P|58:206|145:201,1,179.999994506836,2|0,1:3|0:0,0:0:0:0:
228,185,29797,2,8,P|233:204|230:224,1,40,8|0,0:0|0:0,0:0:0:0:
0,370,29968,1,2,1:3:0:0:
407,221,30140,6,0,B|400:324|552:259|421:96|305:160,1,300,14|0,1:2|1:3,0:0:0:0:
228,185,30483,2,0,P|216:137|236:92,1,100,2|0,1:3|2:0,0:0:0:0:
440,73,30654,1,10,1:2:0:0:
183,291,30825,6,8,B|101:315|20:263|18:167|18:167|36:193|64:202,1,300,6|0,1:3|0:0,0:0:0:0:
345,103,31168,1,2,1:3:0:0:
345,103,31254,1,2,1:3:0:0:
345,103,31340,6,0,P|367:53|351:0,1,112.500004291535,8|0,1:2|0:0,0:0:0:0:
145,2,31683,6,0,L|148:31,14,29.9999990844727,2|0|0|0|0|0|0|0|0|0|0|0|0|0|0,1:3|0:0|0:0|0:0|0:0|0:0|0:0|0:0|0:0|0:0|0:0|0:0|0:0|0:0|0:0,0:0:0:0:
231,4,32368,5,8,1:0:0:0:
246,15,32454,1,2,2:0:0:0:
262,42,32540,1,0,2:0:0:0:
265,81,32625,1,2,2:0:0:0:
245,124,32711,1,0,2:0:0:0:
189,148,32797,1,2,2:0:0:0:
119,106,32883,2,0,P|140:74|178:66,1,80,2|2,1:3|2:0,2:0:0:0:
477,170,33054,5,2,1:3:0:0:
511,242,33140,1,2,3:2:0:0:
467,308,33225,1,2,3:2:0:0:
388,302,33311,1,2,3:2:0:0:
353,231,33397,1,2,3:2:0:0:
274,225,33483,1,2,3:2:0:0:
230,291,33568,1,2,3:2:0:0:
264,363,33654,1,2,3:2:0:0:
418,372,33740,5,14,1:2:0:0:
468,301,33825,1,2,1:2:0:0:
466,214,33912,1,2,1:2:0:0:
412,143,33997,6,2,P|422:119|423:94,1,50,2|0,1:3|1:0,1:0:0:0:
330,119,34083,6,0,L|312:72,1,50,2|0,1:3|1:0,1:0:0:0:
279,189,34168,6,0,P|256:177|239:159,1,50,2|0,1:3|1:0,1:0:0:0:
282,277,34255,5,2,1:2:0:0:
335,347,34340,1,2,1:2:0:0:
421,363,34425,6,8,L|468:359,6,40,2|0|0|0|0|0|0,1:0|0:0|0:0|0:0|0:0|0:0|0:0,0:0:0:0:
365,302,34768,5,2,1:0:0:0:
335,347,34854,1,0,0:0:0:0:
319,354,34940,1,2,1:3:0:0:
288,346,35025,1,2,1:3:0:0:
245,277,35111,5,10,1:2:0:0:
188,347,35197,1,0,0:0:0:0:
168,355,35283,1,2,1:3:0:0:
133,339,35368,1,2,1:3:0:0:
95,249,35454,6,0,B|-2:222|-45:329|-38:347|78:376|109:257,1,300,10|0,0:0|0:0,0:0:0:0:
226,114,35797,6,0,L|345:105,1,120,2|0,1:3|0:0,0:0:0:0:
412,151,36140,2,0,L|451:149,1,40,8|0,1:0|0:0,0:0:0:0:
265,26,36311,6,0,L|146:35,1,120,2|0,1:3|0:0,0:0:0:0:
234,244,36654,2,0,L|294:241,1,59.9999981689454,8|0,1:0|0:0,0:0:0:0:
348,18,36825,1,2,1:3:0:0:
124,334,36997,6,0,L|145:35,1,300,14|0,1:2|0:0,0:0:0:0:
410,249,37340,2,0,L|406:190,1,59.9999981689454,2|0,1:3|0:0,0:0:0:0:
400,107,37511,1,10,1:0:0:0:
23,314,37683,6,0,B|49:360|49:360|193:371,1,200,6|0,1:3|0:0,0:0:0:0:
145,35,38025,6,0,B|113:60|113:60|121:170,1,149.999995422363,14|0,1:0|0:0,0:0:0:0:
120,257,38540,6,2,L|89:252,14,29.9999990844727,2|2|2|2|2|2|2|2|2|2|2|2|2|2|2,1:3|0:0|0:0|0:0|0:0|0:0|0:0|0:0|0:0|0:0|0:0|0:0|0:0|0:0|0:0,0:0:0:0:
202,294,39225,5,8,1:0:0:0:
221,278,39311,1,2,2:0:0:0:
241,243,39397,1,0,2:0:0:0:
245,194,39482,1,2,2:0:0:0:
219,139,39568,1,0,2:0:0:0:
148,108,39654,1,2,2:0:0:0:
128,25,39740,6,0,P|129:-11|142:22,1,100,2|2,1:3|2:0,2:0:0:0:
441,284,39911,5,2,1:3:0:0:
369,330,39997,1,2,3:2:0:0:
280,335,40083,1,2,3:2:0:0:
202,294,40168,1,2,3:2:0:0:
153,219,40254,1,2,3:2:0:0:
149,128,40340,1,2,3:2:0:0:
191,50,40425,1,2,3:3:0:0:
264,3,40511,1,2,3:2:0:0:
386,117,40597,5,12,1:1:0:0:
345,209,40683,1,2,3:3:0:0:
258,258,40768,1,0,3:3:0:0:
159,247,40854,6,0,P|133:267|102:278,1,50,2|0,3:0|1:0,0:0:0:0:
85,177,40940,6,8,L|1:169,1,50,2|0,3:3|1:3,0:3:0:0:
171,127,41025,6,0,P|150:101|123:83,1,50,2|0,3:3|1:3,0:3:0:0:
269,139,41111,5,0,3:3:0:0:
343,206,41197,1,0,3:3:0:0:
362,303,41283,6,0,P|385:341|470:344,1,100,2|0,1:3|0:3,0:3:0:0:
36,173,41454,2,2,L|-8:167,7,36.6666677856446,2|2|2|2|2|2|2|2,1:2|0:0|0:0|0:0|0:0|0:0|0:0|0:0,0:0:0:0:
341,208,41968,6,0,P|367:181|351:107,1,100,10|0,1:0|0:3,0:3:0:0:
371,30,42140,2,0,P|351:22|302:61,1,75.0000028610231,2|0,0:0|0:3,0:3:0:0:
172,265,42311,6,0,L|177:314,1,50,2|0,0:0|0:3,0:3:0:0:
251,298,42483,2,0,L|248:271,1,25,2|0,0:0|0:3,0:3:0:0:
238,193,42654,5,2,1:3:0:0:
256,192,45397,5,6,3:0:0:0:
303,254,45568,1,2,0:0:0:0:
314,257,45654,1,2,0:0:0:0:
331,219,45740,1,2,1:3:0:0:
344,221,45825,1,2,0:0:0:0:
333,165,45911,1,2,1:3:0:0:
186,151,46083,6,0,P|175:173|171:197,1,50,2|0,1:2|0:0,0:0:0:0:
417,168,46254,2,0,P|409:129|379:94,1,75.0000028610231,2|0,1:2|0:0,0:0:0:0:
62,268,46425,6,0,B|120:326|120:326|288:300,1,250,8|0,0:0|0:0,0:0:0:0:
442,17,46768,6,0,P|520:69|498:160,1,200,6|0,1:3|0:0,0:0:0:0:
409,304,47025,1,0,0:0:0:0:
410,291,47111,1,2,1:3:0:0:
381,247,47197,1,0,0:0:0:0:
376,218,47283,1,0,0:0:0:0:
419,193,47368,1,0,0:0:0:0:
425,114,47454,5,2,1:3:0:0:
187,210,47625,1,0,0:0:0:0:
187,210,47711,2,0,L|58:228,1,119.999996337891,0|0,1:3|0:0,0:0:0:0:
65,26,47968,1,2,0:0:0:0:
82,30,48054,1,2,0:0:0:0:
126,9,48140,6,0,P|180:9|239:51,1,119.999996337891,2|0,1:3|0:0,0:0:0:0:
165,100,48397,2,0,P|193:151|188:210,1,119.999996337891,0|0,1:3|1:0,0:0:0:0:
77,293,48654,1,2,0:0:0:0:
64,284,48740,1,2,0:0:0:0:
78,232,48825,6,8,P|128:202|188:211,1,119.999996337891,2|0,1:3|0:0,0:3:0:0:
260,249,49083,2,0,P|274:301|278:393,1,119.999996337891,0|0,1:2|0:0,0:0:0:0:
33,375,49340,2,8,P|35:350|41:326,1,50,2|0,1:2|0:0,0:0:0:0:
297,168,49511,6,0,P|346:173|399:236,1,119.999996337891,2|0,1:3|0:0,0:0:0:0:
350,66,49768,2,0,P|284:77|215:81,1,134.999995880127,0|0,1:3|1:0,0:0:0:0:
119,41,50025,1,2,0:0:0:0:
102,38,50111,1,2,0:0:0:0:
69,10,50197,6,0,P|50:76|81:138,1,139.999995727539,2|0,1:3|0:0,0:0:0:0:
252,53,50454,2,0,P|323:61|391:74,1,139.999995727539,0|0,1:0|0:0,0:0:0:0:
382,158,50711,2,0,P|347:163|312:168,1,69.9999978637696,2|2,1:2|0:0,0:0:0:0:
512,378,50883,6,0,P|532:285|464:217,1,200,2|0,1:3|0:0,0:0:0:0:
511,379,51225,6,0,P|529:275|445:213,1,220.000006713867,2|0,1:3|0:0,0:0:0:0:
512,378,51568,6,0,P|525:266|425:214,1,239.999992675781,2|2,1:3|1:3,0:0:0:0:
346,213,51825,1,2,1:3:0:0:
183,384,51911,6,0,B|256:375|256:375|267:380|267:380|330:372|330:372|336:316|384:279|438:290,1,303.030303030303,12|0,1:2|0:0,0:0:0:0:
270,191,52254,6,0,P|232:179|207:149,1,80,6|0,1:3|2:0,0:0:0:0:
109,279,52425,2,0,P|90:243|94:204,1,80,0|0,1:3|2:0,0:0:0:0:
47,21,52597,6,0,L|149:37,1,80,2|0,1:3|2:2,0:0:0:0:
376,73,52768,2,0,P|414:65|440:36,1,80,2|0,1:3|0:0,0:0:0:0:
211,48,52940,5,6,1:2:0:0:
216,61,53025,1,0,0:3:0:0:
220,71,53111,2,0,L|204:168,1,80,2|0,1:3|2:0,0:0:0:0:
189,230,53283,2,8,P|182:264|207:299,1,80,2|0,1:3|2:0,0:0:0:0:
285,275,53454,2,8,P|290:237|267:206,1,80,2|0,1:3|2:0,0:0:0:0:
51,160,53625,6,0,L|153:176,1,80,6|0,1:3|2:0,0:0:0:0:
421,221,53797,2,0,P|459:213|485:184,1,80,2|0,1:3|2:0,0:0:0:0:
189,230,53968,6,0,L|268:242,1,80,2|0,1:3|2:2,0:0:0:0:
412,132,54140,2,0,P|424:95|411:58,1,80,2|0,1:3|0:0,0:0:0:0:
272,5,54311,1,6,1:2:0:0:
258,3,54397,1,0,0:0:0:0:
245,0,54483,6,0,L|255:101,1,89.9999972534181,2|0,1:3|2:0,0:0:0:0:
268,242,54654,2,0,L|278:348,1,100,2|0,1:3|2:0,0:0:0:0:
34,143,54825,2,0,L|44:37,1,100,2|0,1:3|2:0,0:0:0:0:
428,316,54997,5,6,0:3:0:0:
368,366,55083,1,2,0:3:0:0:
291,370,55168,1,2,0:3:0:0:
228,320,55254,1,2,0:3:0:0:
208,244,55340,1,2,0:3:0:0:
239,173,55425,1,2,0:3:0:0:
309,137,55511,1,2,0:3:0:0:
386,149,55597,1,0,1:0:0:0:
388,296,55683,5,2,1:3:0:0:
349,329,55769,1,2,0:3:0:0:
297,333,55854,1,2,0:3:0:0:
255,299,55940,1,2,0:3:0:0:
241,249,56026,1,2,0:3:0:0:
262,202,56111,1,2,0:3:0:0:
308,178,56197,1,2,0:3:0:0:
360,186,56283,1,0,0:0:0:0:
393,226,56368,6,0,P|415:175|404:104,1,100,2|0,1:1|0:0,0:0:0:0:
121,240,56540,2,0,B|104:289|47:284|6:253|12:173|90:116|185:145|203:227|203:227|212:183|212:183|230:269|345:295|394:226,1,625,2|0,1:0|0:1,0:0:0:0:
330,64,57054,6,0,P|312:110|315:160,1,100,2|0,1:1|0:0,0:0:0:0:
400,341,57225,2,0,P|440:370|488:383,1,100,2|0,1:1|0:0,0:0:0:0:
168,303,57397,6,0,P|127:332|80:346,1,100,2|0,1:1|0:0,0:0:0:0:
225,54,57568,2,0,P|179:32|143:0,1,100,2|0,1:1|0:0,0:0:0:0:
464,192,57740,5,6,1:3:0:0:
47,188,57911,1,2,1:2:0:0:
321,378,58083,5,2,1:2:0:0:
403,99,58254,1,0,1:2:0:0:
114,254,58425,5,10,1:2:0:0:
401,332,58597,1,0,1:2:0:0:
275,23,58768,5,2,1:0:0:0:
187,334,58940,1,2,1:3:0:0:
481,286,59111,5,2,1:3:0:0:
59,172,59283,1,2,0:0:0:0:
58,148,59368,1,2,0:0:0:0:
57,124,59454,1,2,0:0:0:0:
56,100,59540,1,2,0:0:0:0:
55,76,59625,1,2,0:0:0:0:
54,52,59711,1,2,0:0:0:0:
107,26,59797,5,10,1:0:0:0:
293,312,59968,1,2,1:0:0:0:
285,313,60025,1,2,1:0:0:0:
277,315,60083,1,2,1:0:0:0:
269,317,60140,6,0,B|219:298|219:298|197:104|197:104|239:74,1,300,2|0,1:3|0:0,0:0:0:0:
512,230,60483,5,6,1:3:0:0:
325,177,60654,1,0,1:0:0:0:
512,144,60825,5,0,1:3:0:0:
293,312,60996,1,2,1:2:0:0:
512,316,61168,5,8,1:0:0:0:
193,217,61340,1,2,1:2:0:0:
357,42,61511,5,0,1:0:0:0:
0,216,61683,1,2,1:3:0:0:
196,384,61854,5,2,1:3:0:0:
1,54,62025,1,2,3:0:0:0:
12,67,62111,1,2,3:0:0:0:
11,84,62197,1,2,3:0:0:0:
22,98,62283,1,2,3:0:0:0:
22,115,62368,1,2,3:0:0:0:
33,129,62454,1,2,3:0:0:0:
18,217,62540,6,0,B|38:164|86:159|86:159|225:144|225:144|271:208|271:208|174:218|174:218|97:89|97:89|258:72|258:72|387:254,1,875,8|0,0:0|0:0,0:0:0:0:
346,197,63225,5,2,1:3:0:0:
412,12,63397,1,0,1:0:0:0:
435,191,63568,5,0,1:3:0:0:
326,21,63740,1,2,1:3:0:0:
481,90,63911,5,8,0:0:0:0:
190,250,64083,1,2,1:3:0:0:
184,36,64254,5,0,1:3:0:0:
418,285,64425,1,2,1:3:0:0:
48,375,64597,6,8,P|37:353|40:318,1,59.9999981689454,2|0,1:2|1:0,1:0:0:0:
0,103,64768,1,2,0:0:0:0:
20,102,64853,1,2,0:0:0:0:
39,112,64939,1,2,0:0:0:0:
62,105,65025,1,2,0:0:0:0:
79,118,65110,1,2,0:0:0:0:
94,116,65196,1,2,0:0:0:0:
172,130,65283,6,0,L|167:179,6,50,8|0|0|0|0|0|0,1:0|0:0|0:0|0:0|0:0|0:0|0:0,0:0:0:0:
250,140,65625,2,0,L|245:189,6,50,2|0|0|0|0|0|0,1:2|0:0|0:0|0:0|0:0|0:0|0:0,0:0:0:0:
53,123,65968,6,0,P|45:154|100:203,1,100,4|0,1:3|1:0,0:0:0:0:
231,316,66140,2,0,L|245:190,1,100,2|0,0:0|0:0,0:0:0:0:
372,6,66311,6,0,P|412:31|402:77,1,100,4|0,1:3|1:0,0:0:0:0:
259,345,66483,2,0,L|248:245,1,100,2|0,0:0|0:0,0:0:0:0:
206,57,66654,6,0,B|231:55|231:55|239:66|240:54|240:54|299:49,1,100,2|0,1:3|1:0,0:0:0:0:
492,206,66825,1,2,1:3:0:0:
488,217,66911,1,2,1:3:0:0:
481,225,66997,6,0,B|431:282|287:278|277:114|360:53|421:81|456:142|411:179,1,375,12|0,1:0|0:0,0:0:0:0:
335,316,67340,6,0,L|286:310,2,50,2|0|0,1:3|0:0|0:0,0:0:0:0:
197,301,67597,2,0,L|190:251,2,50,2|0|0,1:3|0:0|0:0,0:0:0:0:
296,129,67854,2,0,P|285:164|261:193,1,75.0000028610231,2|0,1:2|0:0,0:0:0:0:
92,369,68025,6,0,L|101:294,2,75.0000028610231,2|0|0,1:3|0:0|0:0,0:0:0:0:
190,251,68283,2,0,L|200:326,2,75.0000028610231,2|0|0,1:3|0:0|0:0,0:0:0:0:
379,313,68540,2,0,P|336:290|287:294,1,100,2|0,1:2|0:2,0:0:0:0:
32,203,68711,5,2,1:3:0:0:
80,209,68797,1,2,0:0:0:0:
123,188,68883,1,2,0:0:0:0:
174,122,68968,5,2,1:3:0:0:
217,101,69054,1,10,0:0:0:0:
265,107,69140,1,2,0:0:0:0:
329,162,69225,6,0,P|358:171|388:171,1,59.9999981689454,2|0,1:3|0:0,0:0:0:0:
146,100,69397,5,2,1:3:0:0:
210,68,69483,1,2,0:0:0:0:
282,77,69569,1,2,0:0:0:0:
205,44,69654,1,2,0:0:0:0:
121,66,69740,5,8,1:2:0:0:
105,62,69826,1,2,0:0:0:0:
87,70,69911,1,2,0:0:0:0:
62,58,69997,1,2,0:0:0:0:
10,121,70083,6,0,L|237:111,1,179.999994506836,2|0,1:3|0:0,0:0:0:0:
265,107,70425,2,0,L|324:104,1,59.9999981689454,10|0,1:2|0:0,0:0:0:0:
238,375,70597,2,8,P|208:372|182:357,1,59.9999981689454,0|0,1:0|0:0,0:0:0:0:
86,278,70768,5,6,1:3:0:0:
136,214,70854,1,2,0:0:0:0:
173,210,70940,1,2,0:0:0:0:
185,224,71025,1,2,0:0:0:0:
195,126,71111,5,10,1:2:0:0:
277,122,71197,1,2,0:0:0:0:
298,152,71283,1,2,0:0:0:0:
299,170,71368,1,2,0:0:0:0:
356,74,71454,5,6,1:3:0:0:
431,55,71540,1,2,0:0:0:0:
480,117,71625,1,2,0:0:0:0:
455,191,71711,1,2,1:2:0:0:
377,210,71797,5,10,1:2:0:0:
302,231,71883,1,2,0:0:0:0:
274,302,71968,1,2,1:0:0:0:
326,358,72054,1,2,0:0:0:0:
404,350,72140,5,2,1:3:0:0:
429,276,72225,1,2,0:0:0:0:
386,209,72311,1,2,0:0:0:0:
308,218,72397,1,2,0:0:0:0:
351,282,72483,5,10,1:2:0:0:
321,203,72569,1,2,0:0:0:0:
244,168,72655,1,2,1:2:0:0:
162,186,72740,1,2,0:0:0:0:
107,249,72826,5,6,1:3:0:0:
95,261,72911,5,2,3:2:0:0:
73,269,72997,5,2,3:2:0:0:
39,261,73083,5,2,1:2:0:0:
4,229,73168,5,10,1:2:0:0:
0,170,73254,5,2,0:0:0:0:
43,111,73340,5,2,1:2:0:0:
125,92,73425,5,2,0:2:0:0:
204,148,73511,5,6,1:3:0:0:
210,164,73596,5,2,2:0:0:0:
206,187,73682,5,2,2:0:0:0:
182,213,73768,5,2,2:0:0:0:
137,227,73853,5,10,1:2:0:0:
84,201,73939,5,2,0:2:0:0:
54,134,74025,5,2,1:2:0:0:
79,54,74110,5,2,2:0:0:0:
169,8,74197,6,0,P|230:71|335:39,1,179.999994506836,6|0,1:3|0:0,0:0:0:0:
330,50,74540,2,0,P|359:48|387:58,1,59.9999981689454,8|0,1:0|0:0,0:0:0:0:
387,325,74711,2,0,P|359:335|330:334,1,59.9999981689454,2|0,1:2|0:0,0:0:0:0:
182,213,74883,5,6,1:3:0:0:
247,165,74969,1,2,0:0:0:0:
284,170,75054,1,2,0:0:0:0:
292,187,75140,1,2,0:0:0:0:
327,95,75225,5,10,1:2:0:0:
407,112,75311,1,2,0:0:0:0:
420,147,75396,1,2,0:0:0:0:
416,164,75482,1,2,0:0:0:0:
493,99,75568,5,2,1:3:0:0:
512,175,75654,1,2,0:0:0:0:
467,239,75740,1,2,0:0:0:0:
389,238,75825,1,2,0:0:0:0:
341,175,75911,5,10,1:0:0:0:
270,141,75997,1,2,0:0:0:0:
214,195,76083,1,2,1:0:0:0:
248,264,76168,1,2,0:0:0:0:
324,252,76254,5,6,1:3:0:0:
253,217,76340,1,2,0:0:0:0:
178,237,76425,1,2,0:0:0:0:
139,305,76511,1,2,0:0:0:0:
152,383,76597,5,10,1:0:0:0:
188,306,76683,1,2,0:0:0:0:
130,245,76769,1,2,1:0:0:0:
55,282,76854,1,2,0:0:0:0:
71,364,76940,5,6,1:3:0:0:
87,358,77025,5,2,0:0:0:0:
102,339,77111,5,2,0:0:0:0:
107,303,77197,5,2,0:0:0:0:
95,256,77283,5,10,1:0:0:0:
101,198,77368,5,2,0:0:0:0:
148,143,77454,5,2,1:2:0:0:
231,126,77540,5,2,0:0:0:0:
316,167,77625,5,6,1:3:0:0:
299,169,77710,5,2,0:0:0:0:
276,160,77796,5,2,0:0:0:0:
254,132,77882,5,2,0:0:0:0:
241,85,77968,5,10,1:0:0:0:
207,38,78053,5,2,0:0:0:0:
138,14,78139,5,2,1:2:0:0:
58,40,78225,5,2,0:0:0:0:
4,116,78311,6,0,P|84:148|105:232,1,179.999994506836,6|0,1:3|0:0,0:0:0:0:
116,314,78654,2,8,P|144:304|169:287,1,59.9999981689454,8|0,1:2|0:0,0:0:0:0:
428,271,78825,2,8,P|400:261|375:244,1,59.9999981689454,0|0,1:2|0:0,0:0:0:0:
252,0,78997,5,6,1:3:0:0:
303,63,79083,1,2,0:0:0:0:
298,100,79168,1,2,0:0:0:0:
279,107,79254,1,2,0:0:0:0:
324,178,79340,5,8,1:2:0:0:
294,253,79426,1,2,0:0:0:0:
260,267,79511,1,2,0:0:0:0:
244,254,79597,1,2,0:0:0:0:
195,328,79683,5,2,1:3:0:0:
117,346,79768,1,2,0:0:0:0:
47,306,79854,1,2,0:0:0:0:
22,229,79940,1,2,0:0:0:0:
51,156,80025,5,10,1:0:0:0:
127,176,80110,1,2,0:0:0:0:
206,162,80196,1,2,0:0:0:0:
266,108,80282,1,2,0:0:0:0:
299,37,80368,5,6,1:3:0:0:
369,84,80453,1,2,0:0:0:0:
429,145,80539,1,2,0:0:0:0:
474,217,80625,1,2,0:0:0:0:
504,297,80711,1,14,1:2:0:0:
428,334,80796,1,2,0:0:0:0:
345,355,80882,1,2,0:0:0:0:
260,358,80968,1,2,0:0:0:0:
176,344,81054,5,6,1:3:0:0:
210,259,81140,1,2,1:2:0:0:
206,169,81225,1,2,1:2:0:0:
155,93,81311,1,2,1:2:0:0:
70,59,81397,5,14,1:0:0:0:
144,112,81483,1,2,1:2:0:0:
233,122,81568,1,2,1:2:0:0:
304,65,81654,1,2,1:2:0:0:
395,98,81740,5,6,1:3:0:0:
340,181,81825,1,2,1:2:0:0:
261,241,81911,1,2,1:2:0:0:
166,271,81997,1,2,1:2:0:0:
71,267,82083,2,0,P|18:254|-16:227,1,100,10|0,1:2|0:0,0:0:0:0:
433,238,82254,2,0,P|470:269|484:320,1,100,2|0,1:3|0:3,0:3:0:0:
88,368,82425,6,0,L|0:384,2,80,6|0|0,1:3|0:0|0:0,0:0:0:0:
245,338,82683,1,0,0:0:0:0:
166,350,82768,2,8,P|167:318|201:271,1,80,10|0,1:3|0:0,0:0:0:0:
370,76,82940,2,0,P|407:109|417:158,1,100,2|0,1:3|0:0,0:0:0:0:
295,250,83111,5,14,1:0:0:0:
221,188,83196,1,2,0:1:0:0:
197,91,83282,1,2,0:0:0:0:
235,0,83368,1,2,0:1:0:0:
371,77,83453,5,14,1:0:0:0:
314,157,83539,1,2,0:1:0:0:
221,188,83625,1,2,0:0:0:0:
128,158,83711,1,2,0:1:0:0:
70,246,83797,6,0,P|101:262|150:261,2,80,2|0|0,1:3|0:0|1:3,0:3:0:0:
214,305,84054,1,0,0:0:0:0:
237,380,84140,2,0,P|270:361|290:322,1,80,10|0,1:3|0:0,0:0:0:0:
452,247,84311,2,0,P|441:199|406:165,1,100,2|0,1:3|0:0,0:0:0:0:
169,73,84483,5,14,1:0:0:0:
189,168,84569,1,2,0:0:0:0:
263,233,84655,1,2,0:1:0:0:
360,243,84741,1,2,1:0:0:0:
359,87,84825,5,14,1:0:0:0:
261,99,84911,1,2,0:0:0:0:
189,168,84997,1,2,0:1:0:0:
173,264,85082,1,2,0:0:0:0:
256,351,85168,5,6,1:3:0:0:
131,26,85340,1,2,0:3:0:0:
84,18,85425,1,2,0:3:0:0:
37,9,85511,2,0,B|-5:47|-5:47|16:182|16:182|84:200,1,250,12|0,1:0|0:0,0:0:0:0:
475,9,85854,5,6,1:3:0:0:
348,344,86025,1,2,0:3:0:0:
424,364,86111,1,6,0:3:0:0:
500,384,86197,6,0,B|492:285|492:285|468:246|468:246|458:131,1,250,12|0,1:0|0:0,0:0:0:0:
228,0,86540,6,0,P|223:31|205:60,1,50,2|0,1:3|0:0,0:0:0:0:
290,81,86711,6,0,P|296:117|320:145,1,75.0000028610231,2|0,1:3|0:0,0:0:0:0:
120,155,86883,6,0,P|80:184|32:196,1,100,2|0,1:3|0:3,0:0:0:0:
399,223,87054,6,0,P|450:259|512:266,1,125,2|0,1:3|0:0,0:0:0:0:
190,281,87225,5,2,1:3:0:0:
128,338,87311,1,2,1:3:0:0:
51,372,87397,5,2,1:3:0:0:
45,376,87454,1,2,1:3:0:0:
40,380,87511,1,2,1:3:0:0:
36,384,87568,6,0,B|90:353|81:289|81:289|7:266|-15:189|26:136|26:136|48:105|40:69,1,375,2|0,1:2|0:0,0:0:0:0:
0,0,87911,5,2,1:3:0:0:
0,0,88254,1,2,1:0:0:0:
0,0,88597,1,2,1:3:0:0:
0,0,88940,5,2,1:0:0:0:
0,0,89111,1,2,3:0:0:0:
0,0,89283,5,2,1:3:0:0:
0,0,89625,1,2,1:0:0:0:
0,0,89968,5,2,1:3:0:0:
0,0,90311,5,2,1:0:0:0:
72,30,90483,1,0,0:0:0:0:
103,109,90654,5,2,1:3:0:0:
103,109,90997,5,2,1:0:0:0:
61,176,91168,1,0,0:0:0:0:
77,251,91340,1,2,1:3:0:0:
136,301,91511,2,0,L|190:295,1,50
115,376,91683,5,2,1:0:0:0:
77,251,91854,1,0,0:0:0:0:
381,335,92025,5,2,1:3:0:0:
381,335,92368,1,2,1:3:0:0:
381,335,92711,1,2,1:3:0:0:
434,46,92883,2,0,L|421:147,1,89.9999972534181,2|2,1:3|1:3,0:0:0:0:
404,253,93054,2,0,B|456:311|526:224|508:160|369:117|264:145|246:285|323:220,1,375,14|0,1:2|0:0,0:0:0:0:
316,227,93397,6,0,L|329:327,1,100,2|0,1:3|2:0,0:0:0:0:
252,375,93568,2,0,L|239:274,1,100,2|0,1:3|2:0,0:0:0:0:
218,99,93740,1,2,1:0:0:0:
218,99,93825,1,0,0:0:0:0:
218,99,93911,2,0,L|205:-2,1,100,2|0,1:3|2:0,0:0:0:0:
0,77,94083,6,0,P|48:72|93:95,1,100,2|0,0:3|2:0,0:0:0:0:
150,153,94254,2,0,P|169:199|161:248,1,100,2|0,0:3|2:0,0:0:0:0:
29,317,94425,1,2,1:1:0:0:
29,317,94511,1,0,0:0:0:0:
28,316,94597,2,0,L|128:327,1,100,2|0,0:3|2:0,0:0:0:0:
150,153,94768,6,0,L|249:141,1,100,6|0,0:3|2:0,0:0:0:0:
319,324,94940,2,0,P|347:283|343:234,1,100,2|0,0:3|2:0,0:0:0:0:
502,229,95111,1,2,1:1:0:0:
502,229,95197,1,0,0:0:0:0:
502,229,95283,2,0,P|472:190|424:178,1,100,2|0,0:3|2:0,0:0:0:0:
223,361,95454,6,0,L|213:250,1,100,2|0,1:3|2:0,0:0:0:0:
327,39,95625,2,0,L|334:138,1,100,2|0,0:3|2:0,0:0:0:0:
110,301,95797,2,0,P|97:270|129:201,1,100,2|0,1:1|0:0,0:0:0:0:
420,345,95968,2,0,L|312:354,1,100,2|0,0:3|0:0,0:0:0:0:
9,175,96140,5,6,1:3:0:0:
10,101,96225,1,0,1:3:0:0:
60,46,96311,1,0,1:3:0:0:
134,40,96397,1,0,1:3:0:0:
190,88,96482,5,0,0:0:0:0:
246,136,96568,1,0,1:3:0:0:
320,130,96654,1,0,1:3:0:0:
370,75,96740,1,0,1:3:0:0:
318,17,96825,5,0,1:3:0:0:
395,1,96911,1,0,1:3:0:0:
459,30,96997,1,0,1:3:0:0:
491,81,97083,1,0,1:3:0:0:
492,130,97168,1,2,1:0:0:0:
476,167,97254,1,0,1:3:0:0:
455,189,97340,1,0,1:3:0:0:
436,196,97425,1,0,1:3:0:0:
423,198,97511,6,0,P|415:244|445:208,1,125
154,187,98540,6,8,B|174:162|173:132|173:132|322:88|322:88|353:127|330:175|330:175|295:251|365:313,1,450.000017166138,8|0,1:2|0:0,0:0:0:0:
456,380,98893,5,2,1:3:0:0:
457,74,99064,1,0,0:0:0:0:
457,74,99150,1,0,0:0:0:0:
457,74,99235,6,0,B|491:123|437:151|437:151|456:129|454:99,1,150.000005722046,8|0,1:0|0:0,0:0:0:0:
303,378,99407,2,0,B|243:382|246:322|246:322|258:346|282:362,1,150.000005722046,0|0,0:3|0:3,0:3:0:0:
360,47,99578,6,0,B|394:96|340:124|340:124|359:102|357:72,1,150.000005722046
149,317,99750,2,0,B|95:290|127:240|127:240|126:266|138:292,1,150.000005722046,2|0,1:3|0:3,0:3:0:0:
261,26,99921,6,0,B|295:75|241:103|241:103|260:81|258:51,1,150.000005722046,8|0,1:0|0:0,0:0:0:0:
37,198,100093,2,8,B|3:148|56:120|56:120|42:143|40:171,1,150.000005722046,0|0,0:3|0:3,0:3:0:0:
136,41,100264,5,0,0:0:0:0:
431,294,100435,6,0,P|415:304|430:302,1,50,2|0,3:3|0:0,0:0:0:0:
328,273,100521,6,0,B|317:272|275:285|319:284|327:281,1,50,0|0,3:0|0:0,0:0:0:0:
238,220,100608,6,0,B|220:211|174:229|227:237|237:228,1,56.2500021457673,8|0,3:2|0:0,0:0:0:0:
172,139,100693,6,0,B|156:125|135:137|135:137|158:151|169:147,1,62.5,0|0,3:0|0:0,0:0:0:0:
136,41,100778,6,0,B|124:23|100:29|100:29|110:49|131:47,1,68.7500006556511,0|0,3:3|0:0,0:0:0:0:
167,33,100864,2,0,B|160:12|135:12|135:12|139:33|160:37,1,68.7500006556511,0|0,3:3|0:0,0:0:0:0:
198,43,100950,6,0,L|186:213,1,150.000005722046,2|0,1:0|0:0,0:0:0:0:
204,333,101121,1,0,0:0:0:0:
120,367,101207,1,0,0:0:0:0:
39,322,101293,6,0,B|29:305|9:299|9:299|30:302|52:284,2,75.0000028610231,8|0|0,1:1|0:0|1:1,0:0:0:0:
303,334,101464,2,0,B|312:350|332:356|332:356|311:353|289:371,2,75.0000028610231,8|0|0,1:1|0:0|1:1,0:0:0:0:
434,0,101635,5,2,1:3:0:0:
436,313,101806,1,0,0:0:0:0:
436,313,101892,1,0,0:0:0:0:
436,313,101977,6,0,B|470:264|416:236|416:236|435:258|433:288,1,150.000005722046,8|0,1:0|0:0,0:0:0:0:
295,6,102149,2,0,B|235:2|238:62|238:62|250:38|274:22,1,150.000005722046,0|0,0:3|0:3,0:3:0:0:
339,340,102320,6,0,B|373:291|319:263|319:263|338:285|336:315,1,150.000005722046
141,67,102492,2,0,B|87:94|119:144|119:144|118:118|130:92,1,150.000005722046,2|0,1:3|0:3,0:3:0:0:
240,361,102663,6,0,B|274:312|220:284|220:284|239:306|237:336,1,150.000005722046,8|0,1:0|0:0,0:0:0:0:
29,186,102835,2,8,B|-5:236|48:264|48:264|34:241|32:213,1,150.000005722046,8|0,0:3|0:3,0:3:0:0:
128,343,103006,5,2,1:3:0:0:
423,90,103178,6,0,P|407:80|422:82,1,50,0|0,3:0|0:0,0:0:0:0:
320,111,103263,6,0,B|309:112|267:99|311:100|319:103,1,50,0|0,3:0|0:0,0:0:0:0:
230,164,103350,6,0,B|212:173|166:155|219:147|229:156,1,56.2500021457673,8|0,3:0|0:0,0:0:0:0:
164,245,103435,6,0,B|148:258|128:246|128:246|150:233|161:237,1,56.2500021457673,0|0,3:0|0:0,0:0:0:0:
128,343,103521,6,0,B|116:361|92:355|92:355|102:335|123:337,1,68.7500006556511,0|0,3:3|0:0,0:0:0:0:
159,351,103606,2,0,B|152:372|127:372|127:372|131:351|152:347,1,68.7500006556511,0|0,3:3|0:0,0:0:0:0:
191,340,103693,6,0,L|364:326,1,150.000005722046,2|0,1:2|0:0,0:0:0:0:
173,39,103864,2,0,L|323:52,1,150.000005722046,2|0,1:2|0:0,0:0:0:0:
361,352,104035,6,0,L|534:338,1,150.000005722046,10|0,1:2|0:0,0:0:0:0:
361,32,104207,2,0,L|534:46,1,150.000005722046,2|0,1:2|0:0,0:0:0:0:
83,384,104378,5,0,0:0:0:0:
439,306,104550,1,0,0:0:0:0:
439,306,104635,1,0,0:0:0:0:
439,306,104721,6,0,B|473:257|419:229|419:229|438:251|436:281,1,150.000005722046,8|0,1:0|0:0,0:0:0:0:
75,261,104893,2,0,B|41:212|95:184|95:184|76:206|78:236,1,150.000005722046
404,134,105064,6,0,B|438:85|384:57|384:57|403:79|401:109,1,150.000005722046
124,90,105236,2,0,B|90:41|144:13|144:13|125:35|127:65,1,150.000005722046
488,331,105407,6,0,L|41:385,1,450.000017166138,8|0,1:0|0:0,3:0:0:0:
255,147,105750,6,0,L|255:177,18,29.9999990844727
256,48,106607,6,0,L|256:148,1,100
41,232,106778,6,8,B|42:242|3:232|-20:186|-5:131|68:130|68:130|119:130|132:49|66:42|66:42|158:-39|349:96|234:164,1,600,6|0,1:2|0:0,0:0:0:0:
370,237,107121,5,2,1:3:0:0:
440,199,107207,1,0,0:0:0:0:
494,258,107293,1,0,0:0:0:0:
461,331,107379,1,0,0:0:0:0:
382,317,107464,5,10,1:3:0:0:
402,228,107550,1,0,0:0:0:0:
359,149,107635,1,0,0:0:0:0:
274,115,107721,1,0,0:0:0:0:
187,154,107807,5,12,1:3:0:0:
184,254,107893,1,0,0:0:0:0:
91,289,107978,1,0,0:0:0:0:
32,207,108064,1,0,0:0:0:0:
91,116,108150,5,12,1:3:0:0:
166,170,108235,1,0,0:0:0:0:
259,176,108321,1,0,0:0:0:0:
341,131,108407,1,0,0:0:0:0:
369,41,108493,5,0,0:0:0:0:
339,363,108664,1,0,0:0:0:0:
246,83,108835,5,8,1:0:0:0:
262,171,108921,1,0,0:0:0:0:
351,185,109007,1,0,0:0:0:0:
440,199,109093,1,0,0:0:0:0:
456,287,109179,5,2,1:3:0:0:
50,351,109350,1,0,1:3:0:0:
17,154,109521,5,8,1:2:0:0:
339,363,109692,1,0,1:3:0:0:
130,29,109864,5,2,1:3:0:0:
195,372,110035,1,2,1:3:0:0:
358,169,110207,5,8,1:0:0:0:
305,244,110293,1,0,0:0:0:0:
221,274,110378,1,0,0:0:0:0:
176,195,110464,1,0,0:0:0:0:
196,107,110550,5,2,1:3:0:0:
396,253,110721,1,0,0:0:0:0:
52,294,110893,5,8,1:0:0:0:
473,90,111064,1,0,1:0:0:0:
0,36,111235,5,2,1:3:0:0:
256,384,111407,5,2,1:3:0:0:
320,320,111493,1,0,0:0:0:0:
256,256,111578,1,8,1:0:0:0:
192,192,111664,1,0,0:0:0:0:
256,128,111750,1,0,0:0:0:0:
320,64,111835,1,0,0:0:0:0:
256,0,111921,5,8,1:0:0:0:
256,384,112093,1,2,1:3:0:0:
0,192,112264,5,8,1:0:0:0:
512,192,112435,1,8,1:0:0:0:
256,192,112607,5,2,1:3:0:0:
256,192,112778,1,0,0:0:0:0:
101,154,112950,1,8,1:0:0:0:
109,115,113035,1,0,0:0:0:0:
129,80,113121,1,0,0:0:0:0:
159,54,113207,1,0,0:0:0:0:
196,39,113292,5,2,1:3:0:0:
320,262,113464,1,0,1:0:0:0:
161,203,113635,5,8,1:2:0:0:
290,103,113807,1,0,1:0:0:0:
256,192,113978,5,2,1:3:0:0:
256,192,114149,1,0,0:0:0:0:
435,170,114321,1,8,0:0:0:0:
418,241,114406,1,0,0:0:0:0:
382,308,114492,1,0,0:0:0:0:
325,357,114578,1,0,0:0:0:0:
256,384,114663,5,2,1:3:0:0:
256,0,114835,1,0,1:3:0:0:
456,312,115007,5,14,1:2:0:0:
52,68,115178,1,2,1:3:0:0:
460,68,115350,5,14,1:2:0:0:
56,312,115521,1,2,1:3:0:0:
42,319,115607,1,0,0:0:0:0:
30,326,115693,2,0,P|16:302|72:230,1,100,10|0,1:2|0:0,0:0:0:0:
293,145,115864,2,0,P|340:155|362:199,1,100,2|0,1:2|0:0,0:0:0:0:
136,361,116035,6,0,B|116:251|239:220|239:220|222:249|228:281,1,250,14|0,1:2|1:0,0:0:0:0:
324,292,116293,1,0,1:0:0:0:
270,378,116378,2,0,P|230:331|226:270,1,125,8|0,1:1|0:0,0:0:0:0:
512,60,116550,2,8,P|500:120|455:162,1,125,8|0,1:1|0:0,0:0:0:0:
21,139,116721,6,8,B|-20:65|77:-41|385:-15|377:319,1,500,14|0,1:3|2:3,0:0:0:0:
406,384,117064,1,2,1:3:0:0:
256,192,117150,12,0,118607,0:0:0:0:
