osu file format v14

[General]
AudioFilename: audio.mp3
AudioLeadIn: 0
PreviewTime: 67290
Countdown: 0
SampleSet: Soft
StackLeniency: 0.7
Mode: 0
LetterboxInBreaks: 0
EpilepsyWarning: 1
WidescreenStoryboard: 1

[Editor]
Bookmarks: 2832,8318,13804,19290,24775,31632,38490,42604,46718,52204,57690,74832,82375,87861,93347,112547,116661
DistanceSpacing: 1
BeatDivisor: 4
GridSize: 4
TimelineZoom: 3.299999

[Metadata]
Title:Avalanche
TitleUnicode:Avalanche
Artist:Memme
ArtistUnicode:Memme
Creator:Starfy
Version:Skyfall
Source:Pump it up Prime
Tags:starforyou aabc271 iloveyou4ever nardoxyribonucleic classic drumstep Andamiro PIU Antonio Vivaldi The Four Seasons Winter
BeatmapID:1290095
BeatmapSetID:611095

[Difficulty]
HPDrainRate:6
CircleSize:4.5
OverallDifficulty:9
ApproachRate:9.5
SliderMultiplier:1.8
SliderTickRate:1

[Events]
//Background and Video events
0,0,"BG.jpg",0,0
//Break Periods
//Storyboard Layer 0 (Background)
//Storyboard Layer 1 (Fail)
//Storyboard Layer 2 (Pass)
//Storyboard Layer 3 (Foreground)
Sprite,Foreground,Centre,"sb\highlight.png",252,205 C,0,56490,,192,192,192 M,0,56490,56511,252,205,252.4995,193.7611 F,2,56490,56775,1,0 S,2,56490,56775,0.75,0.15 P,0,56490,56775,A M,0,56511,56532,252.4995,193.7611,252.999,182.5222 M,0,56532,56554,252.999,182.5222,253.4985,171.2833 M,0,56554,56575,253.4985,171.2833,253.998,160.0444
Sprite,Foreground,Centre,"sb\highlight.png",352,241 C,0,56661,,128,128,128 M,0,56661,56682,352,241,352.4995,229.7611 F,2,56661,56946,1,0 S,2,56661,56946,0.75,0.15 P,0,56661,56946,A M,0,56682,56703,352.4995,229.7611,352.999,218.5222 M,0,56703,56725,352.999,218.5222,353.4985,207.2833 M,0,56725,56746,353.4985,207.2833,353.998,196.0444
Sprite,Foreground,Centre,"sb\highlight.png",454,206 C,0,56832,,192,192,192 M,0,56832,56853,454,206,454.7653,194.7761 F,2,56832,57117,1,0 S,2,56832,57117,0.75,0.15 P,0,56832,57117,A M,0,56853,56874,454.7653,194.7761,455.5305,183.5521 M,0,56874,56896,455.5305,183.5521,456.2958,172.3282 M,0,56896,56917,456.2958,172.3282,457,162
Sprite,Foreground,Centre,"sb\highlight.png",548,307 C,0,57004,,128,255,255 M,0,57004,57025,548,307,550.5405,284.6439 F,2,57004,57246,1,0 S,2,57004,57246,1,0.2 P,0,57004,57246,A M,0,57025,57046,550.5405,284.6439,553,263
Sprite,Foreground,Centre,"sb\highlight.png",461,116 C,0,57175,,128,255,128 M,0,57175,57196,461,116,459.0078,138.4116 F,2,57175,57417,1,0 S,2,57175,57417,1,0.2 P,0,57175,57417,A M,0,57196,57217,459.0078,138.4116,457.0157,160.8233
Sprite,Foreground,Centre,"sb\highlight.png",347,285 C,0,57347,,255,128,255 M,0,57347,57368,347,285,349.5405,262.6439 F,2,57347,57589,1,0 S,2,57347,57589,1,0.2 P,0,57347,57589,A M,0,57368,57389,349.5405,262.6439,352,241
Sprite,Foreground,Centre,"sb\highlight.png",259,116 C,0,57518,,255,255,128 M,0,57518,57539,259,116,256.4595,138.3561 F,2,57518,57760,1,0 S,2,57518,57760,1,0.2 P,0,57518,57760,A M,0,57539,57560,256.4595,138.3561,254,160
Sprite,Foreground,Centre,"sb\highlight.png",542,278 C,0,59061,,255,128,255 F,2,59061,59233,1,0 S,2,59061,59233,1,0.2 P,0,59061,59233,A
Sprite,Foreground,Centre,"sb\highlight.png",496,324 C,0,59147,,255,128,255 F,2,59147,59319,1,0 S,2,59147,59319,1,0.2 P,0,59147,59319,A
Sprite,Foreground,Centre,"sb\highlight.png",447,331 C,0,59232,,255,128,255 F,2,59232,59404,1,0 S,2,59232,59404,1,0.2 P,0,59232,59404,A
Sprite,Foreground,Centre,"sb\highlight.png",414,313 C,0,59318,,255,128,255 F,2,59318,59490,1,0 S,2,59318,59490,1,0.2 P,0,59318,59490,A
Sprite,Foreground,Centre,"sb\highlight.png",401,287 C,0,59404,,255,128,255 F,2,59404,59576,1,0 S,2,59404,59576,1,0.2 P,0,59404,59576,A
Sprite,Foreground,Centre,"sb\highlight.png",404,265 C,0,59490,,255,128,255 F,2,59490,59662,1,0 S,2,59490,59662,1,0.2 P,0,59490,59662,A
Sprite,Foreground,Centre,"sb\highlight.png",415,252 C,0,59575,,255,128,255 F,2,59575,59747,1,0 S,2,59575,59747,1,0.2 P,0,59575,59747,A
Sprite,Foreground,Centre,"sb\highlight.png",427,248 C,0,59661,,255,128,255 F,2,59661,59833,1,0 S,2,59661,59833,1,0.2 P,0,59661,59833,A
Sprite,Foreground,Centre,"sb\highlight.png",380,150 C,0,61804,,255,128,255 F,2,61804,61976,1,0 S,2,61804,61976,1,0.2 P,0,61804,61976,A
Sprite,Foreground,Centre,"sb\highlight.png",416,204 C,0,61890,,255,128,255 F,2,61890,62062,1,0 S,2,61890,62062,1,0.2 P,0,61890,62062,A
Sprite,Foreground,Centre,"sb\highlight.png",410,252 C,0,61975,,255,128,255 F,2,61975,62147,1,0 S,2,61975,62147,1,0.2 P,0,61975,62147,A
Sprite,Foreground,Centre,"sb\highlight.png",383,276 C,0,62061,,255,128,255 F,2,62061,62233,1,0 S,2,62061,62233,1,0.2 P,0,62061,62233,A
Sprite,Foreground,Centre,"sb\highlight.png",355,276 C,0,62147,,255,128,255 F,2,62147,62319,1,0 S,2,62147,62319,1,0.2 P,0,62147,62319,A
Sprite,Foreground,Centre,"sb\highlight.png",338,262 C,0,62232,,255,128,255 F,2,62232,62404,1,0 S,2,62232,62404,1,0.2 P,0,62232,62404,A
Sprite,Foreground,Centre,"sb\highlight.png",334,245 C,0,62318,,255,128,255 F,2,62318,62490,1,0 S,2,62318,62490,1,0.2 P,0,62318,62490,A
Sprite,Foreground,Centre,"sb\highlight.png",339,233 C,0,62404,,255,128,255 F,2,62404,62576,1,0 S,2,62404,62576,1,0.2 P,0,62404,62576,A
Sprite,Foreground,Centre,"sb\highlight.png",92,320 C,0,64547,,255,128,255 F,2,64547,64719,1,0 S,2,64547,64719,1,0.2 P,0,64547,64719,A
Sprite,Foreground,Centre,"sb\highlight.png",156,312 C,0,64632,,255,128,255 F,2,64632,64804,1,0 S,2,64632,64804,1,0.2 P,0,64632,64804,A
Sprite,Foreground,Centre,"sb\highlight.png",199,333 C,0,64718,,255,128,255 F,2,64718,64890,1,0 S,2,64718,64890,1,0.2 P,0,64718,64890,A
Sprite,Foreground,Centre,"sb\highlight.png",216,364 C,0,64804,,255,128,255 F,2,64804,64976,1,0 S,2,64804,64976,1,0.2 P,0,64804,64976,A
Sprite,Foreground,Centre,"sb\highlight.png",213,390 C,0,64890,,255,128,255 F,2,64890,65062,1,0 S,2,64890,65062,1,0.2 P,0,64890,65062,A
Sprite,Foreground,Centre,"sb\highlight.png",200,404 C,0,64975,,255,128,255 F,2,64975,65147,1,0 S,2,64975,65147,1,0.2 P,0,64975,65147,A
Sprite,Foreground,Centre,"sb\highlight.png",185,407 C,0,65061,,255,128,255 F,2,65061,65233,1,0 S,2,65061,65233,1,0.2 P,0,65061,65233,A
Sprite,Foreground,Centre,"sb\highlight.png",173,402 C,0,65147,,255,128,255 F,2,65147,65319,1,0 S,2,65147,65319,1,0.2 P,0,65147,65319,A
Sprite,Foreground,Centre,"sb\highlight.png",320,380 C,0,105690,,255,128,255 M,0,105690,105711,320,380,318.4901,399.6295 F,2,105690,105904,1,0 S,2,105690,105904,1,0.2 P,0,105690,105904,A M,0,105711,105732,318.4901,399.6295,316.9801,419.259
Sprite,Foreground,Centre,"sb\highlight.png",303,345 C,0,105775,,255,255,128 M,0,105775,105796,303,345,291.7352,361.1462 F,2,105775,105989,1,0 S,2,105775,105989,1,0.2 P,0,105775,105989,A M,0,105796,105817,291.7352,361.1462,280.4703,377.2925
Sprite,Foreground,Centre,"sb\highlight.png",305,306 C,0,105861,,128,255,255 M,0,105861,105882,305,306,287.1028,314.2029 F,2,105861,106075,1,0 S,2,105861,106075,1,0.2 P,0,105861,106075,A M,0,105882,105903,287.1028,314.2029,269.2056,322.4058
Sprite,Foreground,Centre,"sb\highlight.png",326,273 C,0,105947,,128,255,128 M,0,105947,105968,326,273,306.3995,271.1509 F,2,105947,106161,1,0 S,2,105947,106161,1,0.2 P,0,105947,106161,A M,0,105968,105989,306.3995,271.1509,286.7991,269.3018
Sprite,Foreground,Centre,"sb\highlight.png",361,256 C,0,106033,,255,128,255 M,0,106033,106054,361,256,344.7336,244.9093 F,2,106033,106247,1,0 S,2,106033,106247,1,0.2 P,0,106033,106247,A M,0,106054,106075,344.7336,244.9093,328.4673,233.8186
Sprite,Foreground,Centre,"sb\highlight.png",399,258 C,0,106118,,255,255,128 M,0,106118,106139,399,258,390.4926,240.2455 F,2,106118,106332,1,0 S,2,106118,106332,1,0.2 P,0,106118,106332,A M,0,106139,106160,390.4926,240.2455,381.9853,222.491
Sprite,Foreground,Centre,"sb\highlight.png",432,280 C,0,106204,,128,255,255 M,0,106204,106225,432,280,433.5099,260.3705 F,2,106204,106418,1,0 S,2,106204,106418,1,0.2 P,0,106204,106418,A M,0,106225,106246,433.5099,260.3705,435.0199,240.741
Sprite,Foreground,Centre,"sb\highlight.png",450,314 C,0,106290,,128,255,128 M,0,106290,106311,450,314,460.8343,297.5618 F,2,106290,106504,1,0 S,2,106290,106504,1,0.2 P,0,106290,106504,A M,0,106311,106332,460.8343,297.5618,471.6686,281.1235
Sprite,Foreground,Centre,"sb\highlight.png",447,353 C,0,106376,,255,128,255 M,0,106376,106397,447,353,464.6837,344.3463 F,2,106376,106590,1,0 S,2,106376,106590,1,0.2 P,0,106376,106590,A M,0,106397,106418,464.6837,344.3463,482.3673,335.6926
Sprite,Foreground,Centre,"sb\highlight.png",426,384 C,0,106461,,255,255,128 M,0,106461,106482,426,384,445.6295,385.5099 F,2,106461,106675,1,0 S,2,106461,106675,1,0.2 P,0,106461,106675,A M,0,106482,106503,445.6295,385.5099,465.259,387.0199
Sprite,Foreground,Centre,"sb\highlight.png",390,402 C,0,106547,,128,255,255 M,0,106547,106568,390,402,406.3224,413.0081 F,2,106547,106761,1,0 S,2,106547,106761,1,0.2 P,0,106547,106761,A M,0,106568,106589,406.3224,413.0081,422.6447,424.0162
Sprite,Foreground,Centre,"sb\highlight.png",352,401 C,0,106633,,128,255,128 M,0,106633,106654,352,401,360.3463,418.8308 F,2,106633,106847,1,0 S,2,106633,106847,1,0.2 P,0,106633,106847,A M,0,106654,106675,360.3463,418.8308,368.6926,436.6616
Sprite,Foreground,Centre,"sb\highlight.png",488,440 C,0,102947,,255,128,255 F,2,102947,103119,1,0 S,2,102947,103119,1,0.2 P,0,102947,103119,A
Sprite,Foreground,Centre,"sb\highlight.png",432,396 C,0,103032,,255,128,255 F,2,103032,103204,1,0 S,2,103032,103204,1,0.2 P,0,103032,103204,A
Sprite,Foreground,Centre,"sb\highlight.png",420,340 C,0,103118,,255,128,255 F,2,103118,103290,1,0 S,2,103118,103290,1,0.2 P,0,103118,103290,A
Sprite,Foreground,Centre,"sb\highlight.png",441,299 C,0,103204,,255,128,255 F,2,103204,103376,1,0 S,2,103204,103376,1,0.2 P,0,103204,103376,A
Sprite,Foreground,Centre,"sb\highlight.png",474,284 C,0,103290,,255,128,255 F,2,103290,103462,1,0 S,2,103290,103462,1,0.2 P,0,103290,103462,A
Sprite,Foreground,Centre,"sb\highlight.png",501,291 C,0,103375,,255,128,255 F,2,103375,103547,1,0 S,2,103375,103547,1,0.2 P,0,103375,103547,A
Sprite,Foreground,Centre,"sb\highlight.png",513,309 C,0,103461,,255,128,255 F,2,103461,103633,1,0 S,2,103461,103633,1,0.2 P,0,103461,103633,A
Sprite,Foreground,Centre,"sb\highlight.png",510,325 C,0,103547,,255,128,255 F,2,103547,103719,1,0 S,2,103547,103719,1,0.2 P,0,103547,103719,A
Sprite,Foreground,Centre,"sb\highlight.png",499,333 C,0,103632,,255,255,128 M,0,103632,103653,499,333,488.0507,316.7291 F,2,103632,103889,1,0 S,2,103632,103889,1,0.2 P,0,103632,103889,A M,0,103653,103674,488.0507,316.7291,480.9886,298.4654 M,0,103674,103696,480.9886,298.4654,478.1512,279.1081 M,0,103696,103717,478.1512,279.1081,479.4275,259.5734
Sprite,Foreground,Centre,"sb\highlight.png",365,151 C,0,103804,,255,255,128 F,2,103804,103976,1,0 S,2,103804,103976,1,0.2 P,0,103804,103976,A
Sprite,Foreground,Centre,"sb\highlight.png",365,151 C,0,103890,,255,255,128 F,2,103890,104062,1,0 S,2,103890,104062,1,0.2 P,0,103890,104062,A
Sprite,Foreground,Centre,"sb\highlight.png",358,229 C,0,103975,,255,255,128 M,0,103975,103996,358,229,356.2945,248.6135 F,2,103975,104232,1,0 S,2,103975,104232,1,0.2 P,0,103975,104232,A M,0,103996,104017,356.2945,248.6135,354.589,268.227 M,0,104017,104039,354.589,268.227,352.8834,287.8405 M,0,104039,104060,352.8834,287.8405,351.1779,307.4539
Sprite,Foreground,Centre,"sb\highlight.png",198,397 C,0,104147,,255,255,128 M,0,104147,104168,198,397,196.1727,377.3975 F,2,104147,104447,1,0 S,2,104147,104447,1,0.2 P,0,104147,104447,A M,0,104168,104189,196.1727,377.3975,194.3453,357.795 M,0,104189,104211,194.3453,357.795,192.5179,338.1925 M,0,104211,104232,192.5179,338.1925,190.6906,318.59 M,0,104232,104254,190.6906,318.59,188.8632,298.9875 M,0,104254,104275,188.8632,298.9875,187.0359,279.3849
Sprite,Foreground,Centre,"sb\highlight.png",288,152 C,0,100204,,255,128,255 F,2,100204,100404,1,0 S,2,100204,100404,1,0.2 P,0,100204,100404,A
Sprite,Foreground,Centre,"sb\highlight.png",224,184 C,0,100290,,255,128,255 F,2,100290,100490,1,0 S,2,100290,100490,1,0.2 P,0,100290,100490,A
Sprite,Foreground,Centre,"sb\highlight.png",167,174 C,0,100375,,255,128,255 F,2,100375,100575,1,0 S,2,100375,100575,1,0.2 P,0,100375,100575,A
Sprite,Foreground,Centre,"sb\highlight.png",134,140 C,0,100461,,255,128,255 F,2,100461,100661,1,0 S,2,100461,100661,1,0.2 P,0,100461,100661,A
Sprite,Foreground,Centre,"sb\highlight.png",128,102 C,0,100547,,255,128,255 F,2,100547,100747,1,0 S,2,100547,100747,1,0.2 P,0,100547,100747,A
Sprite,Foreground,Centre,"sb\highlight.png",141,74 C,0,100632,,255,128,255 F,2,100632,100832,1,0 S,2,100632,100832,1,0.2 P,0,100632,100832,A
Sprite,Foreground,Centre,"sb\highlight.png",161,61 C,0,100718,,255,128,255 F,2,100718,100918,1,0 S,2,100718,100918,1,0.2 P,0,100718,100918,A
Sprite,Foreground,Centre,"sb\highlight.png",180,61 C,0,100804,,255,128,255 F,2,100804,101004,1,0 S,2,100804,101004,1,0.2 P,0,100804,101004,A
Sprite,Foreground,Centre,"sb\highlight.png",192,69 C,0,100890,,255,255,128 M,0,100890,100932,192,69,230.2975,69.119 F,2,100890,101175,1,0 S,2,100890,101175,1,0.2 P,0,100890,101175,A M,0,100932,100975,230.2975,69.119,268.8063,70.38125
Sprite,Foreground,Centre,"sb\highlight.png",365,151 C,0,101061,,255,255,128 M,0,101061,101103,365,151,326.7025,151.119 F,2,101061,101346,1,0 S,2,101061,101346,1,0.2 P,0,101061,101346,A M,0,101103,101146,326.7025,151.119,288.2285,152.0236
Sprite,Foreground,Centre,"sb\highlight.png",544,88 C,0,101232,,255,255,128 M,0,101232,101274,544,88,533.8545,126.0455 F,2,101232,101560,1,0 S,2,101232,101560,1,0.2 P,0,101232,101560,A M,0,101274,101317,533.8545,126.0455,532.535,164.0239 M,0,101317,101360,532.535,164.0239,543,201
Sprite,Foreground,Centre,"sb\highlight.png",516,188 C,0,101404,,255,255,128 M,0,101404,101446,516,188,526.1455,226.0455 F,2,101404,101732,1,0 S,2,101404,101732,1,0.2 P,0,101404,101732,A M,0,101446,101489,526.1455,226.0455,527.1871,263.9427 M,0,101489,101532,527.1871,263.9427,516,301
Sprite,Foreground,Centre,"sb\ring.png",320,240 M,0,57004,,548,307 C,0,57004,,128,255,255 F,0,57004,57175,1,0 S,0,57004,57175,0.1,2.5
Sprite,Foreground,Centre,"sb\ring.png",320,240 M,0,57175,,461,116 C,0,57175,,128,255,128 F,0,57175,57346,1,0 S,0,57175,57346,0.1,2.5
Sprite,Foreground,Centre,"sb\ring.png",320,240 M,0,57347,,347,285 C,0,57347,,255,128,255 F,0,57347,57518,1,0 S,0,57347,57518,0.1,2.5
Sprite,Foreground,Centre,"sb\ring.png",320,240 M,0,57518,,259,116 C,0,57518,,255,255,128 F,0,57518,57689,1,0 S,0,57518,57689,0.1,2.5
//Storyboard Sound Samples

[TimingPoints]
90,342.857142857143,4,2,1,40,1,0
2832,-100,4,2,1,40,0,0
8318,-100,4,2,1,60,0,0
9004,-90.9090909090909,4,2,1,60,0,0
9690,-83.3333333333333,4,2,1,60,0,0
10375,-76.9230769230769,4,2,1,60,0,0
11061,-71.4285714285714,4,2,1,60,0,0
11747,-66.6666666666667,4,2,1,60,0,0
12432,-62.5,4,2,1,60,0,0
13804,-90.9090909090909,4,2,1,60,0,0
18604,-90.9090909090909,4,2,50,60,0,0
18775,-90.9090909090909,4,2,1,60,0,0
19290,-80,4,2,1,60,0,0
19975,-71.4285714285714,4,2,1,65,0,0
20661,-64.5161290322581,4,2,1,70,0,0
21347,-58.8235294117647,4,2,1,75,0,0
22032,-54.054054054054,4,2,1,80,0,0
22718,-50,4,2,50,85,0,0
22890,-50,4,2,1,85,0,0
24432,-40,4,2,2,100,0,0
24775,-66.6666666666667,4,2,1,70,0,0
25461,-66.6666666666667,4,1,3,70,0,1
27518,-57.1428571428571,4,1,1,70,0,0
28804,-57.1428571428571,4,2,1,20,0,0
28890,-66.6666666666667,4,1,3,70,0,0
31290,-57.1428571428571,4,2,1,70,0,0
31632,-66.6666666666667,4,2,1,70,0,0
32318,-66.6666666666667,4,1,3,70,0,1
34375,-66.6666666666667,4,1,1,70,0,0
35747,-66.6666666666667,4,1,3,70,0,0
37975,-57.1428571428571,4,2,1,70,0,0
38490,-66.6666666666667,4,2,1,70,0,0
39175,-66.6666666666667,4,1,3,70,0,1
41232,-66.6666666666667,4,1,3,70,0,0
41918,-133.333333333333,4,1,3,70,0,1
42604,-100,4,1,70,80,0,0
42690,-100,4,2,1,40,0,0
43975,-100,4,1,71,80,0,0
44061,-100,4,2,1,40,0,0
45004,-100,4,1,50,40,0,0
45175,-100,4,2,1,40,0,0
45347,-100,4,1,72,80,0,0
45432,-100,4,2,1,40,0,0
46375,-50,4,1,73,80,0,0
46461,-100,4,2,1,40,0,0
46718,-100,4,2,1,50,0,0
48090,-100,4,2,1,55,0,0
49461,-100,4,2,1,60,0,0
50832,-100,4,2,1,70,0,0
51861,-66.6666666666667,4,2,1,70,0,0
52204,-71.4285714285714,4,2,1,70,0,0
52547,-83.3333333333333,4,2,1,70,0,0
52890,-71.4285714285714,4,2,1,70,0,0
53232,-83.3333333333333,4,2,1,70,0,0
53575,-71.4285714285714,4,2,1,70,0,0
53918,-83.3333333333333,4,2,1,70,0,0
54261,-71.4285714285714,4,2,1,70,0,0
54604,-83.3333333333333,4,2,1,70,0,0
56318,-66.6666666666667,4,2,1,70,0,0
56490,-100,4,2,1,70,0,0
57004,-50,4,2,99,100,0,0
57047,-50,4,2,99,20,0,0
57175,-50,4,2,99,100,0,0
57218,-50,4,2,99,20,0,0
57347,-50,4,2,99,100,0,0
57390,-50,4,2,99,20,0,0
57518,-50,4,2,99,100,0,0
57561,-50,4,2,99,20,0,0
57690,-62.5,4,2,1,80,0,1
59061,-62.5,4,2,1,80,0,0
60432,-62.5,4,2,1,80,0,1
61804,-62.5,4,2,1,80,0,0
62490,-57.1428571428571,4,2,1,80,0,0
63175,-62.5,4,2,1,80,0,1
64547,-62.5,4,2,1,80,0,0
65232,-50,4,2,1,80,0,0
65918,-90.9090909090909,4,2,1,80,0,0
66947,-40,4,2,2,100,0,0
67290,-90.9090909090909,4,2,80,80,0,1
67375,-90.9090909090909,4,2,1,80,0,1
68661,-90.9090909090909,4,2,81,80,0,1
68747,-90.9090909090909,4,2,1,80,0,1
70032,-90.9090909090909,4,2,82,80,0,1
70118,-90.9090909090909,4,2,1,80,0,1
71404,-90.9090909090909,4,2,81,80,0,1
71490,-90.9090909090909,4,2,1,80,0,1
72775,-90.9090909090909,4,2,83,80,0,1
72861,-90.9090909090909,4,2,1,80,0,1
73461,-90.9090909090909,4,2,84,80,0,1
73547,-90.9090909090909,4,2,1,80,0,1
74147,-90.9090909090909,4,2,80,80,0,1
74232,-90.9090909090909,4,2,1,80,0,1
75518,-90.9090909090909,4,2,80,80,0,1
75604,-90.9090909090909,4,2,1,80,0,1
76890,-90.9090909090909,4,2,83,80,0,1
76975,-90.9090909090909,4,2,1,80,0,1
77575,-90.9090909090909,4,2,84,80,0,1
77661,-90.9090909090909,4,2,1,80,0,1
78261,-90.9090909090909,4,2,85,80,0,1
78347,-90.9090909090909,4,2,1,80,0,1
78947,-90.9090909090909,4,2,83,80,0,1
79032,-90.9090909090909,4,2,1,80,0,1
79632,-90.9090909090909,4,2,85,80,0,1
79718,-90.9090909090909,4,2,1,80,0,1
80318,-90.9090909090909,4,2,86,80,0,1
80404,-90.9090909090909,4,2,1,80,0,1
81004,-90.9090909090909,4,2,87,80,0,1
81090,-90.9090909090909,4,2,1,80,0,1
82375,-90.9090909090909,4,2,1,80,0,0
85461,-80,4,2,1,80,0,0
85804,-90.9090909090909,4,2,1,80,0,0
86147,-66.6666666666667,4,2,1,80,0,0
86490,-90.9090909090909,4,2,1,80,0,0
87518,-50,4,2,1,80,0,0
87861,-100,4,2,1,50,0,0
89232,-100,4,2,1,55,0,0
90604,-100,4,2,1,60,0,0
91975,-100,4,2,1,65,0,0
93004,-66.6666666666667,4,2,1,70,0,0
93347,-71.4285714285714,4,2,1,70,0,0
93690,-83.3333333333333,4,2,1,70,0,0
94032,-71.4285714285714,4,2,1,70,0,0
94375,-83.3333333333333,4,2,1,70,0,0
94718,-71.4285714285714,4,2,1,70,0,0
95061,-83.3333333333333,4,2,1,70,0,0
95404,-71.4285714285714,4,2,1,70,0,0
95747,-83.3333333333333,4,2,1,70,0,0
98490,-40,4,2,2,100,0,0
98832,-57.1428571428571,4,2,1,85,0,1
100204,-57.1428571428571,4,2,1,85,0,0
101575,-57.1428571428571,4,2,1,85,0,1
102947,-57.1428571428571,4,2,1,85,0,0
104318,-57.1428571428571,4,2,1,85,0,1
105690,-57.1428571428571,4,2,1,85,0,0
106718,-80,4,2,1,85,0,0
107061,-57.1428571428571,4,1,3,85,0,1
108090,-57.1428571428571,4,2,1,85,0,1
108347,-57.1428571428571,4,2,1,85,0,0
108432,-57.1428571428571,4,2,1,85,0,1
115975,-50,4,2,1,85,0,1
116661,-133.333333333333,4,2,1,85,0,0
119061,-133.333333333333,4,2,1,5,0,0

[Colours]
Combo1 : 128,128,128
Combo2 : 128,255,255
Combo3 : 128,255,128
Combo4 : 255,128,255
Combo5 : 255,255,128
Combo6 : 192,192,192

[HitObjects]
32,32,2832,6,0,L|166:24,1,135,4|0,1:0|0:0,0:0:0:0:
167,24,3175,1,4,0:3:0:0:
100,45,3347,1,2,0:0:0:0:
235,53,3518,6,8,L|100:45,1,135,0|0,1:0|0:0,0:0:0:0:
100,45,3861,1,12,0:3:0:0:
167,66,4032,1,2,0:0:0:0:
288,89,4204,6,0,P|327:72|276:18,1,135,4|0,1:0|0:0,0:0:0:0:
235,53,4547,2,0,L|243:177,1,90,4|2,0:3|0:0,0:0:0:0:
194,268,4890,6,0,P|149:229|196:193,1,135,0|0,1:0|0:0,0:0:0:0:
241,143,5232,2,0,L|247:233,1,90,4|2,0:3|0:0,0:0:0:0:
252,300,5490,1,2,0:0:0:0:
252,300,5575,38,0,B|188:288|184:316|118:300,1,135,6|0,1:0|0:0,0:0:0:0:
118,300,5918,1,4,0:3:0:0:
224,384,6090,1,2,0:0:0:0:
224,384,6175,1,2,0:0:0:0:
224,384,6261,6,0,P|289:379|337:321,1,135,2|0,1:0|0:0,0:0:0:0:
334,330,6604,1,4,0:3:0:0:
416,224,6775,1,2,0:0:0:0:
416,224,6861,1,2,0:0:0:0:
416,224,6947,6,0,L|424:328,1,90,6|0,1:0|0:0,0:0:0:0:
320,160,7204,1,0,0:0:0:0:
328,144,7290,2,0,L|320:248,1,90,2|0,1:0|0:0,0:0:0:0:
488,118,7547,1,0,0:0:0:0:
480,102,7632,6,0,L|486:191,1,90,2|0,1:0|0:0,0:0:0:0:
240,70,7890,1,0,0:0:0:0:
248,54,7975,2,0,L|240:158,1,90,2|0,1:0|0:0,0:0:0:0:
194,268,8232,1,0,0:0:0:0:
178,276,8318,38,0,P|113:276|61:224,1,135,6|0,1:0|0:0,0:0:0:0:
12,292,8661,2,0,L|101:298,1,90,2|0,1:0|0:0,0:0:0:0:
168,360,8918,1,0,0:0:0:0:
168,360,9004,6,0,B|222:342|279:359|279:359|254:334,1,148.50000453186,2|0,1:0|0:0,0:0:0:0:
260,260,9347,2,0,P|307:272|357:269,1,99.0000030212403,2|0,1:0|0:0,0:0:0:0:
420,192,9604,1,0,0:0:0:0:
420,192,9690,6,8,B|455:130|391:94|391:94|379:130|397:134,1,161.999995056153,6|0,1:0|0:0,0:0:0:0:
340,192,10032,2,0,L|232:188,1,107.999996704102,2|0,1:0|0:0,0:0:0:0:
124,211,10290,1,0,0:0:0:0:
124,211,10375,6,0,B|264:203|264:203|220:183,1,175.499991966248,2|0,1:0|0:0,0:0:0:0:
180,256,10718,2,0,L|63:250,1,116.999994644165,2|0,1:0|0:0,0:0:0:0:
20,360,10975,1,0,0:0:0:0:
20,360,11061,38,0,B|60:320|108:320|108:320|144:364|208:348,1,188.999994232178,6|0,1:0|0:0,0:0:0:0:
284,352,11404,2,0,P|344:338|383:290,1,125.999996154785,2|0,1:0|0:0,0:0:0:0:
408,166,11661,1,0,0:0:0:0:
408,166,11747,6,0,B|400:242|400:242|416:290|416:290|408:378,1,202.500007724762,2|0,1:0|0:0,0:0:0:0:
464,280,12090,2,0,L|480:132,1,135.000005149842,2|0,1:0|0:0,0:0:0:0:
404,32,12347,1,0,0:0:0:0:
289,106,12432,5,6,1:0:0:0:
301,118,12518,2,0,L|385:114,1,72,2|0,1:0|1:0,0:0:0:0:
256,228,12690,1,2,1:0:0:0:
248,238,12775,2,0,P|236:204|238:168,1,72,2|0,1:2|0:0,0:0:0:0:
383,290,12947,2,0,P|384:325|373:359,1,72,2|0,1:2|0:0,0:0:0:0:
256,384,13118,5,4,1:0:0:0:
256,384,13204,2,0,L|252:332,4,36,0|0|0|0|0,0:0|0:0|0:0|0:0|0:0,0:0:0:0:
175,328,13461,2,0,L|180:256,1,72,2|0,0:0|0:0,0:0:0:0:
94,384,13632,2,0,L|91:348,3,36,4|0|0|0,1:0|1:0|1:0|1:0,0:0:0:0:
58,332,13804,38,0,L|66:233,1,99.0000030212403,4|0,1:0|0:0,0:0:0:0:
480,32,14147,2,0,L|488:131,1,99.0000030212403,8|0,1:0|0:0,0:0:0:0:
384,60,14490,2,0,L|392:159,1,99.0000030212403,0|0,1:0|0:0,0:0:0:0:
288,88,14832,2,0,L|296:187,1,99.0000030212403,8|0,1:0|0:0,0:0:0:0:
200,215,15175,6,0,L|192:116,1,99.0000030212403,0|0,1:0|0:0,0:0:0:0:
392,159,15518,2,0,L|384:60,1,99.0000030212403,8|0,1:0|0:0,0:0:0:0:
104,243,15861,2,0,L|96:144,1,99.0000030212403,0|0,1:0|0:0,0:0:0:0:
296,187,16204,2,0,L|288:88,1,99.0000030212403,8|0,1:0|0:0,0:0:0:0:
446,233,16547,6,0,L|454:332,1,99.0000030212403,4|0,1:0|0:0,0:0:0:0:
24,131,16890,2,0,L|32:32,1,99.0000030212403,8|0,1:0|0:0,0:0:0:0:
120,159,17232,2,0,L|128:60,1,99.0000030212403,0|0,1:0|0:0,0:0:0:0:
216,187,17575,2,0,L|224:88,1,99.0000030212403,8|0,1:0|0:0,0:0:0:0:
320,116,17918,6,0,L|312:215,1,99.0000030212403,0|0,1:0|0:0,0:0:0:0:
128,60,18261,2,0,L|120:159,1,99.0000030212403,8|0,1:0|0:0,0:0:0:0:
416,144,18604,2,0,L|408:243,1,99.0000030212403,2|0,1:0|0:0,0:0:0:0:
224,88,18947,2,0,L|216:187,1,99.0000030212403,8|0,1:0|0:0,0:0:0:0:
288,352,19290,38,0,B|304:328|336:328|336:328|304:328|288:304,1,112.5,4|0,1:0|0:0,0:0:0:0:
220,328,19547,1,0,0:0:0:0:
220,328,19632,2,0,B|172:316|164:344|108:328,1,112.5,8|0,1:0|0:0,0:0:0:0:
86,301,19890,1,0,0:0:0:0:
66,389,19975,6,0,B|86:301|86:301|109:328,1,125.999996154785,4|0,1:0|0:0,0:0:0:0:
144,240,20232,1,0,0:0:0:0:
144,240,20318,2,0,P|163:180|158:118,1,125.999996154785,8|0,1:0|0:0,0:0:0:0:
136,87,20575,1,0,0:0:0:0:
40,104,20661,6,0,B|96:116|136:87|136:87|136:104|172:128,1,139.500001064301,4|0,1:0|0:0,0:0:0:0:
211,28,20918,1,0,0:0:0:0:
211,28,21004,2,0,B|284:40|284:40|368:28,1,139.500001064301,8|0,1:0|0:0,0:0:0:0:
396,24,21261,1,0,0:0:0:0:
395,121,21347,6,0,B|433:83|396:24|396:24|340:32,1,153.000002918243,4|0,1:0|0:0,0:0:0:0:
280,124,21604,1,0,0:0:0:0:
280,124,21690,2,0,L|287:276,1,153.000002918243,8|0,1:0|0:0,0:0:0:0:
276,324,21947,1,0,0:0:0:0:
384,328,22032,38,0,B|336:368|276:324|276:324|288:273,1,166.499999364853,4|0,1:0|0:0,0:0:0:0:
184,352,22290,1,0,0:0:0:0:
184,352,22375,2,0,B|152:268|64:288|76:348|128:320,1,166.499999364853,8|0,1:0|0:0,0:0:0:0:
164,284,22632,1,0,0:0:0:0:
166,164,22718,6,0,B|132:224|164:284|164:284|160:304|119:325,1,180,6|0,1:0|0:0,0:0:0:0:
226,228,22975,1,0,0:0:0:0:
226,228,23061,2,0,B|298:220|298:220|342:244|342:244|434:236,1,180,8|0,1:0|1:0,0:0:0:0:
464,236,23318,1,0,1:0:0:0:
480,352,23404,6,0,P|435:352|395:333,1,90,4|0,1:0|1:0,0:0:0:0:
297,220,23575,2,0,P|274:181|271:136,1,90,0|0,1:0|1:0,0:0:0:0:
199,332,23747,6,0,P|158:351|113:350,1,90,8|0,1:0|1:0,0:0:0:0:
323,137,23918,2,0,P|319:181|297:220,1,90,4|0,1:0|1:0,0:0:0:0:
158,118,24090,37,4,1:0:0:0:
158,118,24175,1,0,1:0:0:0:
158,118,24261,2,0,L|162:70,3,45,0|0|0|0,1:0|1:0|1:0|1:0,0:0:0:0:
288,60,24432,6,0,B|240:52|208:86|208:86|116:62|116:62|72:80|32:60|32:60|52:96|28:132,1,337.5,14|0,1:0|0:0,0:0:0:0:
193,172,24775,38,0,P|206:183|210:199,1,33.7500012874604,4|0,1:0|0:0,0:0:0:0:
244,192,24861,2,0,P|245:208|236:223,1,33.7500012874604
265,242,24947,2,0,P|253:255|237:259,1,33.7500012874604
245,293,25032,2,0,P|228:294|213:285,1,33.7500012874604
195,314,25118,2,0,P|182:302|178:287,1,33.7500012874604
144,294,25204,2,0,P|142:277|151:262,1,33.7500012874604
123,244,25290,2,0,P|134:231|150:227,1,33.7500012874604
143,193,25375,2,0,P|159:191|174:200,1,33.7500012874604
272,136,25461,21,12,1:1:0:0:
295,162,25547,1,0,0:0:0:0:
328,175,25632,1,0,0:0:0:0:
363,173,25718,1,0,0:0:0:0:
393,156,25804,1,0,0:0:0:0:
427,154,25890,1,0,0:0:0:0:
459,166,25975,1,4,0:0:0:0:
483,190,26061,1,0,0:0:0:0:
416,224,26147,6,0,L|408:304,1,67.5000025749208,4|0,0:0|0:1,0:0:0:0:
340,104,26318,2,0,L|348:24,1,67.5000025749208,0|0,0:1|0:1,0:0:0:0:
292,272,26490,1,8,0:0:0:0:
275,270,26575,1,0,0:0:0:0:
258,268,26661,1,4,0:0:0:0:
241,266,26747,1,0,0:0:0:0:
224,265,26832,5,8,0:0:0:0:
204,292,26918,1,0,0:0:0:0:
173,305,27004,1,0,0:0:0:0:
139,301,27090,1,0,0:0:0:0:
112,280,27175,1,4,0:3:0:0:
98,248,27261,1,0,0:0:0:0:
103,214,27347,1,0,0:0:0:0:
123,185,27432,1,0,0:0:0:0:
155,173,27518,6,0,P|200:168|220:136,1,78.7500007510185,4|4,1:0|1:0,0:0:0:0:
356,172,27690,2,0,P|317:171|292:142,1,78.7500007510185,4|4,0:0|0:0,0:0:0:0:
173,305,27861,2,0,L|179:383,1,78.7500007510185,8|4,0:0|0:0,0:0:0:0:
339,305,28032,2,0,L|332:383,1,78.7500007510185,4|4,0:0|0:0,0:0:0:0:
216,76,28204,38,0,L|212:36,3,39.3750003755093,4|0|0|0,2:1|2:1|2:1|2:1,0:0:0:0:
296,103,28375,2,0,L|293:143,3,39.3750003755093,4|0|4|0,2:1|2:1|2:1|2:1,0:0:0:0:
196,97,28547,2,0,L|313:87,1,118.125001126528,0|0,0:0|2:0,0:0:0:0:
314,87,28718,2,0,P|322:48|319:9,1,78.7500007510185
456,116,28890,6,0,B|432:77|432:77|404:101|404:101|456:152|424:220,1,202.500007724762,4|0,0:0|2:0,0:0:0:0:
428,210,29232,1,8,0:0:0:0:
480,352,29404,2,0,P|480:312|396:296,1,135.000005149842,4|0,0:0|2:0,0:0:0:0:
274,369,29747,2,0,L|426:361,1,135.000005149842,8|4,0:0|0:0,0:0:0:0:
112,280,30090,6,0,L|264:288,1,135.000005149842,8|0,0:0|2:0,0:0:0:0:
409,362,30432,1,4,0:3:0:0:
293,142,30604,1,8,0:0:0:0:
139,376,30775,2,0,L|274:369,1,135.000005149842,4|0,0:0|2:0,0:0:0:0:
452,152,31118,1,8,0:0:0:0:
452,152,31204,1,8,0:0:0:0:
452,152,31290,6,0,B|512:76|424:24|424:24|404:80|464:84,1,236.250002253056,4|0,0:0|0:0,0:0:0:0:
379,154,31632,22,0,L|357:179,1,33.7500012874604,4|0,0:1|0:0,0:0:0:0:
331,130,31718,2,0,L|333:163,1,33.7500012874604,0|0,0:1|0:0,0:0:0:0:
281,146,31804,2,0,L|306:167,1,33.7500012874604,0|0,0:1|0:0,0:0:0:0:
257,194,31890,2,0,L|290:191,1,33.7500012874604,0|0,0:1|0:0,0:0:0:0:
272,244,31976,2,0,L|293:218,1,33.7500012874604,0|0,0:1|0:0,0:0:0:0:
321,268,32061,2,0,L|318:234,1,33.7500012874604,0|0,0:1|0:0,0:0:0:0:
371,252,32147,2,0,L|345:230,1,33.7500012874604,0|0,0:1|0:0,0:0:0:0:
395,204,32232,2,0,L|361:206,1,33.7500012874604,0|0,0:1|0:0,0:0:0:0:
372,76,32318,5,8,0:1:0:0:
340,52,32404,1,0,0:0:0:0:
300,43,32490,1,0,0:0:0:0:
261,52,32575,1,0,0:0:0:0:
228,76,32661,1,0,0:0:0:0:
209,111,32747,1,0,0:0:0:0:
208,152,32832,1,4,0:0:0:0:
223,189,32918,1,0,0:0:0:0:
272,244,33004,5,4,0:0:0:0:
262,277,33090,1,0,0:0:0:0:
235,299,33175,1,0,0:0:0:0:
200,301,33261,1,0,0:0:0:0:
171,282,33347,1,0,0:0:0:0:
136,284,33432,1,0,0:0:0:0:
108,306,33518,1,0,0:0:0:0:
100,340,33604,1,0,0:0:0:0:
169,369,33690,5,8,0:0:0:0:
196,351,33775,1,0,0:0:0:0:
218,327,33861,1,0,0:0:0:0:
235,299,33947,1,0,0:0:0:0:
245,268,34032,1,0,0:0:0:0:
249,235,34118,1,0,0:0:0:0:
245,203,34204,1,0,0:0:0:0:
236,172,34290,1,0,0:0:0:0:
220,143,34375,6,0,L|212:184,7,33.7500012874604,0|0|0|0|0|0|0|0,0:0|0:0|0:0|0:0|0:0|0:0|0:0|0:0,0:0:0:0:
256,80,34718,1,0,0:0:0:0:
261,75,34804,1,0,0:0:0:0:
266,70,34890,2,0,L|253:3,1,67.5000025749208,4|4,0:0|0:0,0:0:0:0:
372,76,35061,37,8,0:0:0:0:
372,76,35147,1,0,0:0:0:0:
372,76,35232,2,0,P|395:99|405:131,1,67.5000025749208,4|4,0:0|0:0,0:0:0:0:
214,176,35404,1,8,0:0:0:0:
214,176,35490,1,0,0:0:0:0:
214,176,35575,2,0,P|190:199|180:231,1,67.5000025749208
297,334,35747,6,4,B|325:346|325:346|353:334|353:334|289:294|209:330,1,202.500007724762,4|0,0:0|2:0,0:0:0:0:
217,326,36090,1,12,0:0:0:0:
68,280,36261,2,0,P|134:284|197:260,1,135.000005149842,4|0,0:0|0:0,0:0:0:0:
325,198,36604,2,0,P|362:142|372:76,1,135.000005149842,8|4,0:0|0:0,0:0:0:0:
244,381,36947,6,0,P|207:326|197:260,1,135.000005149842,8|0,0:0|0:0,0:0:0:0:
256,80,37290,1,4,0:0:0:0:
297,334,37461,1,8,0:0:0:0:
115,158,37632,2,0,P|104:224|67:279,1,135.000005149842,8|0,0:0|0:0,0:0:0:0:
369,294,37975,6,0,B|416:288|441:334|441:334|424:268|372:244|312:268|297:334|297:334|256:288|296:240,1,393.750003755093,4|0,0:0|0:0,0:0:0:0:
392,140,38490,6,0,P|405:129|409:113,1,33.7500012874604,4|0,1:0|0:0,0:0:0:0:
344,164,38575,2,0,P|360:165|374:157,1,33.7500012874604,0|0,0:0|0:0,0:0:0:0:
293,147,38661,2,0,P|303:159|319:164,1,33.7500012874604,0|0,0:0|0:0,0:0:0:0:
269,99,38747,2,0,P|267:115|275:129,1,33.7500012874604,0|0,0:0|0:0,0:0:0:0:
286,48,38833,2,0,P|273:58|268:74,1,33.7500012874604,0|0,0:0|0:0,0:0:0:0:
334,24,38918,2,0,P|317:22|303:30,1,33.7500012874604,0|0,0:0|0:0,0:0:0:0:
385,41,39004,2,0,P|374:28|358:23,1,33.7500012874604,0|0,0:0|0:0,0:0:0:0:
409,89,39090,2,0,P|410:72|402:58,1,33.7500012874604
488,140,39175,21,8,0:0:0:0:
468,168,39261,1,0,0:0:0:0:
461,201,39347,1,0,0:0:0:0:
468,234,39432,1,0,0:0:0:0:
488,261,39518,1,0,0:0:0:0:
458,244,39604,1,0,0:0:0:0:
423,240,39690,1,4,0:0:0:0:
391,251,39775,1,0,0:0:0:0:
352,307,39861,5,4,0:0:0:0:
325,329,39946,1,0,0:0:0:0:
290,335,40032,1,0,0:0:0:0:
257,322,40117,1,0,0:0:0:0:
234,294,40204,1,0,0:0:0:0:
200,281,40290,1,0,0:0:0:0:
164,286,40375,1,4,0:0:0:0:
135,309,40461,1,0,0:0:0:0:
96,365,40547,6,0,L|88:281,1,67.5000025749208,8|0,0:0|0:0,0:0:0:0:
160,224,40718,2,0,L|188:144,1,67.5000025749208,0|0,0:0|0:0,0:0:0:0:
277,123,40890,2,0,L|336:62,1,67.5000025749208,0|0,0:0|0:0,0:0:0:0:
425,80,41061,2,0,L|504:50,1,67.5000025749208,0|0,0:0|0:0,0:0:0:0:
355,262,41232,6,0,L|352:307,1,45.0000017166138,0|0,0:0|0:0,0:0:0:0:
392,287,41347,2,0,L|352:307,1,45.0000017166138,0|0,0:0|0:0,0:0:0:0:
389,332,41461,2,0,L|352:307,1,45.0000017166138,0|0,0:0|0:0,0:0:0:0:
348,351,41575,2,0,L|352:307,1,45.0000017166138,0|0,0:0|0:0,0:0:0:0:
311,326,41690,2,0,L|352:307,1,45.0000017166138,0|0,0:0|0:0,0:0:0:0:
314,281,41804,2,0,L|352:307,1,45.0000017166138,0|0,0:0|0:0,0:0:0:0:
456,355,41918,22,0,B|412:312|352:307|352:307|304:360|220:339,1,236.250009012223,12|0,0:1|2:0,0:0:0:0:
224,332,42604,6,0,P|180:336|148:368,1,90,4|0,2:1|0:0,0:0:0:0:
73,332,42947,2,0,P|117:336|149:368,1,90,0|0,2:1|0:0,0:0:0:0:
73,332,43290,6,0,P|42:300|38:256,1,90,0|0,2:1|0:0,0:0:0:0:
224,332,43632,2,0,P|255:300|259:256,1,90,0|0,2:1|0:0,0:0:0:0:
149,367,43975,6,0,P|105:363|73:332,1,90,4|0,2:1|0:0,0:0:0:0:
149,367,44318,2,0,P|192:363|224:332,1,90,0|0,2:1|0:0,0:0:0:0:
39,257,44661,6,0,P|43:301|74:333,1,90,0|0,2:1|0:0,0:0:0:0:
259,256,45004,2,0,P|255:300|224:332,1,90,2|0,2:1|2:0,0:0:0:0:
149,248,45347,37,4,2:1:0:0:
104,192,45518,1,0,0:0:0:0:
106,181,45604,1,0,0:0:0:0:
108,170,45690,1,0,2:1:0:0:
110,159,45775,1,0,0:0:0:0:
112,148,45861,1,0,0:0:0:0:
157,92,46032,1,0,2:1:0:0:
153,70,46118,1,0,0:0:0:0:
149,48,46204,1,0,0:0:0:0:
182,158,46375,6,0,B|252:208|356:164|356:164|288:136|252:180,1,270,14|0,0:1|0:0,0:0:0:0:
256,140,46718,6,0,L|260:240,1,90,4|0,1:0|0:0,0:0:0:0:
259,229,46975,1,0,0:0:0:0:
259,229,47061,1,4,0:1:0:0:
328,320,47232,2,0,L|331:275,2,45,0|0|4,0:0|0:0|0:1,0:0:0:0:
400,185,47575,2,0,L|404:230,2,45,0|0|4,0:0|0:0|0:1,0:0:0:0:
473,319,47918,2,0,L|476:274,1,45,0|0,0:0|0:0,0:0:0:0:
504,212,48090,6,0,P|512:172|496:112,1,90,4|0,0:1|0:0,0:0:0:0:
502,124,48347,1,0,0:0:0:0:
502,124,48432,1,4,0:1:0:0:
436,28,48604,2,0,P|436:50|440:72,2,45,0|0|4,0:0|0:0|0:1,0:0:0:0:
374,169,48947,2,0,P|378:147|379:125,2,45,0|0|4,0:0|0:0|0:1,0:0:0:0:
323,29,49290,2,0,P|323:51|327:73,1,45,0|0,0:0|0:0,0:0:0:0:
300,136,49461,38,0,L|188:132,1,90,4|0,0:1|0:0,0:0:0:0:
210,132,49718,1,0,0:0:0:0:
210,132,49804,1,4,0:1:0:0:
116,192,49975,2,0,L|120:244,2,45,0|0|4,0:0|0:0|0:1,0:0:0:0:
230,89,50318,2,0,L|178:93,2,45,0|0|4,0:0|0:0|0:1,0:0:0:0:
72,172,50661,2,0,L|76:224,1,45,0|0,0:0|0:0,0:0:0:0:
24,260,50832,6,0,P|44:300|36:356,1,90,4|0,0:1|0:0,0:0:0:0:
40,344,51090,1,0,0:0:0:0:
40,344,51175,1,4,0:1:0:0:
136,280,51347,2,0,P|136:257|140:235,2,45,0|0|4,0:0|0:0|0:1,0:0:0:0:
235,299,51690,2,0,P|238:321|239:343,1,45,4|4,0:1|0:1,0:0:0:0:
304,364,51861,6,0,B|316:288|276:240|276:240|324:256|332:312,1,202.500007724762,12|0,0:1|0:0,0:0:0:0:
340,296,52204,6,0,L|336:224,1,62.9999980773926,4|0,1:0|0:0,0:0:0:0:
172,296,52375,2,0,L|176:224,1,62.9999980773926,4|0,1:0|0:0,0:0:0:0:
288,112,52547,6,0,L|292:168,1,53.9999983520508,4|0,0:1|0:0,0:0:0:0:
224,112,52718,2,0,L|220:165,1,53.9999983520508,4|0,0:1|0:0,0:0:0:0:
354,305,52890,22,0,L|350:233,1,62.9999980773926,4|0,1:0|0:0,0:0:0:0:
158,305,53061,2,0,L|162:233,1,62.9999980773926,4|0,1:0|0:0,0:0:0:0:
296,104,53232,70,0,L|300:160,1,53.9999983520508,4|0,0:1|0:0,0:0:0:0:
216,104,53404,2,0,L|212:160,1,53.9999983520508,4|0,0:1|0:0,0:0:0:0:
368,314,53575,22,0,L|364:242,1,62.9999980773926,4|0,1:0|0:0,0:0:0:0:
144,314,53747,2,0,L|148:242,1,62.9999980773926,4|0,1:0|0:0,0:0:0:0:
304,96,53918,38,0,L|308:152,1,53.9999983520508,4|0,0:1|0:0,0:0:0:0:
208,96,54090,2,0,L|204:152,1,53.9999983520508,4|0,0:1|0:0,0:0:0:0:
382,323,54261,54,0,L|378:251,1,62.9999980773926,4|0,1:0|0:0,0:0:0:0:
130,323,54432,2,0,L|134:251,1,62.9999980773926,4|0,1:0|0:0,0:0:0:0:
312,88,54604,38,0,L|316:144,1,53.9999983520508,4|0,0:1|0:0,0:0:0:0:
200,88,54775,2,0,L|196:144,1,53.9999983520508,4|0,0:1|0:0,0:0:0:0:
256,344,54947,53,4,0:1:0:0:
272,360,55033,1,4,0:1:0:0:
256,376,55119,1,4,0:1:0:0:
240,360,55205,1,4,0:1:0:0:
264,346,55290,37,4,0:1:0:0:
269,368,55376,1,4,0:1:0:0:
248,373,55462,1,4,0:1:0:0:
242,352,55548,1,4,0:1:0:0:
269,352,55632,5,4,0:1:0:0:
264,373,55718,1,4,0:1:0:0:
242,368,55804,1,4,0:1:0:0:
248,346,55890,1,4,0:1:0:0:
272,360,55975,5,4,0:1:0:0:
256,376,56061,1,4,0:1:0:0:
240,360,56147,1,4,0:1:0:0:
256,344,56233,1,4,0:1:0:0:
256,360,56318,6,0,L|252:288,1,67.5000025749208,4|0,1:0|0:0,0:0:0:0:
188,149,56490,6,0,L|190:104,1,45,6|6,1:0|1:0,0:0:0:0:
288,185,56661,6,0,L|290:140,1,45,6|6,1:0|1:0,0:0:0:0:
390,150,56832,70,0,L|393:106,1,45,6|6,1:0|1:0,0:0:0:0:
484,251,57004,22,0,L|489:207,1,45,2|0,1:0|2:0,0:0:0:0:
397,60,57175,6,0,L|393:105,1,45,2|0,1:0|2:0,0:0:0:0:
283,229,57347,6,0,L|288:185,1,45,2|0,1:0|2:0,0:0:0:0:
195,60,57518,6,0,L|190:104,1,45,2|0,1:0|2:0,0:0:0:0:
64,320,57690,38,0,L|224:312,1,144,6|0,1:0|0:0,0:0:0:0:
288,184,58032,1,2,0:1:0:0:
288,184,58204,1,0,0:0:0:0:
512,384,58375,6,0,L|368:376,1,144,10|0,1:0|0:0,0:0:0:0:
190,104,58718,1,2,0:1:0:0:
190,104,58890,1,0,0:0:0:0:
478,222,59061,5,4,1:0:0:0:
432,268,59147,1,0,0:0:0:0:
383,275,59232,1,0,0:0:0:0:
350,257,59318,1,0,0:0:0:0:
337,231,59404,1,0,0:0:0:0:
340,209,59490,1,0,0:0:0:0:
351,196,59575,1,0,0:0:0:0:
363,192,59661,1,0,0:0:0:0:
372,194,59747,6,0,L|364:344,1,144,8|4,1:0|0:1,0:0:0:0:
280,384,59975,2,0,L|275:309,1,48,4|4,0:1|0:1,0:0:0:0:
364,337,60090,2,0,B|224:336|224:336|196:388|124:372,1,216,12|0,1:0|0:0,0:0:0:0:
163,375,60432,38,0,P|92:381|32:344,1,144,6|0,1:0|0:0,0:0:0:0:
32,192,60775,1,2,0:1:0:0:
32,192,60947,1,0,0:0:0:0:
302,299,61118,6,0,P|372:305|433:268,1,144,6|0,1:0|0:0,0:0:0:0:
110,312,61461,1,2,0:1:0:0:
110,312,61633,1,0,0:0:0:0:
316,94,61804,5,4,1:0:0:0:
352,148,61890,1,0,0:0:0:0:
346,196,61975,1,0,0:0:0:0:
319,220,62061,1,0,0:0:0:0:
291,220,62147,1,0,0:0:0:0:
274,206,62232,1,0,0:0:0:0:
270,189,62318,1,0,0:0:0:0:
275,177,62404,1,0,0:0:0:0:
283,172,62490,6,8,B|316:156|316:94|316:94|348:108|352:149|352:149|392:180|419:160|419:160|416:180|427:192|427:192|436:140|483:120|483:120|476:168|476:168|492:176|508:192|516:216|512:240|504:264|488:272|468:264|460:244|484:232,1,551.25000525713,8|0,1:0|0:0,0:0:0:0:
475,239,63175,38,0,L|480:88,1,144,6|0,1:0|0:0,0:0:0:0:
348,32,63518,1,2,0:1:0:0:
348,32,63690,1,0,0:0:0:0:
116,192,63861,6,0,L|111:41,1,144,6|0,1:0|0:0,0:0:0:0:
302,299,64204,1,2,0:1:0:0:
302,299,64375,1,0,0:0:0:0:
28,264,64547,5,4,1:0:0:0:
92,256,64632,1,0,0:0:0:0:
135,277,64718,1,0,0:0:0:0:
152,308,64804,1,0,0:0:0:0:
149,334,64890,1,0,0:0:0:0:
136,348,64975,1,0,0:0:0:0:
121,351,65061,1,0,0:0:0:0:
109,346,65147,1,0,0:0:0:0:
103,337,65232,6,0,L|100:276,15,45,12|4|4|4|4|4|4|4|4|4|4|4|4|4|4|4,0:1|0:1|0:1|0:1|0:1|0:1|0:1|0:1|0:1|0:1|0:1|0:1|0:1|0:1|0:1|0:1,0:0:0:0:
28,264,65919,37,4,1:0:0:0:
28,252,66004,1,0,0:0:0:0:
29,241,66090,1,0,0:0:0:0:
29,230,66176,1,0,0:0:0:0:
30,219,66261,2,0,L|26:159,1,49.5000015106202,4|0,0:1|0:1,0:0:0:0:
96,144,66432,2,0,L|92:84,1,49.5000015106202,4|4,1:0|1:0,0:0:0:0:
162,69,66604,5,8,1:0:0:0:
196,44,66690,1,8,1:0:0:0:
238,43,66775,1,4,1:0:0:0:
272,67,66861,1,4,1:0:0:0:
288,106,66947,6,0,B|352:92|382:139|382:139|402:87|456:80|456:80|482:119|482:119|456:80|476:40,1,337.5,14|0,1:0|0:0,0:0:0:0:
496,196,67290,5,4,0:1:0:0:
464,188,67375,1,0,0:0:0:0:
432,197,67461,1,0,0:0:0:0:
409,220,67547,1,0,0:0:0:0:
400,252,67633,37,8,0:1:0:0:
423,228,67718,1,0,0:0:0:0:
454,218,67804,1,0,0:0:0:0:
486,225,67889,1,0,0:0:0:0:
510,247,67975,5,4,0:1:0:0:
479,240,68061,1,0,0:0:0:0:
448,249,68147,1,0,0:0:0:0:
426,272,68232,1,0,0:0:0:0:
418,303,68318,5,8,0:1:0:0:
395,325,68404,1,0,0:0:0:0:
364,333,68490,1,0,0:0:0:0:
333,324,68576,1,0,0:0:0:0:
310,301,68661,5,4,0:1:0:0:
302,270,68747,1,0,0:0:0:0:
311,239,68833,1,0,0:0:0:0:
334,217,68919,1,0,0:0:0:0:
364,209,69004,37,8,0:1:0:0:
335,201,69090,1,0,0:0:0:0:
305,208,69175,1,0,0:0:0:0:
283,229,69261,1,0,0:0:0:0:
274,258,69347,5,4,0:1:0:0:
268,229,69432,1,0,0:0:0:0:
277,200,69518,1,0,0:0:0:0:
299,180,69604,1,0,0:0:0:0:
328,173,69690,5,8,0:1:0:0:
349,152,69775,1,0,0:0:0:0:
357,123,69861,1,0,0:0:0:0:
349,94,69946,1,0,0:0:0:0:
327,72,70032,6,0,P|279:72|231:24,1,99.0000030212403,4|0,0:1|0:1,0:0:0:0:
240,42,70290,1,0,0:0:0:0:
240,42,70375,38,0,P|252:70|244:102,1,49.5000015106202,8|0,0:1|0:0,0:0:0:0:
229,161,70547,2,0,P|215:181|193:193,1,49.5000015106202,0|0,0:0|0:0,0:0:0:0:
120,210,70718,5,4,0:1:0:0:
120,210,70804,1,0,0:0:0:0:
120,210,70890,2,0,P|95:207|74:194,1,49.5000015106202,0|0,0:0|0:0,0:0:0:0:
192,268,71061,5,8,0:1:0:0:
192,268,71147,1,0,0:0:0:0:
192,268,71232,2,0,P|216:265|237:252,1,49.5000015106202,0|0,0:0|0:0,0:0:0:0:
418,303,71404,5,4,0:1:0:0:
387,296,71490,1,0,0:0:0:0:
356,305,71575,1,0,0:0:0:0:
334,328,71661,1,0,0:0:0:0:
326,358,71747,38,0,L|322:290,1,49.5000015106202,8|0,0:1|0:0,0:0:0:0:
240,203,71918,2,0,L|237:252,1,49.5000015106202,0|0,0:0|0:0,0:0:0:0:
94,303,72090,5,4,0:1:0:0:
125,296,72176,1,0,0:0:0:0:
156,305,72261,1,0,0:0:0:0:
178,328,72347,1,0,0:0:0:0:
186,358,72432,6,0,L|190:290,1,49.5000015106202,8|0,0:1|0:0,0:0:0:0:
272,203,72604,2,0,L|274:252,1,49.5000015106202,0|0,0:0|0:0,0:0:0:0:
132,204,72775,5,4,0:1:0:0:
99,192,72861,1,0,0:0:0:0:
73,163,72947,1,0,0:0:0:0:
65,122,73032,1,0,0:0:0:0:
83,78,73118,37,8,0:1:0:0:
126,50,73204,1,0,0:0:0:0:
181,54,73290,1,0,0:0:0:0:
225,96,73375,1,0,0:0:0:0:
229,161,73461,5,4,0:1:0:0:
204,186,73547,1,0,0:0:0:0:
195,225,73632,1,0,0:0:0:0:
210,263,73718,1,0,0:0:0:0:
248,288,73804,5,8,0:1:0:0:
297,283,73890,1,0,0:0:0:0:
333,244,73975,1,0,0:0:0:0:
336,184,74061,1,0,0:0:0:0:
295,133,74147,6,0,P|340:88|384:144,1,148.50000453186,4|0,0:1|0:0,0:0:0:0:
229,161,74490,1,8,0:1:0:0:
227,149,74575,1,0,0:0:0:0:
225,137,74661,1,0,0:0:0:0:
223,125,74747,1,0,0:0:0:0:
221,113,74832,37,4,0:1:0:0:
196,88,74918,1,0,0:0:0:0:
162,75,75004,1,0,0:0:0:0:
126,76,75090,1,0,0:0:0:0:
94,93,75175,5,8,0:1:0:0:
131,91,75261,1,0,0:0:0:0:
165,104,75347,1,0,0:0:0:0:
191,130,75432,1,0,0:0:0:0:
204,164,75518,5,4,0:1:0:0:
179,139,75604,1,0,0:0:0:0:
145,126,75690,1,0,0:0:0:0:
109,127,75775,1,0,0:0:0:0:
77,144,75861,5,8,0:1:0:0:
54,171,75947,1,0,0:0:0:0:
45,206,76033,1,0,0:0:0:0:
50,242,76118,1,0,0:0:0:0:
70,272,76204,37,4,0:1:0:0:
99,292,76290,1,0,0:0:0:0:
135,297,76376,1,0,0:0:0:0:
170,288,76461,1,0,0:0:0:0:
198,265,76547,5,8,0:1:0:0:
182,298,76632,1,0,0:0:0:0:
153,321,76718,1,0,0:0:0:0:
117,331,76804,1,0,0:0:0:0:
81,325,76890,5,4,0:1:0:0:
112,346,76975,1,0,0:0:0:0:
153,348,77061,1,0,0:0:0:0:
191,324,77147,1,0,0:0:0:0:
210,277,77232,5,8,0:1:0:0:
256,247,77318,1,0,0:0:0:0:
315,251,77404,1,0,0:0:0:0:
361,295,77490,1,0,0:0:0:0:
365,364,77575,37,4,0:1:0:0:
327,352,77660,1,0,0:0:0:0:
299,322,77746,1,0,0:0:0:0:
290,279,77832,1,0,0:0:0:0:
313,233,77917,5,8,0:1:0:0:
305,179,78003,1,0,0:0:0:0:
262,137,78089,1,0,0:0:0:0:
198,134,78175,1,0,0:0:0:0:
143,178,78261,6,0,P|84:156|140:124,1,148.50000453186,4|0,0:1|0:0,0:0:0:0:
270,89,78604,1,8,0:1:0:0:
268,101,78689,1,0,0:0:0:0:
266,113,78775,1,0,0:0:0:0:
264,125,78861,1,0,0:0:0:0:
262,137,78946,5,4,0:1:0:0:
295,124,79032,1,0,0:0:0:0:
331,126,79118,1,0,0:0:0:0:
363,141,79204,1,0,0:0:0:0:
386,167,79290,37,8,0:1:0:0:
355,153,79375,1,0,0:0:0:0:
320,152,79461,1,0,0:0:0:0:
288,165,79547,1,0,0:0:0:0:
264,191,79632,5,4,0:1:0:0:
296,177,79718,1,0,0:0:0:0:
330,177,79804,1,0,0:0:0:0:
361,191,79890,1,0,0:0:0:0:
384,216,79976,5,8,0:1:0:0:
394,249,80061,1,0,0:0:0:0:
391,283,80147,1,0,0:0:0:0:
373,312,80233,1,0,0:0:0:0:
346,332,80319,5,6,0:1:0:0:
312,338,80404,1,0,0:0:0:0:
278,331,80490,1,0,0:0:0:0:
251,311,80576,1,0,0:0:0:0:
234,282,80662,37,8,0:1:0:0:
237,315,80747,1,0,0:0:0:0:
253,343,80832,1,0,0:0:0:0:
279,362,80918,1,0,0:0:0:0:
311,369,81003,5,4,0:1:0:0:
280,381,81090,1,0,0:0:0:0:
247,373,81175,1,0,0:0:0:0:
219,354,81262,1,0,0:0:0:0:
207,322,81347,5,8,0:1:0:0:
198,289,81432,1,0,0:0:0:0:
209,257,81517,1,0,0:0:0:0:
231,232,81604,1,0,0:0:0:0:
264,223,81689,5,4,0:1:0:0:
264,223,81775,1,0,0:0:0:0:
264,223,81861,2,0,L|316:228,1,49.5000015106202,0|0,0:0|0:0,0:0:0:0:
435,162,82032,37,8,0:1:0:0:
435,162,82118,1,0,0:0:0:0:
435,162,82204,2,0,L|383:167,1,49.5000015106202,4|0,0:1|0:0,0:0:0:0:
256,96,82375,6,0,L|260:24,1,66.0000020141602,4|0,0:1|0:0,0:0:0:0:
260,30,82547,2,0,P|232:36|192:36,1,49.5000015106202
112,104,82718,1,8,0:1:0:0:
130,104,82803,1,0,0:0:0:0:
149,103,82889,1,4,0:1:0:0:
167,102,82975,1,0,0:0:0:0:
186,101,83061,6,0,L|182:165,5,49.5000015106202,8|0|0|0|0|0,0:1|0:0|0:0|0:0|0:0|0:0,0:0:0:0:
240,241,83575,2,0,L|244:192,1,49.5000015106202,4|0,0:1|0:0,0:0:0:0:
320,320,83747,6,0,P|356:311|388:312,1,66.0000020141602,4|0,0:1|0:0,0:0:0:0:
385,312,83918,2,0,P|377:288|376:263,1,49.5000015106202
449,135,84090,1,8,0:1:0:0:
448,154,84175,1,0,0:0:0:0:
447,173,84261,1,4,0:1:0:0:
446,191,84347,1,0,0:0:0:0:
445,209,84432,38,0,L|501:205,3,49.5000015106202,8|0|0|0,0:1|0:0|0:0|0:0,0:0:0:0:
399,132,84775,2,0,L|449:136,1,49.5000015106202,4|0,0:0|0:0,0:0:0:0:
495,59,84947,2,0,L|445:63,1,49.5000015106202
296,68,85118,6,0,L|300:160,1,74.2500022659302,4|0,0:1|0:0,0:0:0:0:
312,164,85290,2,0,L|308:236,1,49.5000015106202,4|4,0:1|0:1,0:0:0:0:
255,320,85461,2,0,L|257:349,7,28.125,8|0|0|0|0|0|0|0,0:1|0:1|0:0|0:0|0:0|0:0|0:0|0:0,0:0:0:0:
256,321,85804,6,0,P|219:324|184:316,1,74.2500022659302,4|0,0:1|0:0,0:0:0:0:
164,300,85975,2,0,P|140:293|115:295,1,49.5000015106202,4|4,0:1|0:1,0:0:0:0:
32,352,86147,2,0,B|16:208|16:208|64:280,1,202.500007724762,8|0,0:1|0:0,0:0:0:0:
62,192,86490,6,0,P|86:192|111:188,1,49.5000015106202,4|0,0:1|0:0,0:0:0:0:
193,159,86661,2,0,P|205:137|214:110,1,49.5000015106202,4|0,0:1|0:0,0:0:0:0:
259,40,86832,1,4,0:1:0:0:
258,28,86918,1,0,0:1:0:0:
257,16,87004,1,4,0:1:0:0:
256,4,87090,1,0,0:1:0:0:
260,52,87176,37,4,0:1:0:0:
291,88,87261,1,4,0:1:0:0:
337,98,87347,1,4,0:1:0:0:
380,79,87432,1,4,0:1:0:0:
403,38,87518,6,0,P|474:118|364:124,1,270,6|0,0:0|0:0,0:0:0:0:
364,124,87861,6,0,L|360:232,1,90,4|0,0:1|0:0,0:0:0:0:
361,214,88118,1,0,0:0:0:0:
361,214,88204,1,4,0:1:0:0:
292,304,88375,2,0,L|287:259,2,45,0|0|4,0:1|0:0|0:1,0:0:0:0:
218,168,88718,2,0,L|213:212,2,45,0|0|4,0:1|0:0|0:1,0:0:0:0:
135,303,89061,2,0,L|130:258,1,45,0|0,0:1|0:0,0:0:0:0:
66,236,89232,6,0,P|77:192|77:147,1,90,4|0,0:1|0:0,0:0:0:0:
77,147,89490,1,0,0:0:0:0:
77,147,89575,1,4,0:1:0:0:
144,56,89747,2,0,P|146:78|153:99,2,45,0|0|4,0:0|0:0|0:1,0:0:0:0:
220,191,90090,2,0,P|222:168|229:147,2,45,0|0|4,0:0|0:0|0:1,0:0:0:0:
296,56,90432,2,0,P|298:78|305:99,1,45,0|0,0:0|0:0,0:0:0:0:
364,136,90604,38,0,L|464:132,1,90,4|0,0:1|0:0,0:0:0:0:
454,133,90861,1,0,0:0:0:0:
454,133,90947,1,4,0:1:0:0:
380,216,91118,2,0,L|335:213,2,45,0|0|4,0:0|0:0|0:1,0:0:0:0:
454,299,91461,2,0,L|498:296,2,45,0|0|4,0:0|0:0|0:1,0:0:0:0:
380,382,91804,2,0,L|335:379,1,45,0|0,0:0|0:0,0:0:0:0:
300,324,91975,6,0,P|257:336|214:325,1,90,4|0,0:1|0:0,0:0:0:0:
214,325,92232,1,0,0:0:0:0:
214,325,92318,1,4,0:1:0:0:
108,288,92490,2,0,P|129:281|151:282,2,45,0|0|4,0:0|0:0|0:1,0:0:0:0:
214,251,92832,2,0,P|236:252|257:245,1,45,4|4,0:1|0:1,0:0:0:0:
300,192,93004,6,0,B|376:208|412:124|412:124|384:104|340:152,1,202.500007724762,12|0,0:1|0:0,0:0:0:0:
344,124,93347,6,0,L|348:52,1,62.9999980773926,4|0,1:0|0:0,0:0:0:0:
168,124,93518,2,0,L|164:52,1,62.9999980773926,4|0,1:0|0:0,0:0:0:0:
292,219,93690,6,0,L|288:272,1,53.9999983520508,4|0,0:1|0:0,0:0:0:0:
220,218,93861,2,0,L|224:272,1,53.9999983520508,4|0,0:1|0:0,0:0:0:0:
359,134,94032,22,0,L|363:62,1,62.9999980773926,4|0,1:0|0:0,0:0:0:0:
153,134,94204,2,0,L|149:62,1,62.9999980773926,4|0,1:0|0:0,0:0:0:0:
299,226,94375,70,0,L|296:280,1,53.9999983520508,4|0,0:1|0:0,0:0:0:0:
212,226,94547,2,0,L|216:280,1,53.9999983520508,4|0,0:1|0:0,0:0:0:0:
374,144,94718,22,0,L|378:72,1,62.9999980773926,4|0,1:0|0:0,0:0:0:0:
138,144,94890,2,0,L|134:72,1,62.9999980773926,4|0,1:0|0:0,0:0:0:0:
307,234,95061,38,0,L|304:288,1,53.9999983520508,4|0,0:1|0:0,0:0:0:0:
204,234,95233,2,0,L|208:288,1,53.9999983520508,4|0,0:1|0:0,0:0:0:0:
389,154,95404,54,0,L|393:82,1,62.9999980773926,4|0,1:0|0:0,0:0:0:0:
123,154,95575,2,0,L|119:82,1,62.9999980773926,4|0,1:0|0:0,0:0:0:0:
315,242,95747,38,0,L|312:296,1,53.9999983520508,4|0,0:1|0:0,0:0:0:0:
196,242,95918,2,0,L|200:296,1,53.9999983520508,4|0,0:1|0:0,0:0:0:0:
256,40,96090,53,4,0:1:0:0:
256,8,96175,1,4,0:1:0:0:
264,38,96261,1,4,0:1:0:0:
248,11,96347,1,4,0:1:0:0:
269,32,96432,37,4,0:1:0:0:
242,16,96518,1,4,0:1:0:0:
272,24,96604,1,4,0:1:0:0:
240,24,96690,1,4,0:1:0:0:
269,16,96775,5,4,0:1:0:0:
242,32,96861,1,4,0:1:0:0:
264,11,96947,1,4,0:1:0:0:
248,38,97032,1,4,0:1:0:0:
256,8,97118,5,4,0:1:0:0:
256,40,97204,1,4,0:1:0:0:
248,11,97290,1,4,0:1:0:0:
264,38,97376,1,4,0:1:0:0:
256,24,97461,5,4,1:0:0:0:
256,24,98318,2,0,P|248:44|292:48,1,53.9999983520508,0|0,0:0|0:0,0:0:0:0:
320,23,98490,70,0,B|281:3|233:11|233:11|217:39|217:39|197:7|197:7|133:3|101:39|101:39|72:4|32:8,1,337.5,12|0,0:1|0:0,0:0:0:0:
32,96,98832,54,0,L|40:264,1,157.500001502037,6|0,1:0|1:0,1:0:0:0:
384,160,99175,1,10,1:1:0:0:
384,160,99347,1,0,1:0:0:0:
128,352,99518,6,0,L|135:194,1,157.500001502037,2|4,1:0|1:0,1:0:0:0:
448,224,99861,1,10,1:1:0:0:
448,224,100032,1,0,1:0:0:0:
224,96,100204,5,4,0:1:0:0:
160,128,100290,1,4,0:1:0:0:
103,118,100375,1,4,0:1:0:0:
70,84,100461,1,4,0:1:0:0:
64,46,100547,1,12,0:1:0:0:
77,18,100632,1,4,0:1:0:0:
97,5,100718,1,4,0:1:0:0:
116,5,100804,1,4,0:1:0:0:
128,13,100890,6,0,B|156:9|156:9|176:17|176:17|220:13,1,78.7500007510185,6|0,1:0|0:0,0:0:0:0:
301,95,101061,2,0,B|273:91|273:91|253:99|253:99|224:96,1,78.7500007510185,4|0,1:0|0:0,0:0:0:0:
480,32,101232,2,0,B|464:92|464:92|479:145,1,118.125001126528,8|0,1:0|0:0,0:0:0:0:
452,132,101404,2,0,B|468:192|468:192|452:245,1,118.125001126528,4|0,1:0|0:0,0:0:0:0:
500,296,101575,38,0,P|416:288|344:308,1,157.500001502037,6|0,1:0|1:0,1:0:0:0:
128,128,101918,1,10,1:0:0:0:
128,128,102090,1,0,1:0:0:0:
288,352,102261,6,0,P|204:360|132:340,1,157.500001502037,2|4,1:0|1:0,1:0:0:0:
384,128,102604,1,10,1:0:0:0:
384,128,102776,1,0,1:0:0:0:
424,384,102947,5,4,0:1:0:0:
368,340,103032,1,4,0:1:0:0:
356,284,103118,1,4,0:1:0:0:
377,243,103204,1,4,0:1:0:0:
410,228,103290,1,12,0:1:0:0:
437,235,103375,1,4,0:1:0:0:
449,253,103461,1,4,0:1:0:0:
446,269,103547,1,4,0:1:0:0:
435,277,103632,6,0,P|416:240|423:181,1,78.7500007510185,6|0,1:0|0:0,0:0:0:0:
301,95,103804,1,4,1:0:0:0:
301,95,103890,1,2,1:0:0:0:
294,173,103975,2,0,L|286:265,1,78.7500007510185,8|2,1:0|0:1,0:0:0:0:
134,341,104147,2,0,L|123:223,1,118.125001126528,4|0,0:1|0:0,0:0:0:0:
60,192,104318,38,0,L|68:28,1,157.500001502037,6|0,1:0|1:0,1:0:0:0:
256,324,104661,1,10,1:0:0:0:
256,324,104832,1,0,1:0:0:0:
456,192,105004,6,0,L|463:349,1,157.500001502037,2|4,1:0|1:0,1:0:0:0:
256,56,105347,1,10,1:0:0:0:
256,56,105518,1,0,1:0:0:0:
256,324,105690,6,0,L|252:376,1,39.3750003755093,4|0,0:1|0:0,0:0:0:0:
239,289,105775,6,0,L|209:332,1,39.3750003755093,0|0,0:0|0:0,0:0:0:0:
241,250,105861,38,0,L|193:272,1,39.3750003755093,4|0,0:1|0:0,0:0:0:0:
262,217,105947,6,0,L|209:212,1,39.3750003755093,4|0,0:1|0:0,0:0:0:0:
297,200,106033,6,0,L|253:170,1,39.3750003755093,8|0,0:1|0:0,0:0:0:0:
335,202,106118,6,0,L|312:154,1,39.3750003755093,0|0,0:0|0:0,0:0:0:0:
368,224,106204,38,0,L|372:172,1,39.3750003755093,8|0,0:1|0:1,0:0:0:0:
386,258,106290,6,0,L|415:214,1,39.3750003755093,8|0,0:1|0:0,0:0:0:0:
380,296,106376,6,0,L|427:273,1,39.3750003755093,8|0,0:1|0:0,0:0:0:0:
362,328,106461,6,0,L|414:332,1,39.3750003755093,8|0,0:1|0:0,0:0:0:0:
326,346,106547,38,0,L|369:375,1,39.3750003755093,4|0,0:1|0:0,0:0:0:0:
288,345,106633,6,0,L|310:392,1,39.3750003755093,8|0,0:1|0:0,0:0:0:0:
312,273,106718,38,0,L|326:104,1,168.75,4|0,0:1|0:0,0:0:0:0:
393,83,107061,22,0,P|396:122|374:154,1,78.7500007510185,6|4,1:0|0:1,0:0:0:0:
258,126,107232,2,0,P|254:86|276:54,1,78.7500007510185,8|4,0:1|0:1,0:0:0:0:
431,107,107404,6,0,P|411:140|375:154,1,78.7500007510185,10|4,1:0|0:1,0:0:0:0:
220,103,107575,2,0,P|239:69|275:55,1,78.7500007510185,4|4,0:1|0:1,0:0:0:0:
448,149,107747,6,0,P|412:164|375:154,1,78.7500007510185,10|4,1:0|0:1,0:0:0:0:
202,61,107918,2,0,P|237:45|274:55,1,78.7500007510185,4|4,0:0|0:0,0:0:0:0:
436,193,108090,6,0,P|399:185|375:155,1,78.7500007510185,10|0,1:0|0:0,0:0:0:0:
213,17,108261,2,0,P|250:25|274:55,1,78.7500007510185,0|0,0:0|0:0,0:0:0:0:
173,300,108432,37,6,1:0:0:0:
297,200,108604,1,2,1:0:0:0:
492,336,108775,1,8,1:0:0:0:
472,340,108861,1,0,1:0:0:0:
424,320,108947,1,4,1:0:0:0:
404,324,109033,1,0,1:0:0:0:
356,304,109118,5,4,1:0:0:0:
437,74,109290,1,4,1:1:0:0:
437,74,109375,1,0,1:0:0:0:
437,74,109461,2,0,P|452:112|448:152,1,78.7500007510185,8|0,0:1|0:0,0:0:0:0:
483,272,109632,2,0,P|459:302|424:320,1,78.7500007510185,0|0,1:0|0:0,0:0:0:0:
220,200,109804,5,6,1:0:0:0:
320,76,109975,1,6,1:0:0:0:
356,304,110147,1,8,1:0:0:0:
336,300,110233,1,0,1:0:0:0:
288,320,110319,1,4,1:0:0:0:
268,316,110405,1,0,1:0:0:0:
220,336,110490,5,4,1:0:0:0:
64,162,110661,1,4,1:0:0:0:
64,162,110747,1,0,1:0:0:0:
64,162,110832,2,0,L|72:62,1,78.7500007510185,8|0,1:0|0:0,0:0:0:0:
184,0,111004,2,0,L|190:78,1,78.7500007510185,4|0,1:0|0:0,0:0:0:0:
375,154,111175,37,6,1:0:0:0:
220,336,111347,1,4,1:0:0:0:
200,340,111433,1,4,1:0:0:0:
152,320,111519,1,8,1:0:0:0:
132,324,111605,1,0,1:0:0:0:
84,304,111689,1,4,1:0:0:0:
64,308,111775,1,4,1:0:0:0:
16,288,111861,5,12,1:0:0:0:
220,200,112033,1,4,1:1:0:0:
220,200,112118,1,4,1:0:0:0:
220,200,112204,2,0,P|235:162|231:122,1,78.7500007510185,8|0,0:1|0:0,0:0:0:0:
184,0,112375,2,0,P|147:14|108:11,1,78.7500007510185,8|0,0:1|0:0,0:0:0:0:
320,76,112547,5,6,1:0:0:0:
379,115,112632,2,0,L|375:163,5,39.3750003755093,0|0|0|0|0|0,0:0|0:0|0:0|0:0|0:0|0:0,0:0:0:0:
434,193,112890,1,8,1:0:0:0:
438,213,112976,1,0,1:0:0:0:
418,261,113061,1,4,1:0:0:0:
414,281,113146,1,0,1:0:0:0:
434,329,113232,5,4,1:0:0:0:
64,284,113404,1,4,1:0:0:0:
64,284,113490,1,0,1:0:0:0:
64,284,113575,2,0,B|88:231|152:235|152:235|200:308|288:244,1,236.250002253056,8|0,1:0|0:0,0:0:0:0:
132,380,113918,37,6,1:0:0:0:
192,340,114004,2,0,L|248:344,5,39.3750003755093,0|0|4|0|0|0,0:0|0:0|0:1|0:0|0:0|0:0,0:0:0:0:
128,307,114262,1,8,1:0:0:0:
132,287,114348,1,0,1:0:0:0:
112,239,114433,1,4,1:0:0:0:
108,219,114518,1,0,1:0:0:0:
128,171,114604,5,4,1:0:0:0:
437,74,114775,1,4,1:0:0:0:
437,74,114861,1,4,1:0:0:0:
437,74,114947,2,0,P|437:113|425:150,1,78.7500007510185,8|0,1:0|0:0,0:0:0:0:
232,343,115118,2,0,P|220:305|220:266,1,78.7500007510185,4|0,1:0|0:0,0:0:0:0:
316,92,115290,5,14,1:0:0:0:
128,171,115461,1,4,1:0:0:0:
128,171,115547,1,4,1:0:0:0:
128,171,115632,1,8,1:0:0:0:
418,261,115804,1,8,1:0:0:0:
152,336,115975,5,14,1:0:0:0:
112,356,116061,1,0,1:0:0:0:
67,348,116147,1,4,1:0:0:0:
35,316,116232,1,4,1:0:0:0:
29,270,116318,2,0,P|45:228|46:183,1,90,8|0,1:0|0:0,0:0:0:0:
184,0,116490,2,0,P|185:44|201:86,1,90,4|0,1:0|0:0,0:0:0:0:
480,352,116661,6,0,L|484:244,1,101.250003862381,4|0,1:0|0:0,0:0:0:0:
484,251,117004,1,4,0:1:0:0:
256,192,117175,12,0,119061,0:0:0:0:
