osu file format v14

[General]
AudioFilename: audio.mp3
AudioLeadIn: 0
PreviewTime: 67290
Countdown: 0
SampleSet: Normal
StackLeniency: 0.7
Mode: 0
LetterboxInBreaks: 0
EpilepsyWarning: 1
WidescreenStoryboard: 1

[Editor]
Bookmarks: 2832,8318,13804,19290,24775,31632,38490,42604,46718,52204,57690,74832,82375,87861,93347,108432,112547,116661
DistanceSpacing: 1.2
BeatDivisor: 16
GridSize: 4
TimelineZoom: 4.799997

[Metadata]
Title:Avalanche
TitleUnicode:Avalanche
Artist:Memme
ArtistUnicode:Memme
Creator:Starfy
Version:Insane
Source:Pump it up Prime
Tags:starforyou aabc271 iloveyou4ever nardoxyribonucleic classic drumstep Andamiro PIU Antonio Vivaldi The Four Seasons Winter
BeatmapID:1295717
BeatmapSetID:611095

[Difficulty]
HPDrainRate:6
CircleSize:4
OverallDifficulty:7.5
ApproachRate:9
SliderMultiplier:1.6
SliderTickRate:1

[Events]
//Background and Video events
0,0,"BG.jpg",0,0
//Break Periods
//Storyboard Layer 0 (Background)
//Storyboard Layer 1 (Fail)
//Storyboard Layer 2 (Pass)
//Storyboard Layer 3 (Foreground)
//Storyboard Sound Samples

[TimingPoints]
90,342.857142857143,4,2,1,40,1,0
8318,-100,4,2,1,60,0,0
18604,-100,4,2,50,60,0,0
18775,-100,4,2,1,60,0,0
19975,-100,4,2,1,65,0,0
20661,-100,4,2,1,70,0,0
21347,-100,4,2,1,75,0,0
22032,-100,4,2,1,80,0,0
22718,-100,4,2,50,85,0,0
22890,-100,4,2,1,85,0,0
24432,-100,4,2,2,100,0,0
24775,-100,4,2,1,70,0,0
25461,-100,4,1,3,70,0,1
27518,-100,4,1,1,70,0,0
28804,-100,4,2,1,20,0,0
28890,-100,4,1,3,70,0,0
31290,-100,4,2,1,70,0,0
32318,-100,4,1,3,70,0,1
34375,-100,4,1,1,70,0,0
35747,-100,4,1,3,70,0,0
37975,-100,4,2,1,70,0,0
38490,-100,4,2,1,70,0,0
39175,-100,4,1,3,70,0,1
41232,-100,4,1,3,70,0,0
41918,-100,4,1,3,70,0,1
42604,-100,4,1,70,80,0,0
42690,-100,4,2,1,40,0,0
43975,-100,4,1,71,80,0,0
44061,-100,4,2,1,40,0,0
45004,-100,4,1,50,40,0,0
45175,-100,4,2,1,40,0,0
45347,-100,4,1,72,80,0,0
45432,-100,4,2,1,40,0,0
46375,-100,4,1,73,80,0,0
46461,-100,4,2,1,40,0,0
46718,-100,4,2,1,50,0,0
48090,-100,4,2,1,55,0,0
49461,-100,4,2,1,60,0,0
50832,-100,4,2,1,70,0,0
57004,-100,4,2,99,100,0,0
57047,-100,4,2,99,20,0,0
57175,-100,4,2,99,100,0,0
57218,-100,4,2,99,20,0,0
57347,-100,4,2,99,100,0,0
57390,-100,4,2,99,20,0,0
57518,-100,4,2,99,100,0,0
57561,-100,4,2,99,20,0,0
57690,-100,4,2,1,80,0,1
59061,-100,4,2,1,80,0,0
60432,-100,4,2,1,80,0,1
61804,-100,4,2,1,80,0,0
63175,-100,4,2,1,80,0,1
64547,-100,4,2,1,80,0,0
66947,-100,4,2,2,100,0,0
67290,-100,4,2,80,80,0,1
67375,-100,4,2,1,80,0,1
68661,-100,4,2,81,80,0,1
68747,-100,4,2,1,80,0,1
70032,-100,4,2,82,80,0,1
70118,-100,4,2,1,80,0,1
71404,-100,4,2,81,80,0,1
71490,-100,4,2,1,80,0,1
72775,-100,4,2,83,80,0,1
72861,-100,4,2,1,80,0,1
73461,-100,4,2,84,80,0,1
73547,-100,4,2,1,80,0,1
74147,-100,4,2,80,80,0,1
74232,-100,4,2,1,80,0,1
75518,-100,4,2,80,80,0,1
75604,-100,4,2,1,80,0,1
76890,-100,4,2,83,80,0,1
76975,-100,4,2,1,80,0,1
77575,-100,4,2,84,80,0,1
77661,-100,4,2,1,80,0,1
78261,-100,4,2,85,80,0,1
78347,-100,4,2,1,80,0,1
78947,-100,4,2,83,80,0,1
79032,-100,4,2,1,80,0,1
79632,-100,4,2,85,80,0,1
79718,-100,4,2,1,80,0,1
80318,-100,4,2,86,80,0,1
80404,-100,4,2,1,80,0,1
81004,-100,4,2,87,80,0,1
81090,-100,4,2,1,80,0,1
82375,-100,4,2,1,80,0,0
87861,-100,4,2,1,50,0,0
89232,-100,4,2,1,55,0,0
90604,-100,4,2,1,60,0,0
91975,-100,4,2,1,65,0,0
93004,-100,4,2,1,70,0,0
98490,-100,4,2,2,100,0,0
98832,-100,4,2,1,85,0,1
100204,-100,4,2,1,85,0,0
101575,-100,4,2,1,85,0,1
102947,-100,4,2,1,85,0,0
104318,-100,4,2,1,85,0,1
105690,-100,4,2,1,85,0,0
107061,-100,4,1,3,85,0,1
108090,-100,4,2,1,85,0,1
108347,-100,4,2,1,85,0,0
108432,-100,4,2,1,85,0,1
115975,-100,4,2,1,85,0,1
116661,-100,4,2,1,85,0,0
119061,-100,4,2,1,5,0,0

[Colours]
Combo1 : 128,128,128
Combo2 : 128,255,255
Combo3 : 128,255,128
Combo4 : 255,128,255
Combo5 : 255,255,128
Combo6 : 192,192,192

[HitObjects]
36,348,2832,6,0,P|56:292|48:228,1,120,4|0,1:0|0:0,0:0:0:0:
32,196,3175,2,0,L|40:100,1,80,4|2,0:3|0:0,0:0:0:0:
44,36,3518,5,0,1:0:0:0:
111,81,3690,2,0,L|115:129,2,40,0|0|4,0:0|0:0|0:3,0:0:0:0:
183,45,4032,1,2,0:0:0:0:
250,90,4204,6,0,P|308:104|376:88,1,120,4|0,1:0|0:0,0:0:0:0:
400,68,4547,2,0,P|440:64|488:72,1,80,4|2,0:3|0:0,0:0:0:0:
512,144,4890,5,0,1:0:0:0:
495,225,5061,1,0,0:0:0:0:
495,225,5147,1,0,0:0:0:0:
495,225,5233,1,4,0:3:0:0:
478,306,5404,1,2,0:0:0:0:
358,299,5575,38,0,P|299:297|256:336,1,120,6|0,1:0|0:0,0:0:0:0:
220,352,5918,2,0,P|180:340|132:344,1,80,4|2,0:3|0:0,0:0:0:0:
24,311,6261,6,0,L|32:192,1,120,2|0,1:0|0:0,0:0:0:0:
64,168,6604,2,0,P|103:169|141:157,1,80,4|2,0:3|0:0,0:0:0:0:
256,120,6947,6,0,L|252:40,1,80,6|0,1:0|0:0,0:0:0:0:
336,176,7290,2,0,L|332:96,1,80,2|0,1:0|0:0,0:0:0:0:
416,232,7632,6,0,L|412:152,1,80,2|0,1:0|0:0,0:0:0:0:
496,288,7975,2,0,L|492:208,1,80,2|0,1:0|0:0,0:0:0:0:
408,348,8318,38,0,P|351:328|292:331,1,120,6|0,1:0|0:0,0:0:0:0:
256,364,8661,1,2,1:0:0:0:
192,292,8832,1,0,0:0:0:0:
112,344,9004,6,0,P|96:284|124:224,1,120,2|0,1:0|0:0,0:0:0:0:
148,196,9347,2,0,L|232:200,1,80,2|0,1:0|0:0,0:0:0:0:
356,256,9690,6,0,L|352:112,1,120,6|0,1:0|0:0,0:0:0:0:
352,88,10032,1,2,1:0:0:0:
260,56,10204,1,0,0:0:0:0:
180,108,10375,6,0,P|128:120|56:100,1,120,2|0,1:0|0:0,0:0:0:0:
20,120,10718,2,0,P|8:158|9:197,1,80,2|0,1:0|0:0,0:0:0:0:
84,316,11061,38,0,L|220:312,1,120,6|0,1:0|0:0,0:0:0:0:
244,340,11404,1,2,1:0:0:0:
320,284,11575,1,0,0:0:0:0:
404,336,11747,6,0,P|436:316|452:228,1,120,2|0,1:0|0:0,0:0:0:0:
468,192,12090,2,0,L|460:88,1,80,2|0,1:0|0:0,0:0:0:0:
348,72,12432,6,0,L|352:12,2,40,6|2|0,1:0|1:0|1:0,0:0:0:0:
336,142,12690,1,2,1:0:0:0:
336,142,12775,2,0,P|296:141|256:146,1,80,2|2,1:2|1:2,0:0:0:0:
148,195,13118,6,0,P|207:199|256:232,1,120,4|0,1:0|0:0,0:0:0:0:
256,280,13461,2,0,L|252:368,1,80,2|4,0:0|1:0,0:0:0:0:
412,348,13804,38,0,L|404:220,1,120,4|0,1:0|0:0,0:0:0:0:
440,192,14147,2,0,P|468:168|476:124,1,80,8|0,1:0|0:0,0:0:0:0:
460,80,14404,1,0,0:0:0:0:
460,80,14490,1,0,1:0:0:0:
376,36,14661,1,0,0:0:0:0:
375,46,14747,1,0,0:0:0:0:
374,56,14832,2,0,P|335:48|309:19,1,80,8|0,1:0|0:0,0:0:0:0:
200,72,15175,6,0,L|64:76,1,120,0|0,1:0|0:0,0:0:0:0:
48,112,15518,2,0,P|40:151|42:190,1,80,8|0,1:0|0:0,0:0:0:0:
56,236,15775,1,0,0:0:0:0:
56,236,15861,1,0,1:0:0:0:
92,324,16032,1,0,0:0:0:0:
94,314,16118,1,0,0:0:0:0:
96,304,16204,2,0,P|135:296|175:296,1,80,8|0,1:0|0:0,0:0:0:0:
288,352,16547,6,0,P|340:368|408:360,1,120,4|0,1:0|0:0,0:0:0:0:
440,328,16890,2,0,L|436:228,1,80,8|0,1:0|0:0,0:0:0:0:
436,200,17147,1,0,0:0:0:0:
436,200,17232,1,0,1:0:0:0:
480,116,17404,1,0,0:0:0:0:
482,106,17490,1,0,0:0:0:0:
484,96,17575,2,0,L|480:16,1,80,8|0,1:0|0:0,0:0:0:0:
371,68,17918,6,0,P|315:47|256:54,1,120,0|0,1:0|0:0,0:0:0:0:
212,76,18261,2,0,P|204:114|212:155,1,80,8|0,1:0|0:0,0:0:0:0:
224,200,18518,1,0,0:0:0:0:
224,200,18604,1,2,1:0:0:0:
292,268,18775,1,0,0:0:0:0:
296,272,18861,1,0,0:0:0:0:
300,276,18947,2,0,P|340:284|379:276,1,80,8|0,1:0|0:0,0:0:0:0:
464,192,19290,38,0,L|460:92,1,80,4|0,1:0|0:0,0:0:0:0:
460,64,19547,1,0,0:0:0:0:
460,64,19632,1,8,1:0:0:0:
368,40,19804,2,0,L|371:0,2,40,0|0|4,0:0|0:0|1:0,0:0:0:0:
276,64,20147,2,0,L|279:103,2,40,0|0|8,0:0|0:0|1:0,0:0:0:0:
192,32,20490,1,0,0:0:0:0:
188,36,20575,1,0,0:0:0:0:
184,40,20661,6,0,L|72:44,1,80,4|0,1:0|0:0,0:0:0:0:
56,44,20918,1,0,0:0:0:0:
56,44,21004,1,8,1:0:0:0:
0,122,21175,2,0,L|4:166,2,40,0|0|4,0:0|0:0|1:0,0:0:0:0:
78,178,21518,2,0,L|82:222,2,40,0|0|8,0:0|0:0|1:0,0:0:0:0:
164,242,21861,1,0,0:0:0:0:
160,238,21947,1,0,0:0:0:0:
156,234,22032,6,0,L|208:230,3,40,4|0|0|0,1:0|0:0|0:0|0:0,0:0:0:0:
240,212,22375,2,0,L|236:300,1,80,8|0,1:0|0:0,0:0:0:0:
236,340,22632,1,0,0:0:0:0:
236,340,22718,1,6,1:0:0:0:
324,380,22890,1,0,0:0:0:0:
323,360,22975,1,0,0:0:0:0:
322,340,23061,1,8,1:0:0:0:
410,300,23232,1,0,1:0:0:0:
409,320,23317,1,0,1:0:0:0:
408,340,23404,6,0,L|456:336,3,40,4|0|0|0,1:0|1:0|1:0|1:0,0:0:0:0:
512,272,23747,2,0,L|464:268,3,40,8|0|4|0,1:0|1:0|1:0|1:0,0:0:0:0:
425,214,24090,1,4,1:0:0:0:
425,214,24175,1,0,1:0:0:0:
425,214,24261,2,0,L|427:178,3,20,0|0|0|0,1:0|1:0|1:0|1:0,0:0:0:0:
427,174,24432,2,0,L|419:86,1,80,14|0,1:0|0:0,0:0:0:0:
344,36,24775,6,0,L|343:56,14,20,4|0|0|0|0|0|0|0|0|0|0|0|0|0|0,1:0|0:0|0:0|0:0|0:0|0:0|0:0|0:0|0:0|0:0|0:0|0:0|0:0|0:0|0:0,0:0:0:0:
296,112,25461,22,0,L|300:168,7,40,12|0|0|0|0|0|4|0,1:1|0:0|0:0|0:0|0:0|0:0|0:0|0:0,0:0:0:0:
252,208,26147,5,4,0:0:0:0:
233,180,26232,1,0,0:1:0:0:
203,164,26318,1,0,0:1:0:0:
169,164,26404,1,0,0:1:0:0:
139,179,26490,1,8,0:0:0:0:
116,204,26575,1,0,0:0:0:0:
108,237,26661,1,4,0:0:0:0:
116,270,26747,1,0,0:0:0:0:
138,295,26832,6,0,L|206:291,3,40,8|0|0|0,0:0|0:0|0:0|0:0,0:0:0:0:
236,332,27175,2,0,L|275:329,3,40,4|0|0|0,0:3|0:0|0:0|0:0,0:0:0:0:
334,290,27518,5,4,1:0:0:0:
353,288,27603,1,4,1:0:0:0:
373,287,27689,1,4,0:0:0:0:
392,285,27775,1,4,0:0:0:0:
412,284,27861,2,0,P|424:324|420:368,1,80,8|4,0:0|0:0,0:0:0:0:
504,248,28204,38,0,B|453:189|469:93|469:93|429:129|446:160,1,240,4|0,2:1|0:0,0:0:0:0:
445,158,28890,6,0,P|392:136|312:152,1,120,4|0,0:0|2:0,0:0:0:0:
292,168,29232,1,8,0:0:0:0:
208,120,29404,2,0,P|144:132|64:52,1,160,4|8,0:0|0:0,0:0:0:0:
160,36,29918,1,4,0:0:0:0:
36,160,30090,6,0,L|43:0,1,160,8|4,0:0|0:3,0:0:0:0:
43,0,30604,1,8,0:0:0:0:
153,196,30775,2,0,L|160:36,1,160,4|8,0:0|0:0,0:0:0:0:
160,36,31204,1,8,0:0:0:0:
160,36,31290,2,0,P|199:40|238:32,1,80,4|0,0:0|0:0,0:0:0:0:
344,88,31632,38,0,L|310:86,14,20,4|0|0|0|0|0|0|0|0|0|0|0|0|0|0,0:1|0:0|0:0|0:0|0:0|0:0|0:0|0:0|0:0|0:0|0:0|0:0|0:0|0:0|0:0,0:0:0:0:
260,124,32318,6,0,L|215:126,7,40,8|0|0|0|0|0|4|0,0:1|0:0|0:0|0:0|0:0|0:0|0:0|0:0,0:0:0:0:
156,89,33004,5,4,0:0:0:0:
140,116,33090,1,0,0:0:0:0:
139,147,33175,1,0,0:0:0:0:
154,174,33261,1,0,0:0:0:0:
180,190,33346,1,0,0:0:0:0:
194,216,33432,1,0,0:0:0:0:
193,246,33518,1,0,0:0:0:0:
177,271,33604,1,0,0:0:0:0:
150,284,33690,6,0,L|154:336,3,40,8|0|0|0,0:0|0:0|0:0|0:0,0:0:0:0:
222,324,34032,2,0,L|226:376,3,40,0|0|0|0,0:0|0:0|0:0|0:0,0:0:0:0:
294,364,34375,5,0,0:0:0:0:
307,349,34461,1,0,0:0:0:0:
322,337,34547,1,0,0:0:0:0:
340,329,34632,1,0,0:0:0:0:
358,324,34718,2,0,L|418:328,1,40,0|0,0:0|0:0,0:0:0:0:
468,284,34890,37,4,0:0:0:0:
455,269,34976,1,4,0:0:0:0:
440,257,35062,1,8,0:0:0:0:
422,249,35147,1,0,0:0:0:0:
404,244,35233,2,0,L|344:248,1,40,4|4,0:0|0:0,0:0:0:0:
320,192,35404,2,0,L|324:84,1,80,8|0,0:0|0:0,0:0:0:0:
256,40,35747,6,0,P|196:52|120:44,1,120,4|0,0:0|2:0,0:0:0:0:
92,36,36090,1,12,0:0:0:0:
40,116,36261,2,0,P|67:190|56:268,1,160,4|8,0:0|0:0,0:0:0:0:
0,348,36775,1,4,0:0:0:0:
160,340,36947,6,0,L|1:348,1,160,8|4,0:0|0:0,0:0:0:0:
0,348,37461,1,8,0:0:0:0:
129,252,37632,2,0,P|168:246|206:258,1,80,8|0,0:0|0:0,0:0:0:0:
80,320,37975,2,0,P|48:232|92:176,1,160,4|0,0:0|0:0,0:0:0:0:
172,103,38490,22,0,L|198:105,14,20,4|0|0|0|0|0|0|0|0|0|0|0|0|0|0,1:0|0:0|0:0|0:0|0:0|0:0|0:0|0:0|0:0|0:0|0:0|0:0|0:0|0:0|0:0,0:0:0:0:
256,140,39175,22,0,L|304:136,7,40,8|0|0|0|0|0|4|0,0:0|0:0|0:0|0:0|0:0|0:0|0:0|0:0,0:0:0:0:
360,102,39861,5,4,0:0:0:0:
384,80,39947,1,0,0:0:0:0:
416,72,40032,1,0,0:0:0:0:
447,81,40118,1,0,0:0:0:0:
470,105,40203,1,0,0:0:0:0:
477,137,40290,1,0,0:0:0:0:
468,168,40375,1,4,0:0:0:0:
445,191,40461,1,0,0:0:0:0:
412,198,40547,6,0,L|416:246,3,40,8|0|0|0,0:0|0:0|0:0|0:0,0:0:0:0:
472,280,40890,2,0,L|468:328,3,40,0|0|0|0,0:0|0:0|0:0|0:0,0:0:0:0:
412,362,41232,5,0,0:0:0:0:
412,362,41347,2,0,L|372:358,9,26.6666666666667,0|0|0|0|0|0|0|0|0|0,0:0|0:0|0:0|0:0|0:0|0:0|0:0|0:0|0:0|0:0,0:0:0:0:
360,356,41918,2,0,B|276:352|276:352|216:376|216:376|116:372,1,240,12|0,0:1|0:0,0:0:0:0:
212,296,42604,38,0,L|215:375,1,80,4|0,2:1|0:0,0:0:0:0:
300,264,42947,1,0,2:1:0:0:
300,264,43118,1,0,0:0:0:0:
141,236,43290,6,0,L|144:156,1,80,0|0,2:1|0:0,0:0:0:0:
300,264,43632,1,0,2:1:0:0:
300,264,43804,1,0,0:0:0:0:
70,296,43975,6,0,L|73:375,1,80,4|0,2:1|0:0,0:0:0:0:
300,264,44318,1,0,2:1:0:0:
300,264,44489,1,0,0:0:0:0:
141,236,44661,6,0,L|144:156,1,80,0|0,2:1|0:0,0:0:0:0:
300,264,45003,1,2,2:1:0:0:
300,264,45175,1,0,2:0:0:0:
131,368,45347,37,4,2:1:0:0:
70,296,45518,1,0,0:0:0:0:
70,296,45604,1,0,0:0:0:0:
70,296,45690,1,0,2:1:0:0:
70,296,45775,1,0,0:0:0:0:
70,296,45861,1,0,0:0:0:0:
141,236,46032,6,0,L|143:179,2,40,0|0|0,2:1|0:0|0:0,0:0:0:0:
202,308,46375,2,0,P|240:320|280:316,1,80,14|0,0:1|0:0,0:0:0:0:
348,272,46718,6,0,L|344:192,1,80,4|0,1:0|0:0,0:0:0:0:
344,192,46975,1,0,0:0:0:0:
344,192,47061,1,4,0:1:0:0:
253,152,47232,2,0,L|256:112,2,40,0|0|4,0:0|0:0|0:1,0:0:0:0:
162,192,47575,2,0,L|165:232,2,40,0|0|4,0:0|0:0|0:1,0:0:0:0:
71,152,47918,1,0,0:0:0:0:
71,152,48004,1,0,0:0:0:0:
70,152,48090,6,0,P|63:191|71:230,1,80,4|0,0:1|0:0,0:0:0:0:
71,230,48347,1,0,0:0:0:0:
71,230,48432,1,4,0:1:0:0:
116,312,48604,2,0,P|116:332|112:356,2,40,0|0|4,0:0|0:0|0:1,0:0:0:0:
161,230,48947,2,0,P|161:210|157:186,2,40,0|0|4,0:0|0:0|0:1,0:0:0:0:
206,312,49290,1,0,0:0:0:0:
206,312,49375,1,0,0:0:0:0:
206,312,49461,38,0,L|288:308,1,80,4|0,0:1|0:0,0:0:0:0:
285,308,49718,1,0,0:0:0:0:
285,308,49804,1,4,0:1:0:0:
372,256,49975,2,0,L|424:260,2,40,0|0|4,0:0|0:0|0:1,0:0:0:0:
285,204,50318,2,0,L|233:208,2,40,0|0|4,0:0|0:0|0:1,0:0:0:0:
372,152,50661,1,0,0:0:0:0:
372,152,50747,1,0,0:0:0:0:
372,152,50832,6,0,P|376:112|360:52,1,80,4|0,0:1|0:0,0:0:0:0:
368,73,51090,1,0,0:0:0:0:
368,73,51175,1,4,0:1:0:0:
276,40,51347,2,0,P|275:20|278:0,2,40,0|0|4,0:0|0:0|0:1,0:0:0:0:
183,73,51690,2,0,P|182:92|185:112,1,40,4|4,0:1|0:1,0:0:0:0:
204,192,51861,2,0,P|145:183|88:202,1,120,12|0,0:1|0:0,0:0:0:0:
68,236,52204,6,0,L|72:332,1,80,4|4,1:0|1:0,0:0:0:0:
160,352,52547,1,4,0:1:0:0:
160,352,52718,1,4,0:1:0:0:
252,236,52890,6,0,L|256:332,1,80,4|4,1:0|1:0,0:0:0:0:
344,352,53233,1,4,0:1:0:0:
344,352,53404,1,4,0:1:0:0:
460,259,53575,38,0,L|364:255,1,80,4|4,1:0|1:0,0:0:0:0:
344,167,53919,1,4,0:1:0:0:
344,167,54090,1,4,0:1:0:0:
460,75,54261,6,0,L|364:78,1,80,4|4,1:0|1:0,0:0:0:0:
344,167,54604,1,4,0:1:0:0:
344,167,54775,1,4,0:1:0:0:
256,84,54947,5,4,0:1:0:0:
228,72,55032,1,4,0:1:0:0:
197,70,55118,1,4,0:1:0:0:
167,77,55204,1,4,0:1:0:0:
141,94,55290,1,4,0:1:0:0:
120,118,55375,1,4,0:1:0:0:
109,147,55461,1,4,0:1:0:0:
106,179,55547,1,4,0:1:0:0:
114,209,55632,5,4,0:1:0:0:
134,232,55718,1,4,0:1:0:0:
162,243,55804,1,4,0:1:0:0:
192,240,55890,1,4,0:1:0:0:
217,224,55976,1,4,0:1:0:0:
246,221,56061,1,4,0:1:0:0:
273,231,56147,1,4,0:1:0:0:
293,253,56232,1,4,0:1:0:0:
300,281,56318,37,4,1:0:0:0:
396,352,56490,53,6,1:0:0:0:
397,342,56575,1,6,1:0:0:0:
398,332,56661,1,6,1:0:0:0:
399,322,56747,1,6,1:0:0:0:
400,312,56833,1,6,1:0:0:0:
401,302,56918,1,6,1:0:0:0:
402,292,57004,22,0,L|450:288,1,40,2|0,1:0|0:0,0:0:0:0:
424,150,57175,6,0,L|384:153,1,40,2|0,1:0|0:0,0:0:0:0:
484,232,57347,6,0,L|480:192,1,40,2|0,1:0|0:0,0:0:0:0:
342,210,57518,6,0,L|345:249,1,40,2|0,1:0|0:0,0:0:0:0:
303,307,57690,38,0,L|223:300,1,80,6|0,1:0|0:0,0:0:0:0:
160,348,58032,1,2,0:1:0:0:
160,348,58204,1,0,0:0:0:0:
16,278,58375,6,0,L|96:271,1,80,10|0,1:0|0:0,0:0:0:0:
160,348,58718,1,2,0:1:0:0:
160,348,58890,1,0,0:0:0:0:
256,220,59061,5,4,1:0:0:0:
255,211,59146,1,0,0:0:0:0:
254,202,59232,1,0,0:0:0:0:
253,193,59318,1,0,0:0:0:0:
252,184,59403,1,0,0:0:0:0:
252,175,59489,1,0,0:0:0:0:
251,166,59575,1,0,0:0:0:0:
250,158,59660,1,0,0:0:0:0:
249,149,59746,5,8,1:0:0:0:
348,80,59918,2,0,L|350:40,2,26.6666666666667,4|4|4,0:1|0:1|0:1,0:0:0:0:
368,108,60090,2,0,P|427:114|477:81,1,120,12|0,1:0|0:0,0:0:0:0:
476,82,60432,38,0,P|464:120|464:164,1,80,6|0,1:0|0:0,0:0:0:0:
472,240,60775,1,2,0:1:0:0:
472,240,60947,1,0,0:0:0:0:
404,384,61118,38,0,P|391:346|391:302,1,80,6|0,1:0|0:0,0:0:0:0:
472,240,61461,1,2,0:1:0:0:
472,240,61633,1,0,0:0:0:0:
320,288,61804,69,4,1:0:0:0:
312,292,61890,1,0,0:0:0:0:
303,294,61975,1,0,0:0:0:0:
294,295,62061,1,0,0:0:0:0:
284,293,62146,1,0,0:0:0:0:
275,290,62232,1,0,0:0:0:0:
267,286,62317,1,0,0:0:0:0:
259,281,62403,1,0,0:0:0:0:
251,270,62490,6,0,B|232:228|176:224|176:224|156:268|104:280|104:280|84:232|28:228,1,280,8|0,1:0|0:0,0:0:0:0:
34,228,63175,38,0,L|38:132,1,80,6|0,1:0|0:0,0:0:0:0:
104,104,63518,1,2,0:1:0:0:
104,104,63690,1,0,0:0:0:0:
236,192,63861,6,0,L|140:188,1,80,6|0,1:0|0:0,0:0:0:0:
104,104,64204,1,2,0:1:0:0:
104,104,64376,1,0,0:0:0:0:
256,56,64547,5,4,1:0:0:0:
266,55,64632,1,0,0:0:0:0:
276,55,64718,1,0,0:0:0:0:
286,55,64804,1,0,0:0:0:0:
296,54,64889,1,0,0:0:0:0:
306,54,64975,1,0,0:0:0:0:
316,53,65061,1,0,0:0:0:0:
326,53,65146,1,0,0:0:0:0:
336,52,65232,6,0,L|333:81,14,20,12|4|4|4|4|4|4|4|4|4|4|4|4|4|4,0:1|0:1|0:1|0:1|0:1|0:1|0:1|0:1|0:1|0:1|0:1|0:1|0:1|0:1|0:1,0:0:0:0:
402,100,65918,37,4,1:0:0:0:
403,119,66003,1,0,0:0:0:0:
404,138,66090,1,0,0:0:0:0:
405,157,66175,1,0,0:0:0:0:
406,176,66261,1,4,0:1:0:0:
407,195,66348,1,0,0:1:0:0:
408,214,66432,2,0,L|464:210,1,40,4|4,1:0|1:0,0:0:0:0:
512,260,66604,5,8,1:0:0:0:
476,276,66690,1,8,1:0:0:0:
451,307,66775,1,4,1:0:0:0:
444,345,66861,1,4,1:0:0:0:
455,383,66947,2,0,P|415:371|371:375,1,80,14|0,1:0|0:0,0:0:0:0:
256,304,67290,6,0,L|128:308,1,120,4|0,0:1|0:0,0:0:0:0:
108,268,67632,2,0,P|103:228|114:190,1,80,8|0,0:1|0:0,0:0:0:0:
32,144,67975,2,0,L|24:20,2,120,4|0|0,0:1|0:0|0:0,0:0:0:0:
114,190,68661,6,0,P|172:203|230:190,1,120,4|0,0:1|0:0,0:0:0:0:
256,148,69004,2,0,P|264:109|256:70,1,80,8|0,0:1|0:0,0:0:0:0:
352,72,69347,2,0,P|407:50|467:48,2,120,4|0|0,0:1|0:0|0:0,0:0:0:0:
328,164,70032,38,0,L|332:296,1,120,4|0,0:1|0:0,0:0:0:0:
331,331,70375,2,0,P|295:315|256:318,1,80,8|0,0:1|0:0,0:0:0:0:
160,336,70718,2,0,P|100:348|32:328,2,120,4|0|0,0:1|0:0|0:0,0:0:0:0:
256,318,71404,6,0,P|268:260|254:202,1,120,4|0,0:1|0:0,0:0:0:0:
208,192,71747,2,0,L|120:196,1,80,8|0,0:1|0:0,0:0:0:0:
52,136,72090,2,0,L|56:272,2,120,4|0|0,0:1|0:0|0:0,0:0:0:0:
104,56,72775,6,0,P|162:43|220:56,1,120,4|0,0:1|0:0,0:0:0:0:
256,89,73118,2,0,P|295:93|335:86,1,80,8|0,0:1|0:0,0:0:0:0:
412,32,73461,2,0,P|431:92|407:147,1,120,4|0,0:1|0:0,0:0:0:0:
364,152,73804,2,0,L|368:240,1,80,8|0,0:1|0:0,0:0:0:0:
448,284,74147,6,0,B|396:260|396:260|284:268,1,160,4|8,0:1|0:1,0:0:0:0:
256,356,74661,1,0,0:0:0:0:
256,356,74747,1,0,0:0:0:0:
256,356,74832,38,0,L|116:352,1,120,4|0,0:1|0:0,0:0:0:0:
100,320,75175,2,0,P|92:280|100:232,1,80,8|0,0:1|0:0,0:0:0:0:
140,156,75518,2,0,P|198:164|254:144,2,120,4|0|0,0:1|0:0|0:0,0:0:0:0:
140,60,76204,6,0,P|198:51|254:71,1,120,4|0,0:1|0:0,0:0:0:0:
300,92,76547,2,0,P|344:100|384:88,1,80,8|0,0:1|0:0,0:0:0:0:
460,40,76890,6,0,L|452:164,1,120,4|0,0:1|0:0,0:0:0:0:
416,192,77232,2,0,L|421:271,1,80,8|0,0:1|0:0,0:0:0:0:
452,364,77575,6,0,P|400:344|324:352,1,120,4|0,0:1|0:0,0:0:0:0:
288,352,77918,2,0,P|248:355|212:340,1,80,8|0,0:1|0:0,0:0:0:0:
116,348,78261,38,0,P|140:268|128:191,1,160,4|8,0:1|0:1,0:0:0:0:
40,156,78775,1,0,0:0:0:0:
40,156,78861,1,0,0:0:0:0:
40,156,78947,6,0,L|44:36,1,120,4|0,0:1|0:0,0:0:0:0:
88,20,79290,2,0,P|132:16|176:36,1,80,8|0,0:1|0:0,0:0:0:0:
256,60,79632,2,0,P|316:64|376:40,2,120,4|0|0,0:1|0:0|0:0,0:0:0:0:
183,123,80318,6,0,P|167:182|179:242,1,120,6|0,0:1|0:0,0:0:0:0:
176,288,80661,2,0,P|215:280|255:280,1,80,8|0,0:1|0:0,0:0:0:0:
336,228,81004,2,0,P|395:244|455:232,2,120,4|0|0,0:1|0:0|0:0,0:0:0:0:
256,172,81690,6,0,L|260:48,1,120,4|0,0:1|0:0,0:0:0:0:
216,72,82032,2,0,P|176:80|120:76,1,80,8|4,0:1|0:1,0:0:0:0:
48,44,82375,37,4,0:1:0:0:
62,138,82547,1,0,0:0:0:0:
62,138,82632,1,0,0:0:0:0:
62,138,82718,1,8,0:1:0:0:
18,222,82890,1,4,0:1:0:0:
32,316,83061,6,0,B|56:376|108:384|108:384|72:304|144:236,1,240,8|4,0:1|0:1,0:0:0:0:
123,259,83747,5,4,0:1:0:0:
192,192,83918,1,0,0:0:0:0:
192,192,84004,1,0,0:0:0:0:
192,192,84090,1,8,0:1:0:0:
284,218,84261,1,4,0:1:0:0:
353,150,84432,6,0,B|377:90|429:82|429:82|393:162|465:230,1,240,8|0,0:1|0:0,0:0:0:0:
444,207,85118,37,4,0:1:0:0:
380,284,85290,1,4,0:1:0:0:
378,274,85375,1,4,0:1:0:0:
376,264,85461,2,0,P|328:248|256:268,1,120,8|0,0:1|0:0,0:0:0:0:
246,276,85804,5,4,0:1:0:0:
168,212,85975,1,4,0:1:0:0:
170,202,86061,1,4,0:1:0:0:
172,192,86147,2,0,L|168:72,1,120,8|0,0:1|0:0,0:0:0:0:
174,53,86490,5,4,0:1:0:0:
338,53,86661,1,4,0:1:0:0:
256,140,86832,1,4,0:1:0:0:
256,150,86918,1,0,0:0:0:0:
256,160,87004,1,4,0:1:0:0:
256,170,87090,1,0,0:0:0:0:
256,180,87175,6,0,L|260:224,1,40,4|4,0:1|0:1,0:0:0:0:
328,200,87347,2,0,L|332:244,1,40,4|4,0:1|0:1,0:0:0:0:
400,220,87518,2,0,L|408:318,1,80,6|0,0:0|0:0,0:0:0:0:
344,352,87861,38,0,P|306:339|267:346,1,80,4|0,0:1|0:0,0:0:0:0:
267,346,88118,1,0,0:0:0:0:
267,346,88204,1,4,0:1:0:0:
182,294,88375,2,0,L|186:246,2,40,0|0|4,0:1|0:0|0:1,0:0:0:0:
96,345,88718,2,0,L|100:393,2,40,0|0|4,0:1|0:0|0:1,0:0:0:0:
7,302,89061,1,0,0:1:0:0:
7,302,89147,1,0,0:0:0:0:
7,302,89232,6,0,P|3:263|16:190,1,80,4|0,0:1|0:0,0:0:0:0:
7,222,89490,1,0,0:0:0:0:
7,222,89575,1,4,0:1:0:0:
68,144,89747,2,0,P|72:124|72:100,2,40,0|0|4,0:0|0:0|0:1,0:0:0:0:
132,219,90090,2,0,P|136:239|136:263,2,40,0|0|4,0:0|0:0|0:1,0:0:0:0:
196,144,90432,1,0,0:0:0:0:
196,144,90518,1,0,0:0:0:0:
196,144,90604,6,0,L|312:148,1,80,4|0,0:1|0:0,0:0:0:0:
276,147,90861,1,0,0:0:0:0:
276,147,90947,1,4,0:1:0:0:
356,208,91118,2,0,L|404:204,2,40,0|0|4,0:0|0:0|0:1,0:0:0:0:
276,269,91461,2,0,L|228:265,2,40,0|0|4,0:0|0:0|0:1,0:0:0:0:
356,330,91804,1,0,0:0:0:0:
356,330,91890,1,0,0:0:0:0:
356,330,91975,6,0,P|400:336|436:328,1,80,4|0,0:1|0:0,0:0:0:0:
434,328,92232,1,0,0:0:0:0:
434,328,92318,1,4,0:1:0:0:
496,252,92490,2,0,P|500:232|512:212,2,40,0|0|4,0:0|0:0|0:1,0:0:0:0:
442,179,92832,2,0,P|438:159|426:139,1,40,4|4,0:1|0:1,0:0:0:0:
464,68,93004,2,0,L|324:72,1,120,12|0,0:1|0:0,0:0:0:0:
316,112,93347,38,0,L|319:191,1,80,4|4,1:0|1:0,0:0:0:0:
256,264,93690,1,4,0:1:0:0:
256,264,93861,1,4,0:1:0:0:
196,112,94032,6,0,L|199:191,1,80,4|4,1:0|1:0,0:0:0:0:
136,264,94375,1,4,0:1:0:0:
136,264,94546,1,4,0:1:0:0:
287,330,94718,6,0,L|208:327,1,80,4|4,1:0|1:0,0:0:0:0:
136,264,95061,1,4,0:1:0:0:
136,264,95232,1,4,0:1:0:0:
287,198,95404,6,0,L|208:195,1,80,4|4,1:0|1:0,0:0:0:0:
136,264,95747,1,4,0:1:0:0:
136,264,95918,1,4,0:1:0:0:
84,156,96090,37,4,0:1:0:0:
76,128,96175,1,4,0:1:0:0:
77,98,96261,1,4,0:1:0:0:
86,70,96347,1,4,0:1:0:0:
105,46,96433,1,4,0:1:0:0:
129,29,96518,1,4,0:1:0:0:
157,22,96604,1,4,0:1:0:0:
187,22,96690,1,4,0:1:0:0:
216,31,96776,5,4,0:1:0:0:
239,48,96861,1,4,0:1:0:0:
254,73,96947,1,4,0:1:0:0:
264,101,97033,1,4,0:1:0:0:
264,131,97119,1,4,0:1:0:0:
273,159,97204,1,4,0:1:0:0:
290,183,97290,1,4,0:1:0:0:
314,200,97375,1,4,0:1:0:0:
342,208,97461,5,4,1:0:0:0:
342,208,98490,2,0,L|338:300,1,80,12|0,0:1|0:0,0:0:0:0:
256,376,98832,54,0,P|220:364|172:368,1,80,6|0,1:0|1:0,0:0:0:0:
88,372,99175,1,10,1:1:0:0:
88,372,99347,1,0,1:0:0:0:
0,236,99518,6,0,L|4:320,1,80,2|4,1:0|1:0,0:0:0:0:
88,372,99861,1,10,1:1:0:0:
88,372,100032,1,0,1:0:0:0:
220,280,100204,5,4,0:1:0:0:
222,270,100290,1,4,0:1:0:0:
222,259,100375,1,4,0:1:0:0:
220,248,100461,1,4,0:1:0:0:
216,238,100546,1,12,0:1:0:0:
213,227,100632,1,4,0:1:0:0:
212,216,100718,1,4,0:1:0:0:
213,204,100804,1,4,0:1:0:0:
216,192,100890,6,0,P|240:196|280:192,1,40,6|0,1:0|0:0,0:0:0:0:
316,156,101061,1,4,1:0:0:0:
316,156,101147,1,0,0:0:0:0:
316,156,101232,2,0,L|312:96,1,40,8|0,1:0|0:0,0:0:0:0:
386,116,101404,2,0,L|388:155,1,40,4|0,1:0|0:0,0:0:0:0:
448,195,101575,38,0,P|485:208|512:240,1,80,6|0,1:0|1:0,0:0:0:0:
440,276,101918,1,10,1:0:0:0:
440,276,102090,1,0,1:0:0:0:
340,384,102261,6,0,P|333:344|347:306,1,80,2|4,1:0|1:0,0:0:0:0:
440,276,102604,1,10,1:0:0:0:
440,276,102775,1,0,1:0:0:0:
288,224,102947,5,4,0:1:0:0:
278,226,103032,1,4,0:1:0:0:
268,228,103118,1,4,0:1:0:0:
258,230,103204,1,4,0:1:0:0:
248,232,103290,1,12,0:1:0:0:
239,226,103375,1,4,0:1:0:0:
230,220,103461,1,4,0:1:0:0:
221,214,103547,1,4,0:1:0:0:
212,208,103632,6,0,L|216:108,1,80,6|4,1:0|1:0,0:0:0:0:
176,68,103890,1,2,1:0:0:0:
176,68,103975,2,0,P|152:76|120:76,1,40,8|2,1:0|0:1,0:0:0:0:
68,56,104147,1,4,0:1:0:0:
36,172,104318,38,0,P|24:210|26:249,1,80,6|0,1:0|1:0,0:0:0:0:
68,320,104661,1,10,1:0:0:0:
68,320,104832,1,0,1:0:0:0:
220,268,105004,6,0,P|181:256|142:258,1,80,2|4,1:0|1:0,0:0:0:0:
68,320,105347,1,10,1:0:0:0:
68,320,105518,1,0,1:0:0:0:
214,364,105690,6,0,L|216:384,1,20,4|0,0:1|0:0,0:0:0:0:
226,360,105775,2,0,L|228:380,1,20
238,356,105861,2,0,L|240:376,1,20,4|0,0:1|0:0,0:0:0:0:
250,352,105947,2,0,L|252:372,1,20,4|0,0:1|0:0,0:0:0:0:
262,348,106033,2,0,L|264:368,1,20,8|0,0:1|0:0,0:0:0:0:
274,344,106118,2,0,L|276:364,1,20
286,340,106204,2,0,L|288:360,1,20,8|0,0:1|0:1,0:0:0:0:
298,336,106290,2,0,L|300:356,1,20,8|0,0:1|0:0,0:0:0:0:
310,332,106376,2,0,L|312:352,1,20,8|0,0:1|0:0,0:0:0:0:
322,328,106461,2,0,L|324:348,1,20,8|0,0:1|0:0,0:0:0:0:
334,324,106547,2,0,L|336:344,1,20,4|0,0:1|0:0,0:0:0:0:
346,320,106633,2,0,L|348:340,1,20,8|0,0:1|0:0,0:0:0:0:
360,336,106718,38,0,L|452:340,1,80,4|0,0:1|0:0,0:0:0:0:
481,247,107061,6,0,L|480:208,3,40,6|4|8|4,1:0|0:1|0:1|0:1,0:0:0:0:
432,156,107404,1,10,1:0:0:0:
433,128,107489,1,4,0:1:0:0:
434,99,107575,1,4,0:1:0:0:
435,71,107661,1,4,0:1:0:0:
436,43,107747,6,0,L|396:44,3,40,10|4|4|4,1:0|0:1|0:0|0:0,0:0:0:0:
344,92,108090,2,0,P|340:112|340:140,1,40,10|0,1:0|0:0,0:0:0:0:
277,71,108261,2,0,P|273:51|272:31,1,40,0|0,0:0|0:0,0:0:0:0:
210,92,108432,6,0,L|120:88,1,80,6|2,1:0|1:0,0:0:0:0:
32,160,108775,1,8,1:0:0:0:
34,180,108861,1,0,1:0:0:0:
36,200,108947,1,4,1:0:0:0:
38,220,109032,1,0,1:0:0:0:
40,240,109118,2,0,P|52:280|48:328,1,80,4|4,1:0|1:1,0:0:0:0:
152,384,109461,2,0,L|160:296,1,80,8|0,0:1|1:0,0:0:0:0:
256,176,109804,6,0,P|294:168|336:177,1,80,6|6,1:0|1:0,0:0:0:0:
416,264,110147,1,8,1:0:0:0:
418,244,110232,1,0,1:0:0:0:
420,224,110318,1,4,1:0:0:0:
422,204,110404,1,0,1:0:0:0:
424,184,110490,1,4,1:0:0:0:
385,102,110661,1,4,1:0:0:0:
334,176,110832,1,8,1:0:0:0:
475,110,111004,1,4,1:0:0:0:
348,21,111175,37,6,1:0:0:0:
297,95,111347,1,4,1:0:0:0:
297,95,111432,1,4,1:0:0:0:
297,95,111518,2,0,L|301:135,3,40,8|0|4|4,1:0|1:0|1:0|1:0,0:0:0:0:
342,192,111861,2,0,L|338:280,1,80,12|4,1:0|1:1,0:0:0:0:
338,271,112118,1,4,1:0:0:0:
338,271,112204,1,8,0:1:0:0:
454,350,112375,1,8,0:1:0:0:
480,192,112547,6,0,L|476:104,1,80,6|0,1:0|0:0,0:0:0:0:
360,76,112890,1,8,1:0:0:0:
344,88,112975,1,0,1:0:0:0:
325,94,113061,1,4,1:0:0:0:
305,94,113147,1,0,1:0:0:0:
286,87,113232,2,0,P|274:51|282:-5,1,80,4|4,1:0|1:0,0:0:0:0:
156,32,113575,2,0,P|116:28|64:32,1,80,8|0,1:0|0:0,0:0:0:0:
32,164,113918,6,0,L|36:248,1,80,6|4,1:0|0:1,0:0:0:0:
120,332,114261,1,8,1:0:0:0:
136,320,114347,1,0,1:0:0:0:
153,310,114432,1,4,1:0:0:0:
171,303,114518,1,0,1:0:0:0:
191,299,114603,1,4,1:0:0:0:
280,316,114775,1,4,1:0:0:0:
220,384,114947,1,8,1:0:0:0:
251,231,115118,1,4,1:0:0:0:
369,333,115290,5,14,1:0:0:0:
428,264,115461,1,4,1:0:0:0:
428,264,115547,1,4,1:0:0:0:
428,264,115632,1,8,1:0:0:0:
280,316,115804,1,8,1:0:0:0:
458,350,115975,37,14,1:0:0:0:
339,247,116147,1,4,1:0:0:0:
339,247,116232,1,4,1:0:0:0:
339,247,116318,2,0,P|327:211|335:155,1,80,8|4,1:0|1:0,0:0:0:0:
444,68,116661,54,0,B|480:32|480:32|456:84|471:139,1,160,4|4,1:0|0:1,0:0:0:0:
256,192,117175,12,0,119061,0:0:0:0:
