osu file format v14

[General]
AudioFilename: audio.mp3
AudioLeadIn: 0
PreviewTime: 67290
Countdown: 0
SampleSet: Soft
StackLeniency: 0.2
Mode: 0
LetterboxInBreaks: 0
EpilepsyWarning: 1
WidescreenStoryboard: 1

[Editor]
Bookmarks: 2832,8318,13804,19290,24775,31632,38490,42604,46718,52204,54947,57690,74832,82375,87861,93347,108432,112547,116661
DistanceSpacing: 1.2
BeatDivisor: 16
GridSize: 4
TimelineZoom: 4.799997

[Metadata]
Title:Avalanche
TitleUnicode:Avalanche
Artist:Memme
ArtistUnicode:Memme
Creator:Starfy
Version:Extreme
Source:Pump it up Prime
Tags:starforyou aabc271 iloveyou4ever nardoxyribonucleic classic drumstep Andamiro PIU Antonio Vivaldi The Four Seasons Winter
BeatmapID:1318360
BeatmapSetID:611095

[Difficulty]
HPDrainRate:6
CircleSize:5
OverallDifficulty:9
ApproachRate:9.3
SliderMultiplier:1.5
SliderTickRate:1

[Events]
//Background and Video events
0,0,"BG.jpg",0,0
//Break Periods
//Storyboard Layer 0 (Background)
//Storyboard Layer 1 (Fail)
//Storyboard Layer 2 (Pass)
//Storyboard Layer 3 (Foreground)
Sprite,Foreground,Centre,"sb\highlight.png",416,344 C,0,59061,,255,128,255 M,0,59061,59082,416,344,406.6488,343.3321 F,2,59061,59318,1,0 S,2,59061,59318,1,0.2 P,0,59061,59318,A M,0,59082,59103,406.6488,343.3321,397.2976,342.6641 M,0,59103,59125,397.2976,342.6641,387.9465,341.9962 M,0,59125,59146,387.9465,341.9962,378.5953,341.3282
Sprite,Foreground,Centre,"sb\highlight.png",316,248 C,0,59232,,255,128,255 M,0,59232,59253,316,248,306.6488,248.6679 F,2,59232,59489,1,0 S,2,59232,59489,1,0.2 P,0,59232,59489,A M,0,59253,59274,306.6488,248.6679,297.2977,249.3359 M,0,59274,59296,297.2977,249.3359,287.9465,250.0038 M,0,59296,59317,287.9465,250.0038,278.5953,250.6718
Sprite,Foreground,Centre,"sb\highlight.png",240,316 C,0,59404,,255,128,255 M,0,59404,59425,240,316,230.6488,315.3321 F,2,59404,59661,1,0 S,2,59404,59661,1,0.2 P,0,59404,59661,A M,0,59425,59446,230.6488,315.3321,221.2977,314.6641 M,0,59446,59468,221.2977,314.6641,211.9465,313.9962 M,0,59468,59489,211.9465,313.9962,202.5953,313.3282
Sprite,Foreground,Centre,"sb\highlight.png",180,284 C,0,59575,,255,128,255 M,0,59575,59596,180,284,170.6488,284.6679 F,2,59575,59832,1,0 S,2,59575,59832,1,0.2 P,0,59575,59832,A M,0,59596,59617,170.6488,284.6679,161.2977,285.3359 M,0,59617,59639,161.2977,285.3359,151.9465,286.0038 M,0,59639,59660,151.9465,286.0038,142.5953,286.6718
Sprite,Foreground,Centre,"sb\highlight.png",448,184 C,0,61804,,255,128,255 M,0,61804,61825,448,184,449.4651,193.2501 F,2,61804,62061,1,0 S,2,61804,62061,1,0.2 P,0,61804,62061,A M,0,61825,61846,449.4651,193.2501,450.5871,202.5261 M,0,61846,61868,450.5871,202.5261,450.9951,211.8609 M,0,61868,61889,450.9951,211.8609,451.0299,221.2263
Sprite,Foreground,Centre,"sb\highlight.png",537,293 C,0,61975,,255,128,255 M,0,61975,61996,537,293,532.6276,301.2835 F,2,61975,62232,1,0 S,2,61975,62232,1,0.2 P,0,61975,62232,A M,0,61996,62017,532.6276,301.2835,527.9742,309.3909 M,0,62017,62039,527.9742,309.3909,522.7482,317.1415 M,0,62039,62060,522.7482,317.1415,517.2291,324.7096
Sprite,Foreground,Centre,"sb\highlight.png",479,382 C,0,62147,,255,128,255 M,0,62147,62168,479,382,470.4398,385.8138 F,2,62147,62404,1,0 S,2,62147,62404,1,0.2 P,0,62147,62404,A M,0,62168,62189,470.4398,385.8138,461.806,389.4367 M,0,62189,62211,461.806,389.4367,453.0125,392.6524 M,0,62211,62232,453.0125,392.6524,444.1338,395.6511
Sprite,Foreground,Centre,"sb\highlight.png",411,413 C,0,62318,,255,128,255 M,0,62318,62339,411,413,401.8273,411.0675 F,2,62318,62575,1,0 S,2,62318,62575,1,0.2 P,0,62318,62575,A M,0,62339,62360,401.8273,411.0675,392.6784,409.0357 M,0,62360,62382,392.6784,409.0357,383.5806,406.786 M,0,62382,62403,383.5806,406.786,374.5106,404.418
Sprite,Foreground,Centre,"sb\highlight.png",285,197 C,0,64547,,255,128,255 M,0,64547,64568,285,197,285.6679,206.3512 F,2,64547,64804,1,0 S,2,64547,64804,1,0.2 P,0,64547,64804,A M,0,64568,64589,285.6679,206.3512,286.3359,215.7023 M,0,64589,64611,286.3359,215.7023,287.0038,225.0535 M,0,64611,64632,287.0038,225.0535,287.6718,234.4047
Sprite,Foreground,Centre,"sb\highlight.png",385,282 C,0,64718,,255,128,255 M,0,64718,64739,385,282,384.494,272.6387 F,2,64718,64975,1,0 S,2,64718,64975,1,0.2 P,0,64718,64975,A M,0,64739,64760,384.494,272.6387,383.988,263.2773 M,0,64760,64782,383.988,263.2773,383.4819,253.916 M,0,64782,64803,383.4819,253.916,383,245
Sprite,Foreground,Centre,"sb\highlight.png",449,212 C,0,64890,,255,128,255 M,0,64890,64911,449,212,448.2423,221.3443 F,2,64890,65147,1,0 S,2,64890,65147,1,0.2 P,0,64890,65147,A M,0,64911,64932,448.2423,221.3443,447.4847,230.6887 M,0,64932,64954,447.4847,230.6887,446.7271,240.033 M,0,64954,64975,446.7271,240.033,446,249
Sprite,Foreground,Centre,"sb\highlight.png",480,266 C,0,65061,,255,128,255 M,0,65061,65082,480,266,479.2622,256.6541 F,2,65061,65318,1,0 S,2,65061,65318,1,0.2 P,0,65061,65318,A M,0,65082,65103,479.2622,256.6541,478.5243,247.3082 M,0,65103,65125,478.5243,247.3082,477.7865,237.9622 M,0,65125,65146,477.7865,237.9622,477.0486,228.6163
Sprite,Foreground,Centre,"sb\highlight.png",412,240 C,0,100204,,255,128,255 M,0,100204,100225,412,240,402.638,240.4927 F,2,100204,100461,1,0 S,2,100204,100461,1,0.2 P,0,100204,100461,A M,0,100225,100246,402.638,240.4927,393.2759,240.9855 M,0,100246,100268,393.2759,240.9855,383.9139,241.4782 M,0,100268,100289,383.9139,241.4782,374.5518,241.971
Sprite,Foreground,Centre,"sb\highlight.png",256,336 C,0,100375,,255,128,255 M,0,100375,100396,256,336,246.638,335.5073 F,2,100375,100632,1,0 S,2,100375,100632,1,0.2 P,0,100375,100632,A M,0,100396,100417,246.638,335.5073,237.2759,335.0145 M,0,100417,100439,237.2759,335.0145,227.9139,334.5218 M,0,100439,100460,227.9139,334.5218,218.5518,334.0291
Sprite,Foreground,Centre,"sb\highlight.png",176,228 C,0,100547,,255,128,255 M,0,100547,100568,176,228,166.638,228.4927 F,2,100547,100804,1,0 S,2,100547,100804,1,0.2 P,0,100547,100804,A M,0,100568,100589,166.638,228.4927,157.2759,228.9855 M,0,100589,100611,157.2759,228.9855,147.9139,229.4782 M,0,100611,100632,147.9139,229.4782,138.5518,229.971
Sprite,Foreground,Centre,"sb\highlight.png",102,296 C,0,100718,,255,128,255 M,0,100718,100739,102,296,92.63795,295.5073 F,2,100718,100975,1,0 S,2,100718,100975,1,0.2 P,0,100718,100975,A M,0,100739,100760,92.63795,295.5073,83.27592,295.0145 M,0,100760,100782,83.27592,295.0145,73.91388,294.5218 M,0,100782,100803,73.91388,294.5218,64.55183,294.0291
Sprite,Foreground,Centre,"sb\highlight.png",181,420 C,0,100890,,255,255,128 M,0,100890,100911,181,420,179.7268,405.9952 F,2,100890,101176,1,0 S,2,100890,101176,1,0.2 P,0,100890,101176,A M,0,100911,100932,179.7268,405.9952,178.4537,391.9905 M,0,100932,100954,178.4537,391.9905,178.0293,387.3223 M,0,100954,100975,178.0293,387.3223,179.3025,401.327 M,0,100975,100997,179.3025,401.327,180.5756,415.3318 M,0,100997,101004,180.5756,415.3318,181,420
Sprite,Foreground,Centre,"sb\highlight.png",256,336 C,0,101061,,255,255,128 M,0,101061,101082,256,336,256.7391,321.9569 F,2,101061,101318,1,0 S,2,101061,101318,1,0.2 P,0,101061,101318,A M,0,101082,101103,256.7391,321.9569,257.4782,307.9139 M,0,101103,101125,257.4782,307.9139,258.2173,293.8708 M,0,101125,101146,258.2173,293.8708,258.9564,279.8278
Sprite,Foreground,Centre,"sb\highlight.png",391,377 C,0,101232,,255,255,128 M,0,101232,101253,391,377,376.9576,377.7523 F,2,101232,101489,1,0 S,2,101232,101489,1,0.2 P,0,101232,101489,A M,0,101253,101274,376.9576,377.7523,362.9153,378.5045 M,0,101274,101296,362.9153,378.5045,348.8729,379.2568 M,0,101296,101317,348.8729,379.2568,335,380
Sprite,Foreground,Centre,"sb\highlight.png",470,333 C,0,101404,,255,255,128 M,0,101404,101425,470,333,484.0535,333.5019 F,2,101404,101661,1,0 S,2,101404,101661,1,0.2 P,0,101404,101661,A M,0,101425,101446,484.0535,333.5019,498.1071,334.0038 M,0,101446,101468,498.1071,334.0038,512.1606,334.5057 M,0,101468,101489,512.1606,334.5057,526,335
Sprite,Foreground,Centre,"sb\highlight.png",362,351 C,0,102947,,255,128,255 M,0,102947,102968,362,351,352.8548,353.0266 F,2,102947,103204,1,0 S,2,102947,103204,1,0.2 P,0,102947,103204,A M,0,102968,102989,352.8548,353.0266,343.5872,354.3599 M,0,102989,103011,343.5872,354.3599,334.2489,354.9929 M,0,103011,103032,334.2489,354.9929,324.8808,355.0935
Sprite,Foreground,Centre,"sb\highlight.png",178,382 C,0,103118,,255,128,255 M,0,103118,103139,178,382,170.321,376.6263 F,2,103118,103375,1,0 S,2,103118,103375,1,0.2 P,0,103118,103375,A M,0,103139,103160,170.321,376.6263,162.8872,370.9204 M,0,103160,103182,162.8872,370.9204,155.7128,364.8934 M,0,103182,103203,155.7128,364.8934,148.7497,358.6191
Sprite,Foreground,Centre,"sb\highlight.png",80,268 C,0,103290,,255,128,255 M,0,103290,103311,80,268,78.06336,258.8368 F,2,103290,103547,1,0 S,2,103290,103547,1,0.2 P,0,103290,103547,A M,0,103311,103332,78.06336,258.8368,76.45853,249.6314 M,0,103332,103354,76.45853,249.6314,75.55191,240.3312 M,0,103354,103375,75.55191,240.3312,75.01437,230.9809
Sprite,Foreground,Centre,"sb\highlight.png",64,156 C,0,103461,,255,128,255 M,0,103461,103482,64,156,68.966,148.0649 F,2,103461,103718,1,0 S,2,103461,103718,1,0.2 P,0,103461,103718,A M,0,103482,103503,68.966,148.0649,74.2691,140.3897 M,0,103503,103525,74.2691,140.3897,80.26595,133.2434 M,0,103525,103546,80.26595,133.2434,86.62128,126.3705
Sprite,Foreground,Centre,"sb\highlight.png",263,168 C,0,103632,,255,255,128 M,0,103632,103653,263,168,262.5154,182.0541 F,2,103632,103975,1,0 S,2,103632,103975,1,0.2 P,0,103632,103975,A M,0,103653,103674,262.5154,182.0541,262.0308,196.1083 M,0,103674,103696,262.0308,196.1083,261.5461,210.1624 M,0,103696,103717,261.5461,210.1624,261.0615,224.2166 M,0,103717,103739,261.0615,224.2166,260.5769,238.2707 M,0,103739,103760,260.5769,238.2707,260.0922,252.3249 M,0,103760,103781,260.0922,252.3249,259.6076,266.379 M,0,103781,103803,259.6076,266.379,259.123,280.4332
Sprite,Foreground,Centre,"sb\highlight.png",188,200 C,0,103890,,255,255,128 F,2,103890,104062,1,0 S,2,103890,104062,1,0.2 P,0,103890,104062,A
Sprite,Foreground,Centre,"sb\highlight.png",188,200 C,0,103975,,255,255,128 M,0,103975,103996,188,200,182.9082,186.9796 F,2,103975,104232,1,0 S,2,103975,104232,1,0.2 P,0,103975,104232,A M,0,103996,104017,182.9082,186.9796,180.103,173.3192 M,0,104017,104039,180.103,173.3192,180.1758,159.3167 M,0,104039,104060,180.1758,159.3167,183.4651,145.6823
Sprite,Foreground,Centre,"sb\highlight.png",338,136 C,0,104147,,255,255,128 M,0,104147,104168,338,136,343.0918,149.0204 F,2,104147,104404,1,0 S,2,104147,104404,1,0.2 P,0,104147,104404,A M,0,104168,104189,343.0918,149.0204,345.897,162.6808 M,0,104189,104211,345.897,162.6808,345.8242,176.6833 M,0,104211,104232,345.8242,176.6833,342.5349,190.3177
Sprite,Foreground,Centre,"sb\highlight.png",383,314 C,0,105690,,255,128,255 M,0,105690,105711,383,314,382.0325,299.9708 F,2,105690,105904,1,0 S,2,105690,105904,1,0.2 P,0,105690,105904,A M,0,105711,105732,382.0325,299.9708,381.0649,285.9417
Sprite,Foreground,Centre,"sb\highlight.png",342,324 C,0,105775,,255,255,128 M,0,105775,105796,342,324,350.0306,312.456 F,2,105775,105989,1,0 S,2,105775,105989,1,0.2 P,0,105775,105989,A M,0,105796,105817,350.0306,312.456,358,301
Sprite,Foreground,Centre,"sb\highlight.png",304,310 C,0,105861,,128,255,255 M,0,105861,105882,304,310,316.9511,304.5207 F,2,105861,106075,1,0 S,2,105861,106075,1,0.2 P,0,105861,106075,A M,0,105882,105903,316.9511,304.5207,329.9022,299.0414
Sprite,Foreground,Centre,"sb\highlight.png",281,275 C,0,105947,,128,255,128 M,0,105947,105968,281,275,294.6125,278.5292 F,2,105947,106161,1,0 S,2,105947,106161,1,0.2 P,0,105947,106161,A M,0,105968,105989,294.6125,278.5292,308,282
Sprite,Foreground,Centre,"sb\highlight.png",283,233 C,0,106032,,255,128,255 M,0,106032,106053,283,233,291.8481,243.93 F,2,106032,106246,1,0 S,2,106032,106246,1,0.2 P,0,106032,106246,A M,0,106053,106074,291.8481,243.93,300,254
Sprite,Foreground,Centre,"sb\highlight.png",310,200 C,0,106118,,255,255,128 M,0,106118,106139,310,200,310,214.0625 F,2,106118,106332,1,0 S,2,106118,106332,1,0.2 P,0,106118,106332,A M,0,106139,106160,310,214.0625,310,228
Sprite,Foreground,Centre,"sb\highlight.png",349,189 C,0,106204,,128,255,255 M,0,106204,106225,349,189,341.5469,200.925 F,2,106204,106418,1,0 S,2,106204,106418,1,0.2 P,0,106204,106418,A M,0,106225,106246,341.5469,200.925,334.0938,212.8499
Sprite,Foreground,Centre,"sb\highlight.png",388,204 C,0,106290,,128,255,128 M,0,106290,106311,388,204,374.8748,209.0481 F,2,106290,106504,1,0 S,2,106290,106504,1,0.2 P,0,106290,106504,A M,0,106311,106332,374.8748,209.0481,362,214
Sprite,Foreground,Centre,"sb\highlight.png",411,239 C,0,106375,,255,128,255 M,0,106375,106396,411,239,397.3875,235.4708 F,2,106375,106589,1,0 S,2,106375,106589,1,0.2 P,0,106375,106589,A M,0,106396,106417,397.3875,235.4708,384,232
Sprite,Foreground,Centre,"sb\highlight.png",450,253 C,0,106461,,255,255,128 M,0,106461,106482,450,253,436.7111,257.6 F,2,106461,106675,1,0 S,2,106461,106675,1,0.2 P,0,106461,106675,A M,0,106482,106503,436.7111,257.6,424,262
Sprite,Foreground,Centre,"sb\highlight.png",489,241 C,0,106547,,128,255,255 M,0,106547,106568,489,241,481.0781,252.6188 F,2,106547,106761,1,0 S,2,106547,106761,1,0.2 P,0,106547,106761,A M,0,106568,106589,481.0781,252.6188,474,263
Sprite,Foreground,Centre,"sb\highlight.png",514,208 C,0,106632,,128,255,128 M,0,106632,106653,514,208,514.5405,222.0521 F,2,106632,106846,1,0 S,2,106632,106846,1,0.2 P,0,106632,106846,A M,0,106653,106674,514.5405,222.0521,515,234
Sprite,Foreground,Centre,"sb\highlight.png",224,344 C,0,56490,,128,128,128 M,0,56490,56511,224,344,217.3709,337.3709 F,2,56490,56747,1,0 S,2,56490,56747,0.75,0.15 P,0,56490,56747,A M,0,56511,56532,217.3709,337.3709,210.7417,330.7418 M,0,56532,56554,210.7417,330.7418,204.1126,324.1126 M,0,56554,56575,204.1126,324.1126,197.4835,317.4835
Sprite,Foreground,Centre,"sb\highlight.png",320,248 C,0,56661,,192,192,192 M,0,56661,56682,320,248,320,238.625 F,2,56661,56918,1,0 S,2,56661,56918,0.75,0.15 P,0,56661,56918,A M,0,56682,56703,320,238.625,320,229.25 M,0,56703,56725,320,229.25,320,219.875 M,0,56725,56746,320,219.875,320,210.5
Sprite,Foreground,Centre,"sb\highlight.png",416,344 C,0,56832,,128,128,128 M,0,56832,56853,416,344,422.2284,336.993 F,2,56832,57089,1,0 S,2,56832,57089,0.75,0.15 P,0,56832,57089,A M,0,56853,56874,422.2284,336.993,428.4568,329.9861 M,0,56874,56896,428.4568,329.9861,434.6852,322.9791 M,0,56896,56917,434.6852,322.9791,440.9136,315.9721
Sprite,Foreground,Centre,"sb\highlight.png",448,184 C,0,57004,,128,255,255 M,0,57004,57025,448,184,446.4429,165.3148 F,2,57004,57218,1,0 S,2,57004,57218,1,0.2 P,0,57004,57218,A M,0,57025,57046,446.4429,165.3148,444.8858,146.6295
Sprite,Foreground,Centre,"sb\highlight.png",192,184 C,0,57175,,128,255,128 M,0,57175,57196,192,184,193.5571,165.3148 F,2,57175,57389,1,0 S,2,57175,57389,1,0.2 P,0,57175,57389,A M,0,57196,57217,193.5571,165.3148,195.1142,146.6295
Sprite,Foreground,Centre,"sb\highlight.png",448,184 C,0,57347,,255,128,255 M,0,57347,57368,448,184,446.4429,165.3148 F,2,57347,57561,1,0 S,2,57347,57561,1,0.2 P,0,57347,57561,A M,0,57368,57389,446.4429,165.3148,444.8858,146.6295
Sprite,Foreground,Centre,"sb\highlight.png",192,184 C,0,57518,,255,255,128 M,0,57518,57539,192,184,193.5571,165.3148 F,2,57518,57732,1,0 S,2,57518,57732,1,0.2 P,0,57518,57732,A M,0,57539,57560,193.5571,165.3148,195.1142,146.6295
Sprite,Foreground,Centre,"sb\ring.png",320,240 M,0,57004,,448,184 C,0,57004,,128,255,255 F,0,57004,57175,1,0 S,0,57004,57175,0.1,2.5
Sprite,Foreground,Centre,"sb\ring.png",320,240 M,0,57175,,192,184 C,0,57175,,128,255,128 F,0,57175,57346,1,0 S,0,57175,57346,0.1,2.5
Sprite,Foreground,Centre,"sb\ring.png",320,240 M,0,57347,,448,184 C,0,57347,,255,128,255 F,0,57347,57518,1,0 S,0,57347,57518,0.1,2.5
Sprite,Foreground,Centre,"sb\ring.png",320,240 M,0,57518,,192,184 C,0,57518,,255,255,128 F,0,57518,57689,1,0 S,0,57518,57689,0.1,2.5
//Storyboard Sound Samples

[TimingPoints]
90,342.857142857143,4,2,1,40,1,0
2832,-133.333333333333,4,2,1,40,0,0
5575,-111.111111111111,4,2,1,40,0,0
5918,-133.333333333333,4,2,1,40,0,0
6261,-111.111111111111,4,2,1,40,0,0
6604,-133.333333333333,4,2,1,40,0,0
6947,-111.111111111111,4,2,1,40,0,0
8318,-111.111111111111,4,2,1,60,0,0
13804,-100,4,2,1,60,0,0
18604,-100,4,2,50,60,0,0
18775,-100,4,2,1,60,0,0
19290,-100,4,2,1,60,0,0
19975,-90.9090909090909,4,2,1,65,0,0
20661,-83.3333333333333,4,2,1,70,0,0
21347,-76.9230769230769,4,2,1,75,0,0
22032,-71.4285714285714,4,2,1,80,0,0
22718,-66.6666666666667,4,2,50,85,0,0
22890,-66.6666666666667,4,2,1,85,0,0
23404,-62.5,4,2,1,80,0,0
24432,-50,4,2,2,100,0,0
24775,-100,4,2,1,70,0,0
25461,-80,4,1,3,70,0,1
27518,-80,4,1,1,70,0,0
28804,-80,4,2,1,20,0,0
28890,-80,4,1,3,70,0,0
31290,-50,4,2,1,70,0,0
31632,-100,4,2,1,70,0,0
32318,-80,4,1,3,70,0,1
34375,-80,4,1,1,70,0,0
35747,-80,4,1,3,70,0,0
37975,-50,4,2,1,70,0,0
38490,-100,4,2,1,70,0,0
39175,-80,4,1,3,70,0,1
41232,-80,4,1,3,70,0,0
41918,-66.6666666666667,4,1,3,70,0,1
42604,-100,4,1,70,80,0,0
42690,-100,4,2,1,40,0,0
43975,-100,4,1,71,80,0,0
44061,-100,4,2,1,40,0,0
45004,-100,4,1,50,40,0,0
45175,-100,4,2,1,40,0,0
45347,-100,4,1,72,80,0,0
45432,-100,4,2,1,40,0,0
46375,-66.6666666666667,4,1,73,80,0,0
46461,-66.6666666666667,4,2,1,40,0,0
46718,-100,4,2,1,50,0,0
48090,-100,4,2,1,55,0,0
49461,-100,4,2,1,60,0,0
50832,-100,4,2,1,70,0,0
51861,-66.6666666666667,4,2,1,70,0,0
56490,-100,4,2,1,70,0,0
57004,-50,4,2,99,100,0,0
57047,-50,4,2,99,20,0,0
57175,-50,4,2,99,100,0,0
57218,-50,4,2,99,20,0,0
57347,-50,4,2,99,100,0,0
57390,-50,4,2,99,20,0,0
57518,-50,4,2,99,100,0,0
57561,-50,4,2,99,20,0,0
57690,-66.6666666666667,4,2,1,80,0,1
59061,-100,4,2,1,80,0,0
59747,-66.6666666666667,4,2,1,80,0,0
60432,-66.6666666666667,4,2,1,80,0,1
61804,-100,4,2,1,80,0,0
62490,-66.6666666666667,4,2,1,80,0,0
63175,-66.6666666666667,4,2,1,80,0,1
64547,-100,4,2,1,80,0,0
65232,-66.6666666666667,4,2,1,80,0,0
66947,-66.6666666666667,4,2,2,100,0,0
67290,-80,4,2,80,80,0,1
67375,-80,4,2,1,80,0,1
68661,-80,4,2,81,80,0,1
68747,-80,4,2,1,80,0,1
70032,-80,4,2,82,80,0,1
70118,-80,4,2,1,80,0,1
71404,-80,4,2,81,80,0,1
71490,-80,4,2,1,80,0,1
72775,-80,4,2,83,80,0,1
72861,-80,4,2,1,80,0,1
73461,-80,4,2,84,80,0,1
73547,-80,4,2,1,80,0,1
74147,-80,4,2,80,80,0,1
74232,-80,4,2,1,80,0,1
75518,-80,4,2,80,80,0,1
75604,-80,4,2,1,80,0,1
76890,-80,4,2,83,80,0,1
76975,-80,4,2,1,80,0,1
77575,-80,4,2,84,80,0,1
77661,-80,4,2,1,80,0,1
78261,-80,4,2,85,80,0,1
78347,-80,4,2,1,80,0,1
78947,-80,4,2,83,80,0,1
79032,-80,4,2,1,80,0,1
79632,-80,4,2,85,80,0,1
79718,-80,4,2,1,80,0,1
80318,-80,4,2,86,80,0,1
80404,-80,4,2,1,80,0,1
81004,-80,4,2,87,80,0,1
81090,-80,4,2,1,80,0,1
82375,-80,4,2,1,80,0,0
85461,-66.6666666666667,4,2,1,80,0,0
85804,-80,4,2,1,80,0,0
86147,-57.1428571428571,4,2,1,80,0,0
86490,-80,4,2,1,80,0,0
87518,-160,4,2,1,80,0,0
87861,-100,4,2,1,50,0,0
89232,-100,4,2,1,55,0,0
90604,-100,4,2,1,60,0,0
91975,-100,4,2,1,65,0,0
93004,-66.6666666666667,4,2,1,70,0,0
98490,-50,4,2,2,100,0,0
98832,-66.6666666666667,4,2,1,85,0,1
100204,-100,4,2,1,85,0,0
100890,-66.6666666666667,4,2,1,85,0,0
101575,-66.6666666666667,4,2,1,85,0,1
102947,-100,4,2,1,85,0,0
103632,-66.6666666666667,4,2,1,85,0,0
104318,-66.6666666666667,4,2,1,85,0,1
105690,-66.6666666666667,4,2,1,85,0,0
106718,-133.333333333333,4,2,1,85,0,0
107061,-66.6666666666667,4,1,3,85,0,1
108090,-66.6666666666667,4,2,1,85,0,1
108347,-66.6666666666667,4,2,1,85,0,0
108432,-66.6666666666667,4,2,1,85,0,1
115290,-57.1428571428571,4,2,1,85,0,1
115975,-57.1428571428571,4,2,1,85,0,1
116661,-100,4,2,1,85,0,0
119061,-100,4,2,1,5,0,0

[Colours]
Combo1 : 128,128,128
Combo2 : 128,255,255
Combo3 : 128,255,128
Combo4 : 255,128,255
Combo5 : 255,255,128
Combo6 : 192,192,192

[HitObjects]
32,192,2832,6,0,L|116:196,1,84.3750032186509,4|0,1:0|0:0,0:0:0:0:
140,180,3175,2,0,P|146:149|138:121,1,56.2500021457673,4|2,0:3|0:0,0:0:0:0:
140,125,3518,6,0,P|111:162|124:207,1,84.3750032186509,0|0,1:0|0:0,0:0:0:0:
143,209,3861,2,0,L|204:206,1,56.2500021457673,12|2,0:3|0:0,0:0:0:0:
199,206,4204,6,0,P|240:196|292:204,1,84.3750032186509,4|0,1:0|0:0,0:0:0:0:
290,228,4547,2,0,L|286:284,1,56.2500021457673,4|2,0:3|0:0,0:0:0:0:
286,284,4890,6,0,L|281:199,1,84.3750032186509,0|0,1:0|0:0,0:0:0:0:
309,206,5232,2,0,P|336:213|364:212,1,56.2500021457673,4|2,0:3|0:0,0:0:0:0:
480,352,5575,38,0,L|364:360,1,101.249996910095,6|0,1:0|0:0,0:0:0:0:
323,355,5918,2,0,L|380:359,1,56.2500021457673,4|2,0:3|0:0,0:0:0:0:
379,359,6261,6,0,L|263:367,1,101.249996910095,2|0,1:0|0:0,0:0:0:0:
222,363,6604,2,0,L|278:366,1,56.2500021457673,4|2,0:3|0:0,0:0:0:0:
278,366,6947,6,0,L|185:372,1,67.4999979400635,6|0,1:0|0:0,0:0:0:0:
256,300,7290,2,0,L|163:306,1,67.4999979400635,2|0,1:0|0:0,0:0:0:0:
234,234,7632,6,0,L|141:240,1,67.4999979400635,2|0,1:0|0:0,0:0:0:0:
212,168,7975,2,0,L|144:172,1,67.4999979400635,2|0,1:0|0:0,0:0:0:0:
190,102,8318,37,6,1:0:0:0:
234,234,8661,1,2,1:0:0:0:
212,168,8832,1,0,0:0:0:0:
212,168,8918,1,0,0:0:0:0:
212,168,9004,2,0,L|279:172,1,67.4999979400635,2|0,1:0|0:0,0:0:0:0:
167,239,9347,2,0,L|74:245,1,67.4999979400635,2|0,1:0|0:0,0:0:0:0:
256,300,9690,5,6,1:0:0:0:
212,168,10032,1,2,1:0:0:0:
234,234,10204,1,0,0:0:0:0:
234,234,10290,1,0,0:0:0:0:
234,234,10375,2,0,L|301:238,1,67.4999979400635,2|0,1:0|0:0,0:0:0:0:
189,304,10718,2,0,L|121:308,1,67.4999979400635,2|0,1:0|0:0,0:0:0:0:
278,366,11061,5,6,1:0:0:0:
410,322,11404,1,2,1:0:0:0:
344,344,11575,1,0,0:0:0:0:
344,344,11661,1,0,0:0:0:0:
344,344,11747,2,0,P|332:312|331:278,1,67.4999979400635,2|0,1:0|0:0,0:0:0:0:
424,192,12090,2,0,P|423:225|411:257,1,67.4999979400635,2|0,1:0|0:0,0:0:0:0:
292,192,12432,5,6,1:0:0:0:
296,176,12518,1,2,1:0:0:0:
331,279,12690,1,2,1:0:0:0:
335,263,12775,1,2,1:2:0:0:
275,356,12947,2,0,L|283:323,1,33.7499989700318,2|0,1:2|0:0,0:0:0:0:
240,260,13118,1,4,1:0:0:0:
240,260,13204,2,0,L|223:264,5,16.8749994850159,0|0|0|0|0|0,0:0|0:0|0:0|0:0|0:0|0:0,0:0:0:0:
206,268,13461,2,0,L|214:235,1,33.7499989700318,2|0,0:0|0:0,0:0:0:0:
171,172,13632,2,0,L|154:176,3,16.8749994850159,4|0|0|0,1:0|1:0|1:0|1:0,0:0:0:0:
137,180,13804,38,0,L|140:104,1,75,4|0,1:0|0:0,0:0:0:0:
220,56,14147,2,0,P|256:47|293:51,1,75,8|0,1:0|0:0,0:0:0:0:
308,64,14404,1,0,0:0:0:0:
356,108,14490,5,0,1:0:0:0:
374,116,14575,1,0,0:0:0:0:
393,121,14661,1,0,0:0:0:0:
412,123,14747,1,0,0:0:0:0:
432,121,14832,2,0,P|464:102|488:73,1,75,8|0,1:0|0:0,0:0:0:0:
488,73,15175,6,0,P|473:107|470:144,1,75,0|0,1:0|0:0,0:0:0:0:
512,228,15518,2,0,L|508:302,1,75,8|0,1:0|0:0,0:0:0:0:
508,322,15775,1,0,0:0:0:0:
452,356,15861,5,0,1:0:0:0:
437,368,15947,1,0,0:0:0:0:
419,376,16032,1,0,0:0:0:0:
400,380,16118,1,0,0:0:0:0:
380,380,16204,2,0,P|343:370|306:375,1,75,8|0,1:0|0:0,0:0:0:0:
307,375,16547,38,0,P|271:385|235:381,1,75,4|0,1:0|0:0,0:0:0:0:
169,313,16890,2,0,P|159:277|163:240,1,75,8|0,1:0|0:0,0:0:0:0:
175,225,17147,1,0,0:0:0:0:
232,193,17232,5,0,1:0:0:0:
243,178,17318,1,0,0:0:0:0:
251,161,17404,1,0,0:0:0:0:
256,143,17490,1,0,0:0:0:0:
259,124,17575,2,0,L|255:44,1,75,8|0,1:0|0:0,0:0:0:0:
255,49,17918,6,0,P|219:40|182:44,1,75,0|0,1:0|0:0,0:0:0:0:
116,112,18261,2,0,P|80:121|43:117,1,75,8|0,1:0|0:0,0:0:0:0:
24,112,18518,1,0,0:0:0:0:
0,173,18604,5,2,1:0:0:0:
5,192,18690,1,0,0:0:0:0:
7,211,18775,1,0,0:0:0:0:
7,230,18861,1,0,0:0:0:0:
5,249,18947,2,0,P|0:286|9:322,1,75,8|0,1:0|0:0,0:0:0:0:
218,348,19290,38,0,L|306:344,1,75,4|0,1:0|0:0,0:0:0:0:
359,343,19547,1,0,0:0:0:0:
359,343,19632,2,0,L|447:339,1,75,8|0,1:0|0:0,0:0:0:0:
325,287,19890,1,0,0:0:0:0:
325,287,19975,6,0,L|242:283,1,82.5000025177003,4|0,1:0|0:0,0:0:0:0:
170,276,20232,1,0,0:0:0:0:
170,276,20318,2,0,L|87:272,1,82.5000025177003,8|0,1:0|0:0,0:0:0:0:
213,217,20575,1,0,0:0:0:0:
213,217,20661,6,0,L|302:212,1,89.9999972534181,4|0,1:0|0:0,0:0:0:0:
382,210,20918,1,0,0:0:0:0:
382,210,21004,2,0,L|471:205,1,89.9999972534181,8|0,1:0|0:0,0:0:0:0:
340,144,21261,1,0,0:0:0:0:
340,144,21347,6,0,L|242:139,1,97.4999955368044,4|0,1:0|0:0,0:0:0:0:
157,134,21604,1,0,0:0:0:0:
157,134,21690,2,0,L|59:129,1,97.4999955368044,8|0,1:0|0:0,0:0:0:0:
204,62,21947,1,0,0:0:0:0:
204,62,22032,38,0,L|308:57,1,104.999996795654,4|0,1:0|0:0,0:0:0:0:
402,54,22290,1,0,0:0:0:0:
402,54,22375,2,0,L|506:49,1,104.999996795654,8|0,1:0|0:0,0:0:0:0:
359,137,22632,1,0,0:0:0:0:
359,137,22718,6,0,L|246:131,1,112.500004291535,6|0,1:0|0:0,0:0:0:0:
148,124,22975,1,0,0:0:0:0:
148,124,23061,2,0,L|35:118,1,112.500004291535,8|0,1:0|1:0,0:0:0:0:
191,214,23318,1,0,1:0:0:0:
191,214,23404,6,0,P|182:242|182:272,1,60,4|0,1:0|1:0,0:0:0:0:
329,272,23575,2,0,P|329:242|321:214,1,60,0|0,1:0|1:0,0:0:0:0:
92,288,23747,2,0,P|102:316|119:340,1,60,8|0,1:0|1:0,0:0:0:0:
392,340,23918,2,0,P|409:316|419:288,1,60,4|0,1:0|1:0,0:0:0:0:
256,32,24090,5,4,1:0:0:0:
256,32,24175,1,0,1:0:0:0:
256,32,24261,2,0,L|256:64,3,30,0|0|0|0,1:0|1:0|1:0|1:0,0:0:0:0:
160,60,24432,38,0,B|192:80|196:108|196:108|236:120|256:144|256:144|276:120|308:108|308:108|320:72|350:60,1,262.5,14|0,1:0|0:0,0:0:0:0:
435,24,24775,54,0,L|411:50,1,18.75,4|0,1:0|0:0,0:0:0:0:
441,42,24861,2,0,L|412:63,1,18.75,0|0,0:0|0:0,0:0:0:0:
443,61,24947,2,0,L|410:75,1,18.75,0|0,0:0|0:0,0:0:0:0:
442,80,25032,2,0,L|407:87,1,18.75,0|0,0:0|0:0,0:0:0:0:
436,98,25118,2,0,L|400:98,1,18.75,0|0,0:0|0:0,0:0:0:0:
427,114,25204,2,0,L|392:107,1,18.75,0|0,0:0|0:0,0:0:0:0:
414,128,25290,2,0,L|381:114,1,18.75,0|0,0:0|0:0,0:0:0:0:
399,140,25375,2,0,L|370:119,1,18.75,0|0,0:0|0:0,0:0:0:0:
383,148,25461,21,12,1:1:0:0:
418,157,25547,1,0,0:0:0:0:
446,179,25632,1,0,0:0:0:0:
462,211,25718,1,0,0:0:0:0:
465,246,25804,1,0,0:0:0:0:
452,279,25890,1,0,0:0:0:0:
427,305,25975,1,4,0:0:0:0:
394,317,26061,1,0,0:0:0:0:
358,317,26147,5,4,0:0:0:0:
383,307,26232,1,0,0:1:0:0:
403,289,26318,1,0,0:1:0:0:
417,266,26404,1,0,0:1:0:0:
422,239,26490,1,8,0:0:0:0:
420,212,26575,1,0,0:0:0:0:
409,187,26661,1,4,0:0:0:0:
391,167,26747,1,0,0:0:0:0:
367,154,26832,5,8,0:0:0:0:
377,171,26918,1,0,0:0:0:0:
383,189,27004,1,0,0:0:0:0:
385,208,27090,1,0,0:0:0:0:
383,227,27175,1,4,0:3:0:0:
377,245,27261,1,0,0:0:0:0:
367,262,27347,1,0,0:0:0:0:
354,276,27432,1,0,0:0:0:0:
339,287,27518,6,0,P|315:295|287:291,1,46.875,4|4,1:0|1:0,0:0:0:0:
212,272,27690,2,0,P|194:256|183:235,1,46.875,4|4,0:0|0:0,0:0:0:0:
288,168,27861,2,0,P|283:190|270:210,1,46.875,8|4,0:0|0:0,0:0:0:0:
235,354,28032,2,0,P|213:361|189:360,1,46.875,4|4,0:0|0:0,0:0:0:0:
101,215,28204,38,0,P|92:169|107:125,1,93.75,4|4,2:1|2:1,0:0:0:0:
107,125,28461,2,0,P|136:212|118:303,1,187.5,4|0,2:1|0:0,0:0:0:0:
107,355,28890,6,0,L|101:215,1,140.625,4|0,0:0|2:0,0:0:0:0:
101,215,29232,1,8,0:0:0:0:
216,363,29404,2,0,L|211:249,1,93.75,4|0,0:0|2:0,0:0:0:0:
325,371,29747,1,8,0:0:0:0:
320,277,29918,1,4,0:0:0:0:
434,379,30090,6,0,L|438:265,1,93.75,8|0,0:0|2:0,0:0:0:0:
325,371,30432,1,4,0:3:0:0:
329,277,30604,1,8,0:0:0:0:
216,363,30775,2,0,L|220:249,1,93.75,4|0,0:0|2:0,0:0:0:0:
107,355,31118,1,8,0:0:0:0:
107,355,31204,1,8,0:0:0:0:
107,355,31290,6,0,B|75:288|105:224|105:224|51:244|50:293,1,225,4|0,0:0|0:0,0:0:0:0:
50,288,31632,6,0,L|46:306,1,18.75,4|0,0:1|0:0,0:0:0:0:
38,276,31718,2,0,L|32:293,1,18.75,0|0,0:0|0:0,0:0:0:0:
30,263,31804,2,0,L|21:279,1,18.75,0|0,0:0|0:0,0:0:0:0:
24,248,31890,2,0,L|12:263,1,18.75,0|0,0:0|0:0,0:0:0:0:
20,232,31975,2,0,L|6:245,1,18.75,0|0,0:0|0:0,0:0:0:0:
17,216,32061,2,0,L|2:227,1,18.75,0|0,0:0|0:0,0:0:0:0:
19,200,32147,2,0,L|2:208,1,18.75,0|0,0:0|0:0,0:0:0:0:
22,184,32232,2,0,L|4:189,1,18.75,0|0,0:0|0:0,0:0:0:0:
29,169,32318,21,8,0:1:0:0:
48,142,32404,1,0,0:0:0:0:
74,122,32490,1,0,0:0:0:0:
105,111,32575,1,0,0:0:0:0:
138,110,32661,1,0,0:0:0:0:
169,119,32747,1,0,0:0:0:0:
196,138,32832,1,4,0:0:0:0:
216,164,32918,1,0,0:0:0:0:
227,195,33004,5,4,0:0:0:0:
240,215,33090,1,0,0:0:0:0:
257,231,33175,1,0,0:0:0:0:
277,243,33261,1,0,0:0:0:0:
299,250,33347,1,0,0:0:0:0:
322,252,33432,1,0,0:0:0:0:
345,248,33518,1,0,0:0:0:0:
367,240,33604,1,0,0:0:0:0:
386,227,33690,5,8,0:0:0:0:
401,219,33775,1,0,0:0:0:0:
417,213,33861,1,0,0:0:0:0:
433,210,33947,1,0,0:0:0:0:
448,208,34032,1,0,0:0:0:0:
464,210,34118,1,0,0:0:0:0:
481,214,34204,1,0,0:0:0:0:
496,221,34290,1,0,0:0:0:0:
510,231,34375,6,0,L|508:255,7,23.4375,0|0|0|0|0|0|0|0,0:0|0:0|0:0|0:0|0:0|0:0|0:0|0:0,0:0:0:0:
444,288,34718,2,0,L|448:337,1,46.875,0|0,0:0|0:0,0:0:0:0:
378,250,34890,1,4,0:0:0:0:
374,254,34975,1,4,0:0:0:0:
370,258,35061,38,0,L|373:304,1,46.875,8|0,0:0|0:0,0:0:0:0:
312,361,35232,1,4,0:0:0:0:
308,357,35318,1,4,0:0:0:0:
304,353,35404,2,0,L|307:307,1,46.875,8|0,0:0|0:0,0:0:0:0:
246,250,35575,1,0,0:0:0:0:
242,246,35661,1,0,0:0:0:0:
238,242,35747,6,0,L|97:245,1,140.625,4|0,0:0|2:0,0:0:0:0:
97,245,36090,1,12,0:0:0:0:
272,176,36261,2,0,L|365:178,1,93.75,4|0,0:0|0:0,0:0:0:0:
238,110,36604,1,8,0:0:0:0:
144,112,36775,1,4,0:0:0:0:
272,44,36947,6,0,L|365:41,1,93.75,8|0,0:0|0:0,0:0:0:0:
238,110,37290,1,4,0:0:0:0:
144,108,37461,1,8,0:0:0:0:
272,176,37632,2,0,L|365:173,1,93.75,8|0,0:0|0:0,0:0:0:0:
238,242,37975,6,0,B|176:264|124:192|124:192|176:264|172:356|172:356|192:328|228:320,1,375,4|0,0:0|0:0,0:0:0:0:
226,320,38490,6,0,P|230:336|230:352,1,18.75,4|0,1:0|0:0,0:0:0:0:
239,307,38575,2,0,P|242:315|245:324,1,18.75,0|0,0:0|0:0,0:0:0:0:
249,291,38661,2,0,P|254:298|258:307,1,18.75,0|0,0:0|0:0,0:0:0:0:
253,274,38747,2,0,P|259:280|265:287,1,18.75,0|0,0:0|0:0,0:0:0:0:
256,256,38832,2,0,P|264:260|271:266,1,18.75,0|0,0:0|0:0,0:0:0:0:
254,238,38918,2,0,P|262:241|271:245,1,18.75,0|0,0:0|0:0,0:0:0:0:
248,220,39004,2,0,P|257:221|266:223,1,18.75,0|0,0:0|0:0,0:0:0:0:
238,206,39090,2,0,P|247:205|256:205,1,18.75,0|0,0:0|0:0,0:0:0:0:
227,191,39175,21,8,0:0:0:0:
219,155,39261,1,0,0:0:0:0:
226,118,39347,1,0,0:0:0:0:
247,87,39432,1,0,0:0:0:0:
279,68,39518,1,0,0:0:0:0:
315,63,39604,1,0,0:0:0:0:
351,74,39690,1,4,0:0:0:0:
380,98,39775,1,0,0:0:0:0:
395,132,39861,5,4,0:0:0:0:
397,159,39947,1,0,0:0:0:0:
390,185,40032,1,0,0:0:0:0:
375,208,40118,1,0,0:0:0:0:
354,224,40204,1,0,0:0:0:0:
327,226,40290,1,0,0:0:0:0:
301,219,40375,1,4,0:0:0:0:
278,204,40461,1,0,0:0:0:0:
262,183,40547,5,8,0:0:0:0:
254,166,40632,1,0,0:0:0:0:
249,147,40718,1,0,0:0:0:0:
248,128,40804,1,0,0:0:0:0:
251,108,40890,1,0,0:0:0:0:
258,90,40975,1,0,0:0:0:0:
269,74,41061,1,0,0:0:0:0:
282,60,41147,1,0,0:0:0:0:
299,49,41232,6,0,P|316:44|336:44,2,31.25,0|0|0,0:0|0:0|0:0,0:0:0:0:
368,102,41404,2,0,P|384:107|400:119,2,31.25,0|0|0,0:0|0:0|0:0,0:0:0:0:
392,185,41575,2,0,P|402:199|408:218,2,31.25,0|0|0,0:0|0:0|0:0,0:0:0:0:
362,267,41747,2,0,P|361:284|355:303,2,31.25,0|0|0,0:0|0:0|0:0,0:0:0:0:
290,315,41918,38,0,P|273:337|251:355,1,56.2500021457673,12|0,0:1|0:0,0:0:0:0:
186,329,42090,2,0,P|159:337|131:339,1,56.2500021457673,0|0,0:0|0:0,0:0:0:0:
93,279,42261,2,0,P|66:270|42:255,1,56.2500021457673,0|0,0:0|0:0,0:0:0:0:
47,184,42432,2,0,P|30:161|20:135,1,56.2500021457673
65,79,42604,6,0,P|65:42|73:5,1,75,4|0,2:1|0:0,0:0:0:0:
78,116,42947,2,0,P|65:80|61:43,1,75,0|0,2:1|0:0,0:0:0:0:
109,139,43290,6,0,P|83:112|65:80,1,75,0|0,2:1|0:0,0:0:0:0:
143,153,43632,2,0,P|109:139|79:117,1,75,0|0,2:1|0:0,0:0:0:0:
45,176,43975,6,0,P|75:153|109:139,1,75,4|0,2:1|0:0,0:0:0:0:
31,212,44318,2,0,P|49:179|75:152,1,75,0|0,2:1|0:0,0:0:0:0:
28,248,44661,38,0,P|32:210|45:175,1,75,0|0,2:1|0:0,0:0:0:0:
40,285,45004,2,0,P|32:248|31:210,1,75,2|0,2:1|2:0,0:0:0:0:
186,329,45347,5,4,2:1:0:0:
219,261,45518,2,0,P|223:241|223:213,1,37.5,0|0,0:0|0:0,0:0:0:0:
191,156,45690,1,0,2:1:0:0:
191,156,45775,1,0,0:0:0:0:
191,156,45861,2,0,P|187:136|187:108,1,37.5,0|0,0:0|0:0,0:0:0:0:
219,51,46032,5,0,2:1:0:0:
224,44,46118,1,0,0:0:0:0:
229,37,46204,2,0,L|266:38,1,37.5,0|0,0:0|0:0,0:0:0:0:
311,91,46375,6,0,P|380:77|333:25,1,168.750006437302,14|0,0:1|0:0,0:0:0:0:
266,38,46718,37,4,1:0:0:0:
187,119,46890,1,0,0:0:0:0:
169,117,46975,1,0,0:0:0:0:
151,115,47061,1,4,0:1:0:0:
133,113,47147,1,0,0:0:0:0:
115,111,47232,1,0,0:0:0:0:
129,144,47318,1,0,0:0:0:0:
143,177,47404,5,4,0:1:0:0:
222,258,47575,1,0,0:0:0:0:
240,260,47661,1,0,0:0:0:0:
258,259,47747,1,4,0:1:0:0:
276,256,47832,1,0,0:0:0:0:
292,249,47918,1,0,0:0:0:0:
328,250,48004,1,0,0:0:0:0:
356,271,48090,5,4,0:1:0:0:
435,190,48261,1,0,0:0:0:0:
433,172,48347,1,0,0:0:0:0:
431,154,48432,1,4,0:1:0:0:
429,136,48518,1,0,0:0:0:0:
427,118,48604,1,0,0:0:0:0:
397,139,48690,1,0,0:0:0:0:
360,142,48775,5,4,0:1:0:0:
281,61,48947,1,0,0:0:0:0:
265,54,49032,1,0,0:0:0:0:
247,51,49118,1,4,0:1:0:0:
229,50,49204,1,0,0:0:0:0:
211,52,49290,1,0,0:0:0:0:
213,88,49375,1,0,0:0:0:0:
215,124,49461,37,4,0:1:0:0:
294,205,49632,1,0,0:0:0:0:
293,223,49718,1,0,0:0:0:0:
292,241,49804,1,4,0:1:0:0:
291,259,49890,1,0,0:0:0:0:
290,277,49975,1,0,0:0:0:0:
316,301,50061,1,0,0:0:0:0:
342,325,50147,5,4,0:1:0:0:
421,244,50318,1,0,0:0:0:0:
435,232,50404,1,0,0:0:0:0:
446,217,50490,1,4,0:1:0:0:
453,200,50575,1,0,0:0:0:0:
457,182,50661,1,0,0:0:0:0:
452,145,50747,1,0,0:0:0:0:
432,113,50832,5,4,0:1:0:0:
353,32,51004,1,0,0:0:0:0:
335,33,51090,1,0,0:0:0:0:
317,34,51175,1,4,0:1:0:0:
299,35,51261,1,0,0:0:0:0:
281,36,51347,1,0,0:0:0:0:
255,60,51432,1,0,0:0:0:0:
252,95,51518,5,4,0:1:0:0:
173,176,51690,1,4,0:1:0:0:
137,174,51775,1,4,0:1:0:0:
101,172,51861,38,0,B|38:119|38:119|97:56,1,168.750006437302,12|0,0:1|0:0,0:0:0:0:
67,48,52204,22,0,L|139:52,1,56.2500021457673,4|0,1:0|0:0,0:0:0:0:
138,28,52375,2,0,L|210:32,1,56.2500021457673,4|0,1:0|0:0,0:0:0:0:
291,90,52547,6,0,P|299:118|291:146,1,56.2500021457673,4|0,0:1|0:0,0:0:0:0:
221,141,52718,2,0,P|214:113|222:87,1,56.2500021457673,4|0,0:1|0:0,0:0:0:0:
445,45,52890,38,0,L|388:48,1,56.2500021457673,4|0,1:0|0:0,0:0:0:0:
375,25,53061,2,0,L|318:28,1,56.2500021457673,4|0,1:0|0:0,0:0:0:0:
222,87,53232,6,0,P|214:113|221:141,1,56.2500021457673,4|0,0:1|0:0,0:0:0:0:
292,144,53404,2,0,P|298:116|291:89,1,56.2500021457673,4|0,0:1|0:0,0:0:0:0:
123,51,53575,6,0,L|66:47,1,56.2500021457673,4|0,1:0|0:0,0:0:0:0:
194,31,53747,2,0,L|137:27,1,56.2500021457673,4|0,1:0|0:0,0:0:0:0:
291,90,53918,6,0,P|298:116|292:143,1,56.2500021457673,4|0,0:1|0:0,0:0:0:0:
221,141,54090,2,0,P|214:113|222:87,1,56.2500021457673,4|0,0:1|0:0,0:0:0:0:
389,48,54261,38,0,L|446:45,1,56.2500021457673,4|0,1:0|0:0,0:0:0:0:
318,28,54432,2,0,L|375:25,1,56.2500021457673,4|0,1:0|0:0,0:0:0:0:
222,87,54604,6,0,P|214:113|221:141,1,56.2500021457673,4|0,0:1|0:0,0:0:0:0:
292,144,54775,2,0,P|298:116|291:89,1,56.2500021457673,4|0,0:1|0:0,0:0:0:0:
200,376,54947,5,4,0:1:0:0:
236,384,55032,1,4,0:1:0:0:
269,377,55118,1,4,0:1:0:0:
293,358,55204,1,4,0:1:0:0:
305,332,55290,5,4,0:1:0:0:
303,306,55375,1,4,0:1:0:0:
290,287,55461,1,4,0:1:0:0:
271,279,55547,1,4,0:1:0:0:
253,282,55632,37,4,0:1:0:0:
242,293,55718,1,4,0:1:0:0:
241,306,55804,1,4,0:1:0:0:
248,315,55890,1,4,0:1:0:0:
259,316,55975,5,4,0:1:0:0:
267,310,56061,1,4,0:1:0:0:
269,301,56147,1,4,0:1:0:0:
265,294,56232,1,4,0:1:0:0:
258,292,56318,5,4,1:0:0:0:
160,288,56490,38,0,L|127:255,1,37.5,6|6,1:0|1:0,0:0:0:0:
256,192,56661,70,0,L|256:147,1,37.5,6|6,1:0|1:0,0:0:0:0:
352,288,56832,6,0,L|384:252,1,37.5,6|6,1:0|1:0,0:0:0:0:
384,128,57004,6,0,L|380:80,1,37.5,2|0,1:0|2:0,0:0:0:0:
128,128,57175,6,0,L|132:80,1,37.5,2|0,1:0|2:0,0:0:0:0:
384,128,57347,6,0,L|380:80,1,37.5,2|0,1:0|2:0,0:0:0:0:
128,128,57518,6,0,L|132:80,1,37.5,2|0,1:0|2:0,0:0:0:0:
256,352,57690,37,6,1:0:0:0:
352,288,57861,1,0,0:0:0:0:
455,339,58032,1,2,0:1:0:0:
457,341,58204,1,0,0:0:0:0:
459,343,58375,5,10,1:0:0:0:
256,352,58547,1,0,0:0:0:0:
344,173,58718,1,2,0:1:0:0:
346,171,58890,1,0,0:0:0:0:
352,288,59061,6,0,L|296:284,1,37.5,4|0,1:0|0:0,0:0:0:0:
252,192,59232,2,0,L|196:196,1,37.5,0|0,0:0|0:0,0:0:0:0:
176,260,59404,2,0,L|120:256,1,37.5,0|0,0:0|0:0,0:0:0:0:
116,228,59575,2,0,L|60:232,1,37.5,0|0,0:0|0:0,0:0:0:0:
79,231,59747,5,8,1:0:0:0:
32,160,59918,1,4,0:1:0:0:
33,155,59975,1,4,0:1:0:0:
34,150,60032,1,4,0:1:0:0:
35,145,60090,2,0,B|95:137|95:137|139:157|139:157|215:149,1,168.750006437302,12|0,1:0|0:0,0:0:0:0:
268,144,60432,37,6,1:0:0:0:
384,128,60604,1,0,0:0:0:0:
455,220,60775,1,2,0:1:0:0:
457,218,60947,1,0,0:0:0:0:
459,216,61118,5,6,1:0:0:0:
427,20,61290,1,0,0:0:0:0:
268,144,61461,1,2,0:1:0:0:
266,142,61632,1,0,0:0:0:0:
384,128,61804,6,0,P|387:147|387:166,1,37.5,4|0,1:0|0:0,0:0:0:0:
473,237,61975,2,0,P|464:254|453:269,1,37.5,0|0,0:0|0:0,0:0:0:0:
415,326,62147,2,0,P|397:334|379:340,1,37.5,0|0,0:0|0:0,0:0:0:0:
347,357,62318,2,0,P|328:353|309:348,1,37.5,0|0,0:0|0:0,0:0:0:0:
292,249,62490,6,0,B|244:237|244:237|204:249|204:249|156:229|156:229|72:237|72:237|44:257|52:313|96:329|152:305|132:257,1,393.750015020371,8|0,1:0|0:0,0:0:0:0:
124,192,63175,37,6,1:0:0:0:
221,141,63347,1,0,0:0:0:0:
225,31,63518,1,2,0:1:0:0:
223,29,63690,1,0,0:0:0:0:
221,27,63861,5,6,1:0:0:0:
124,192,64032,1,0,0:0:0:0:
315,193,64204,1,2,0:1:0:0:
317,191,64375,1,0,0:0:0:0:
221,141,64547,6,0,L|225:197,1,37.5,4|0,1:0|0:0,0:0:0:0:
321,226,64718,2,0,L|319:189,1,37.5,0|0,0:0|0:0,0:0:0:0:
385,156,64890,2,0,L|382:193,1,37.5,0|0,0:0|0:0,0:0:0:0:
416,210,65061,2,0,L|413:172,1,37.5,0|0,0:0|0:0,0:0:0:0:
480,32,65232,6,0,L|451:30,15,28.1250010728836,12|4|4|4|4|4|4|4|4|4|4|4|4|4|4|4,0:1|0:1|0:1|0:1|0:1|0:1|0:1|0:1|0:1|0:1|0:1|0:1|0:1|0:1|0:1|0:1,0:0:0:0:
392,56,65918,38,0,L|396:116,1,56.2500021457673,4|0,1:0|0:0,0:0:0:0:
332,81,66090,2,0,L|336:141,1,56.2500021457673,0|0,0:0|0:0,0:0:0:0:
272,106,66261,5,4,0:1:0:0:
272,106,66347,1,0,0:1:0:0:
272,106,66432,1,4,1:0:0:0:
236,124,66518,1,4,1:0:0:0:
195,125,66604,5,8,1:0:0:0:
157,110,66690,1,8,1:0:0:0:
129,80,66775,1,4,1:0:0:0:
114,41,66861,1,4,1:0:0:0:
118,0,66947,6,0,P|191:51|195:125,1,168.750006437302,14|0,1:0|0:0,0:0:0:0:
130,192,67290,38,0,L|74:188,3,46.875,4|0|0|0,0:1|0:0|0:0|0:0,0:0:0:0:
4,257,67632,2,0,L|50:253,1,46.875,8|0,0:1|0:0,0:0:0:0:
102,305,67804,2,0,P|109:327|110:350,1,46.875,0|0,0:0|0:0,0:0:0:0:
183,362,67975,5,4,0:1:0:0:
204,352,68061,1,0,0:0:0:0:
226,346,68147,1,0,0:0:0:0:
249,345,68232,1,0,0:0:0:0:
271,348,68318,2,0,P|308:352|340:336,1,62.5,8|0,0:1|0:0,0:0:0:0:
347,332,68490,2,0,L|343:280,1,46.875,0|0,0:0|0:0,0:0:0:0:
398,240,68661,5,4,0:1:0:0:
399,216,68747,1,0,0:0:0:0:
401,193,68832,1,0,0:0:0:0:
402,169,68918,1,0,0:0:0:0:
440,140,69004,1,8,0:1:0:0:
439,116,69090,1,0,0:0:0:0:
437,93,69175,1,0,0:0:0:0:
435,70,69261,1,0,0:0:0:0:
398,40,69347,6,0,P|364:32|332:40,1,62.5,4|0,0:1|0:0,0:0:0:0:
322,48,69518,2,4,P|298:56|266:52,1,46.875,0|0,0:0|0:0,0:0:0:0:
212,24,69690,1,8,0:1:0:0:
191,14,69775,1,0,0:0:0:0:
169,8,69861,1,0,0:0:0:0:
146,7,69947,1,0,0:0:0:0:
124,10,70032,37,4,0:1:0:0:
0,120,70204,1,0,0:1:0:0:
0,120,70290,1,0,0:0:0:0:
0,120,70375,2,0,P|23:116|46:115,1,46.875,8|0,0:1|0:0,0:0:0:0:
112,152,70547,2,0,P|126:170|138:190,1,46.875,0|0,0:0|0:0,0:0:0:0:
140,264,70718,5,4,0:1:0:0:
116,272,70804,1,0,0:0:0:0:
90,274,70890,1,0,0:0:0:0:
64,271,70975,1,0,0:0:0:0:
63,198,71061,1,8,0:1:0:0:
87,190,71147,1,0,0:0:0:0:
113,188,71232,1,0,0:0:0:0:
139,191,71318,1,0,0:0:0:0:
202,226,71404,5,4,0:1:0:0:
226,234,71490,1,0,0:0:0:0:
252,236,71575,1,0,0:0:0:0:
278,233,71661,1,0,0:0:0:0:
302,224,71747,1,8,0:1:0:0:
324,211,71832,1,0,0:0:0:0:
342,193,71918,1,0,0:0:0:0:
358,172,72004,1,0,0:0:0:0:
419,148,72090,5,4,0:1:0:0:
394,156,72175,1,0,0:0:0:0:
369,160,72261,1,0,0:0:0:0:
343,157,72347,1,0,0:0:0:0:
319,151,72432,1,8,0:1:0:0:
296,138,72518,1,0,0:0:0:0:
276,121,72604,1,0,0:0:0:0:
261,100,72690,1,0,0:0:0:0:
250,76,72775,38,0,L|256:7,1,62.5,4|0,0:1|0:0,0:0:0:0:
192,120,73004,2,0,L|194:150,1,31.25,0|0,0:0|0:0,0:0:0:0:
139,191,73118,1,8,0:1:0:0:
108,176,73204,1,0,0:0:0:0:
73,178,73290,1,0,0:0:0:0:
44,197,73375,1,0,0:0:0:0:
28,228,73461,6,0,P|24:251|27:274,1,46.875,4|0,0:1|0:0,0:0:0:0:
183,362,73632,2,0,P|186:338|183:315,1,46.875,0|0,0:0|0:0,0:0:0:0:
38,372,73804,2,0,P|61:376|84:373,1,46.875,8|0,0:1|0:0,0:0:0:0:
172,217,73975,2,0,P|149:213|126:216,1,46.875,0|0,0:0|0:0,0:0:0:0:
183,362,74147,6,0,P|252:371|318:351,1,140.625,4|0,0:1|0:0,0:0:0:0:
319,351,74490,2,0,P|312:320|316:284,1,46.875,8|0,0:1|0:0,0:0:0:0:
280,192,74661,2,0,P|296:165|324:142,1,46.875,0|0,0:0|0:0,0:0:0:0:
480,352,74832,5,4,0:1:0:0:
455,360,74918,1,0,0:0:0:0:
428,361,75004,1,0,0:0:0:0:
402,355,75090,1,0,0:0:0:0:
337,313,75175,1,8,0:1:0:0:
312,305,75261,1,0,0:0:0:0:
285,304,75347,1,0,0:0:0:0:
259,310,75432,1,0,0:0:0:0:
194,352,75518,37,4,0:1:0:0:
168,358,75604,1,0,0:0:0:0:
141,357,75690,1,0,0:0:0:0:
116,349,75775,1,0,0:0:0:0:
93,334,75861,1,8,0:1:0:0:
74,314,75947,1,0,0:0:0:0:
62,290,76032,1,0,0:0:0:0:
56,264,76118,1,0,0:0:0:0:
14,207,76204,5,4,0:1:0:0:
38,196,76290,1,0,0:0:0:0:
59,179,76375,1,0,0:0:0:0:
75,158,76461,1,0,0:0:0:0:
85,133,76547,1,8,0:1:0:0:
88,105,76632,1,0,0:0:0:0:
84,79,76718,1,0,0:0:0:0:
73,54,76804,1,0,0:0:0:0:
56,34,76890,6,0,P|92:42|136:40,1,62.5,4|0,0:1|0:0,0:0:0:0:
136,45,77061,2,0,P|159:40|182:40,1,46.875,0|0,0:0|0:0,0:0:0:0:
256,80,77232,1,8,0:1:0:0:
291,81,77318,1,0,0:0:0:0:
324,68,77404,1,0,0:0:0:0:
348,42,77490,1,0,0:0:0:0:
360,9,77575,6,0,P|338:0|314:0,1,46.875,4|0,0:1|0:0,0:0:0:0:
194,151,77747,2,0,P|215:159|239:159,1,46.875,0|0,0:0|0:0,0:0:0:0:
206,0,77918,2,0,P|197:18|197:42,1,46.875,8|0,0:1|0:0,0:0:0:0:
348,163,78090,2,0,P|356:141|356:117,1,46.875,0|0,0:0|0:0,0:0:0:0:
194,151,78261,38,0,P|172:208|196:296,1,140.625,4|0,0:1|0:0,0:0:0:0:
188,284,78604,2,0,L|234:281,1,46.875,8|0,0:1|0:0,0:0:0:0:
324,211,78775,2,0,L|370:213,1,46.875,0|0,0:0|0:0,0:0:0:0:
198,45,78947,5,4,0:1:0:0:
177,61,79032,1,0,0:0:0:0:
151,71,79118,1,0,0:0:0:0:
123,72,79204,1,0,0:0:0:0:
98,64,79290,2,0,P|63:56|32:60,1,62.5,8|0,0:1|0:0,0:0:0:0:
21,68,79461,2,0,L|25:132,1,46.875,0|0,0:0|0:0,0:0:0:0:
0,181,79632,5,4,0:1:0:0:
16,200,79718,1,0,0:0:0:0:
27,221,79804,1,0,0:0:0:0:
33,243,79890,1,0,0:0:0:0:
68,272,79975,1,8,0:1:0:0:
52,291,80061,1,0,0:0:0:0:
41,312,80147,1,0,0:0:0:0:
35,334,80232,1,0,0:0:0:0:
70,363,80318,6,0,L|122:359,1,46.875,6|0,0:1|0:0,0:0:0:0:
163,305,80490,2,0,L|215:309,1,46.875,0|0,0:0|0:0,0:0:0:0:
256,363,80661,1,8,0:1:0:0:
279,361,80747,1,0,0:0:0:0:
302,359,80832,1,0,0:0:0:0:
325,357,80918,1,0,0:0:0:0:
348,355,81004,38,0,L|400:359,3,46.875,4|0|0|0,0:1|0:0|0:0|0:0,0:0:0:0:
484,284,81347,2,0,L|437:287,3,46.875,8|0|0|0,0:1|0:0|0:0|0:0,0:0:0:0:
348,213,81690,38,0,L|400:217,3,46.875,4|0|0|0,0:1|0:0|0:0|0:0,0:0:0:0:
484,142,82032,2,0,L|437:145,1,46.875,8|0,0:1|0:0,0:0:0:0:
348,71,82204,2,0,L|400:75,1,46.875,4|0,0:1|0:0,0:0:0:0:
280,192,82375,38,0,L|212:196,1,62.5,4|0,0:1|0:0,0:0:0:0:
192,192,82547,2,0,P|188:168|191:145,1,46.875,0|0,0:0|0:0,0:0:0:0:
64,151,82718,2,0,P|45:166|23:175,1,46.875,8|0,0:1|0:0,0:0:0:0:
95,279,82890,2,0,P|117:288|136:302,1,46.875,4|0,0:1|0:0,0:0:0:0:
119,209,83061,5,8,0:1:0:0:
120,207,83147,1,0,0:0:0:0:
121,205,83232,1,0,0:0:0:0:
122,203,83318,1,0,0:0:0:0:
123,201,83404,2,0,L|119:145,1,46.875,0|0,0:0|0:0,0:0:0:0:
240,159,83575,2,0,L|236:103,1,46.875,4|0,0:1|0:0,0:0:0:0:
357,117,83747,6,0,L|424:112,1,62.5,4|0,0:1|0:0,0:0:0:0:
445,117,83918,2,0,P|449:141|446:164,1,46.875,0|0,0:0|0:0,0:0:0:0:
287,200,84090,2,0,P|305:184|326:175,1,46.875,8|0,0:1|0:0,0:0:0:0:
439,295,84261,2,0,P|417:286|398:273,1,46.875,4|0,0:1|0:0,0:0:0:0:
391,205,84432,5,8,0:1:0:0:
390,207,84518,1,0,0:0:0:0:
389,209,84604,1,0,0:0:0:0:
388,211,84690,1,0,0:0:0:0:
387,213,84775,1,4,0:0:0:0:
387,213,85118,38,0,L|316:209,1,70.3125,4|0,0:1|0:0,0:0:0:0:
303,221,85290,2,0,L|252:218,1,46.875,4|4,0:1|0:1,0:0:0:0:
196,140,85461,6,0,L|194:112,7,28.1250010728836,8|0|0|0|0|0|0|0,0:1|0:1|0:0|0:0|0:0|0:0|0:0|0:0,0:0:0:0:
196,140,85804,6,0,L|125:144,1,70.3125,4|0,0:1|0:0,0:0:0:0:
112,132,85975,2,0,L|61:134,1,46.875,4|4,0:1|0:1,0:0:0:0:
5,213,86147,6,0,B|32:260|32:260|0:296|20:356|20:356|44:336|36:312,1,196.875001877546,8|0,0:1|0:0,0:0:0:0:
38,321,86490,38,0,L|102:325,1,46.875,4|0,0:1|0:0,0:0:0:0:
140,280,86661,2,0,L|204:284,1,46.875,4|0,0:1|0:0,0:0:0:0:
242,327,86832,2,0,L|306:331,1,46.875,4|0,0:1|0:0,0:0:0:0:
344,286,87004,2,0,L|408:290,1,46.875,4|0,0:1|0:0,0:0:0:0:
446,333,87175,6,0,L|510:337,1,46.875,4|4,0:1|0:1,0:0:0:0:
242,239,87347,2,0,L|306:243,1,46.875,4|4,0:1|0:1,0:0:0:0:
38,321,87518,6,0,L|102:325,1,46.875,6|0,0:0|0:0,0:0:0:0:
140,368,87861,53,4,0:1:0:0:
242,327,88032,1,0,0:0:0:0:
261,323,88118,1,0,0:0:0:0:
280,323,88204,1,4,0:1:0:0:
299,327,88290,1,0,0:0:0:0:
316,336,88375,1,0,0:1:0:0:
295,305,88461,1,0,0:0:0:0:
296,267,88547,5,4,0:1:0:0:
398,308,88718,1,0,0:1:0:0:
416,306,88804,1,0,0:0:0:0:
434,304,88890,1,4,0:1:0:0:
452,302,88975,1,0,0:0:0:0:
470,300,89061,1,0,0:1:0:0:
484,266,89147,1,0,0:0:0:0:
498,232,89232,5,4,0:1:0:0:
396,191,89404,1,0,0:0:0:0:
378,196,89490,1,0,0:0:0:0:
359,196,89575,1,4,0:1:0:0:
340,191,89661,1,0,0:0:0:0:
324,181,89747,1,0,0:0:0:0:
302,150,89832,1,0,0:0:0:0:
280,119,89918,5,4,0:1:0:0:
178,160,90090,1,0,0:0:0:0:
160,158,90175,1,0,0:0:0:0:
142,156,90261,1,4,0:1:0:0:
124,154,90347,1,0,0:0:0:0:
106,152,90432,1,0,0:0:0:0:
90,184,90518,1,0,0:0:0:0:
95,219,90604,37,4,0:1:0:0:
136,321,90775,1,0,0:0:0:0:
153,330,90861,1,0,0:0:0:0:
172,334,90947,1,4,0:1:0:0:
191,334,91032,1,0,0:0:0:0:
210,330,91118,1,0,0:0:0:0:
243,310,91204,1,0,0:0:0:0:
265,278,91290,5,4,0:1:0:0:
306,176,91461,1,0,0:0:0:0:
324,178,91547,1,0,0:0:0:0:
342,180,91632,1,4,0:1:0:0:
360,182,91718,1,0,0:0:0:0:
378,184,91804,1,0,0:0:0:0:
392,217,91890,1,0,0:0:0:0:
406,250,91975,5,4,0:1:0:0:
365,352,92147,1,0,0:0:0:0:
346,357,92232,1,0,0:0:0:0:
327,357,92318,1,4,0:1:0:0:
308,353,92404,1,0,0:0:0:0:
290,345,92490,1,0,0:0:0:0:
252,348,92575,1,0,0:0:0:0:
213,351,92661,5,4,0:1:0:0:
119,292,92832,1,4,0:1:0:0:
81,289,92918,1,4,0:1:0:0:
42,286,93004,38,0,B|28:256|48:220|48:220|88:244|76:320,1,168.750006437302,12|0,0:1|0:0,0:0:0:0:
67,336,93347,22,0,L|10:339,1,56.2500021457673,4|0,1:0|0:0,0:0:0:0:
138,356,93518,2,0,L|81:359,1,56.2500021457673,4|0,1:0|0:0,0:0:0:0:
291,294,93690,6,0,P|299:266|291:238,1,56.2500021457673,4|0,0:1|0:0,0:0:0:0:
221,243,93861,2,0,P|214:271|222:297,1,56.2500021457673,4|0,0:1|0:0,0:0:0:0:
445,339,94032,38,0,L|502:342,1,56.2500021457673,4|0,1:0|0:0,0:0:0:0:
375,359,94204,2,0,L|432:362,1,56.2500021457673,4|0,1:0|0:0,0:0:0:0:
222,297,94375,6,0,P|214:271|221:243,1,56.2500021457673,4|0,0:1|0:0,0:0:0:0:
292,240,94547,2,0,P|298:268|291:295,1,56.2500021457673,4|0,0:1|0:0,0:0:0:0:
66,337,94718,6,0,L|123:333,1,56.2500021457673,4|0,1:0|0:0,0:0:0:0:
137,357,94890,2,0,L|194:353,1,56.2500021457673,4|0,1:0|0:0,0:0:0:0:
291,294,95061,6,0,P|298:268|292:241,1,56.2500021457673,4|0,0:1|0:0,0:0:0:0:
221,243,95232,2,0,P|214:271|222:297,1,56.2500021457673,4|0,0:1|0:0,0:0:0:0:
446,339,95404,38,0,L|389:336,1,56.2500021457673,4|0,1:0|0:0,0:0:0:0:
375,359,95575,2,0,L|318:356,1,56.2500021457673,4|0,1:0|0:0,0:0:0:0:
222,297,95747,6,0,P|214:271|221:243,1,56.2500021457673,4|0,0:1|0:0,0:0:0:0:
292,240,95918,2,0,P|298:268|291:295,1,56.2500021457673,4|0,0:1|0:0,0:0:0:0:
245,13,96090,5,4,0:1:0:0:
281,29,96175,1,4,0:1:0:0:
304,55,96261,1,4,0:1:0:0:
312,84,96347,1,4,0:1:0:0:
306,110,96432,5,4,0:1:0:0:
289,127,96518,1,4,0:1:0:0:
267,131,96604,1,4,0:1:0:0:
248,122,96690,1,4,0:1:0:0:
238,105,96775,37,4,0:1:0:0:
240,87,96861,1,4,0:1:0:0:
251,75,96947,1,4,0:1:0:0:
266,74,97032,1,4,0:1:0:0:
276,82,97118,5,4,0:1:0:0:
277,93,97204,1,4,0:1:0:0:
270,100,97290,1,4,0:1:0:0:
261,99,97375,1,4,0:1:0:0:
256,92,97461,5,4,1:0:0:0:
348,184,98490,6,0,B|300:184|288:152|288:152|256:176|256:176|224:152|224:152|216:184|165:183,1,225,12|0,0:1|0:0,0:0:0:0:
256,92,98832,37,6,1:0:0:0:
348,184,99004,1,0,1:0:0:0:
473,150,99175,1,10,1:1:0:0:
475,148,99347,1,0,1:0:0:0:
477,146,99518,5,2,1:0:0:0:
256,92,99690,1,4,1:0:0:0:
315,309,99861,1,10,1:1:0:0:
317,311,100032,1,0,1:0:0:0:
348,184,100204,6,0,L|310:186,1,37.5,4|4,0:1|0:1,0:0:0:0:
192,280,100375,2,0,L|154:278,1,37.5,4|4,0:1|0:1,0:0:0:0:
112,172,100547,2,0,L|74:174,1,37.5,12|4,0:1|0:1,0:0:0:0:
38,240,100718,2,0,L|0:238,1,37.5,4|4,0:1|0:1,0:0:0:0:
117,364,100890,6,0,L|113:320,2,37.5000014305115,6|0|0,1:0|0:0|0:0,0:0:0:0:
192,280,101061,2,0,L|196:204,1,56.2500021457673,4|0,1:0|0:0,0:0:0:0:
327,321,101232,2,0,L|271:324,1,56.2500021457673,8|0,1:0|0:0,0:0:0:0:
406,277,101404,2,0,L|462:279,1,56.2500021457673,4|0,1:0|0:0,0:0:0:0:
405,368,101575,37,6,1:0:0:0:
298,295,101747,1,0,1:0:0:0:
307,165,101918,1,10,1:0:0:0:
309,163,102090,1,0,1:0:0:0:
311,161,102261,5,2,1:0:0:0:
181,352,102432,1,4,1:0:0:0:
405,368,102604,1,10,1:0:0:0:
407,370,102775,1,0,1:0:0:0:
298,295,102947,6,0,P|274:299|258:299,1,37.5,4|4,0:1|0:1,0:0:0:0:
114,326,103118,2,0,P|94:311|82:300,1,37.5,4|4,0:1|0:1,0:0:0:0:
16,212,103290,2,0,P|12:193|11:174,1,37.5,12|4,0:1|0:1,0:0:0:0:
0,100,103461,2,0,P|10:84|23:70,1,37.5,4|4,0:1|0:1,0:0:0:0:
199,112,103632,6,0,L|195:228,1,112.500004291535,6|4,1:0|1:0,0:0:0:0:
124,144,103890,1,2,1:0:0:0:
124,144,103975,2,0,P|116:104|120:88,1,56.2500021457673,8|2,1:0|0:1,0:0:0:0:
274,80,104147,2,0,P|282:120|278:136,1,56.2500021457673,4|0,0:1|0:0,0:0:0:0:
195,224,104318,37,6,1:0:0:0:
319,258,104490,1,0,1:0:0:0:
411,167,104661,1,10,1:0:0:0:
413,165,104832,1,0,1:0:0:0:
415,163,105004,5,2,1:0:0:0:
195,224,105175,1,4,1:0:0:0:
352,381,105347,1,10,1:0:0:0:
354,383,105518,1,0,1:0:0:0:
319,258,105690,6,0,L|317:229,1,28.1250010728836,4|0,0:1|0:0,0:0:0:0:
278,268,105775,6,0,L|294:245,1,28.1250010728836,0|0,0:0|0:0,0:0:0:0:
240,254,105861,38,0,L|266:243,1,28.1250010728836,4|0,0:1|0:0,0:0:0:0:
217,219,105947,6,0,L|244:226,1,28.1250010728836,4|0,0:1|0:0,0:0:0:0:
219,177,106032,6,0,L|236:198,1,28.1250010728836,8|0,0:1|0:0,0:0:0:0:
246,144,106118,6,0,L|246:172,1,28.1250010728836,0|0,0:0|0:0,0:0:0:0:
285,133,106204,38,0,L|270:157,1,28.1250010728836,8|0,0:1|0:1,0:0:0:0:
324,148,106290,6,0,L|298:158,1,28.1250010728836,8|0,0:1|0:0,0:0:0:0:
347,183,106375,6,0,L|320:176,1,28.1250010728836,8|0,0:1|0:0,0:0:0:0:
386,197,106461,6,0,L|360:206,1,28.1250010728836,8|0,0:1|0:0,0:0:0:0:
425,185,106547,38,0,L|410:207,1,28.1250010728836,4|0,0:1|0:0,0:0:0:0:
450,152,106632,6,0,L|451:178,1,28.1250010728836,8|0,0:1|0:0,0:0:0:0:
451,111,106718,38,0,L|456:24,1,84.3750032186509,4|0,0:1|0:0,0:0:0:0:
456,27,107061,21,6,1:0:0:0:
428,29,107147,1,4,0:1:0:0:
400,31,107232,1,8,0:1:0:0:
372,33,107318,1,4,0:1:0:0:
316,76,107404,5,10,1:0:0:0:
320,80,107490,1,4,0:1:0:0:
316,84,107575,1,4,0:1:0:0:
312,80,107661,1,4,0:1:0:0:
260,33,107747,5,10,1:0:0:0:
232,35,107832,1,4,0:1:0:0:
204,37,107918,1,4,0:0:0:0:
176,39,108004,1,4,0:0:0:0:
120,82,108090,6,0,L|63:79,1,56.2500021457673,10|0,1:0|0:0,0:0:0:0:
219,177,108261,2,0,L|275:174,1,56.2500021457673,0|0,0:0|0:0,0:0:0:0:
125,278,108432,37,6,1:0:0:0:
121,274,108604,1,2,1:0:0:0:
117,270,108775,1,8,1:0:0:0:
157,254,108861,1,0,1:0:0:0:
198,264,108947,1,4,1:0:0:0:
225,296,109032,1,0,1:0:0:0:
228,337,109118,5,4,1:0:0:0:
347,183,109290,1,4,1:1:0:0:
351,179,109375,1,0,1:0:0:0:
355,175,109461,2,0,L|351:111,1,56.2500021457673,8|0,0:1|0:0,0:0:0:0:
292,80,109632,2,0,L|320:22,1,56.2500021457673,0|0,1:0|0:0,0:0:0:0:
456,192,109804,5,6,1:0:0:0:
459,196,109975,1,6,1:0:0:0:
462,201,110147,1,8,1:0:0:0:
420,197,110232,1,0,1:0:0:0:
378,193,110318,1,4,1:0:0:0:
336,189,110404,1,0,1:0:0:0:
294,185,110490,5,4,1:0:0:0:
126,91,110661,1,4,1:0:0:0:
123,87,110747,1,0,1:0:0:0:
120,82,110832,2,0,P|112:108|115:136,1,56.2500021457673,8|0,1:0|0:0,0:0:0:0:
68,192,111004,2,0,P|74:219|91:241,1,56.2500021457673,4|0,1:0|0:0,0:0:0:0:
298,295,111175,37,6,1:0:0:0:
300,290,111347,1,4,1:0:0:0:
328,322,111432,1,4,1:0:0:0:
369,335,111518,1,8,1:0:0:0:
411,326,111604,1,0,1:0:0:0:
443,297,111690,1,4,1:0:0:0:
457,256,111775,1,4,1:0:0:0:
448,213,111861,6,0,L|440:156,1,56.2500021457673,12|0,1:0|0:0,0:0:0:0:
356,104,112032,1,4,1:1:0:0:
354,109,112118,1,4,1:0:0:0:
352,114,112204,2,0,L|280:110,1,56.2500021457673,8|0,0:1|0:0,0:0:0:0:
200,28,112375,2,0,L|256:24,1,56.2500021457673,8|0,0:1|0:0,0:0:0:0:
241,188,112547,5,6,1:0:0:0:
239,193,112718,1,0,0:0:0:0:
236,198,112890,1,8,1:0:0:0:
218,159,112975,1,0,1:0:0:0:
182,135,113061,1,4,1:0:0:0:
139,134,113147,1,0,1:0:0:0:
101,155,113232,5,4,1:0:0:0:
296,110,113404,1,4,1:0:0:0:
298,105,113490,1,0,1:0:0:0:
301,100,113575,2,0,B|373:96|373:96|405:116|405:116|469:112,1,168.750006437302,8|0,1:0|0:0,0:0:0:0:
352,176,113918,37,6,1:0:0:0:
350,181,114090,1,4,0:1:0:0:
348,186,114261,1,8,1:0:0:0:
355,228,114347,1,0,1:0:0:0:
362,270,114432,1,4,1:0:0:0:
369,312,114518,1,0,1:0:0:0:
376,354,114604,5,4,1:0:0:0:
198,264,114775,1,4,1:0:0:0:
200,259,114861,1,4,1:0:0:0:
202,254,114947,2,0,P|206:226|200:198,1,56.2500021457673,8|0,1:0|0:0,0:0:0:0:
116,104,115118,2,0,P|111:131|117:159,1,56.2500021457673,4|0,1:0|0:0,0:0:0:0:
287,170,115290,6,0,L|431:166,1,131.250001251698,14|4,1:0|1:0,0:0:0:0:
418,166,115547,1,4,1:0:0:0:
483,213,115632,2,0,P|497:183|496:151,1,65.6250006258488,8|0,1:0|0:0,0:0:0:0:
424,85,115804,2,0,P|391:87|363:103,1,65.6250006258488,8|0,1:0|0:0,0:0:0:0:
341,200,115975,5,14,1:0:0:0:
328,236,116061,1,0,1:0:0:0:
334,273,116147,1,4,1:0:0:0:
358,302,116232,1,4,1:0:0:0:
393,315,116318,2,0,P|421:299|440:273,1,65.6250006258488,8|0,1:0|0:0,0:0:0:0:
496,151,116490,2,0,P|497:118|483:88,1,65.6250006258488,4|0,1:0|0:0,0:0:0:0:
200,28,116661,6,0,B|176:56|136:64|136:64|176:72|198:102,1,150,4|4,1:0|0:1,0:0:0:0:
256,192,117090,12,0,119061,0:0:0:0:
