osu file format v14

[General]
AudioFilename: audio.mp3
AudioLeadIn: 0
PreviewTime: 67290
Countdown: 0
SampleSet: Soft
StackLeniency: 0.7
Mode: 0
LetterboxInBreaks: 0
EpilepsyWarning: 1
WidescreenStoryboard: 1

[Editor]
Bookmarks: 2832,8318,13804,19290,24775,31632,38490,42604,46718,52204,57690,74832,82375,87861,93347,116661
DistanceSpacing: 1
BeatDivisor: 4
GridSize: 4
TimelineZoom: 1.5

[Metadata]
Title:Avalanche
TitleUnicode:Avalanche
Artist:Memme
ArtistUnicode:Memme
Creator:Starfy
Version:Easy
Source:Pump it up Prime
Tags:starforyou aabc271 iloveyou4ever nardoxyribonucleic classic drumstep Andamiro PIU Antonio Vivaldi The Four Seasons Winter
BeatmapID:1293724
BeatmapSetID:611095

[Difficulty]
HPDrainRate:3
CircleSize:3
OverallDifficulty:3
ApproachRate:3
SliderMultiplier:0.899999999999999
SliderTickRate:1

[Events]
//Background and Video events
0,0,"BG.jpg",0,0
//Break Periods
2,42804,45278
//Storyboard Layer 0 (Background)
//Storyboard Layer 1 (Fail)
//Storyboard Layer 2 (Pass)
//Storyboard Layer 3 (Foreground)
//Storyboard Sound Samples

[TimingPoints]
90,342.857142857143,4,2,1,40,1,0
8318,-100,4,2,1,60,0,0
18604,-100,4,2,50,60,0,0
18775,-100,4,2,1,60,0,0
19975,-100,4,2,1,65,0,0
20661,-100,4,2,1,70,0,0
21347,-100,4,2,1,75,0,0
22032,-100,4,2,1,80,0,0
22718,-100,4,2,50,85,0,0
22890,-100,4,2,1,85,0,0
24432,-100,4,2,2,100,0,0
24775,-100,4,2,1,70,0,0
25461,-100,4,1,3,70,0,1
27518,-100,4,1,1,70,0,0
28804,-100,4,2,1,20,0,0
28890,-100,4,1,3,70,0,0
31290,-100,4,2,1,70,0,0
32318,-100,4,1,3,70,0,1
34375,-100,4,1,1,70,0,0
35747,-100,4,1,3,70,0,0
37975,-100,4,2,1,70,0,0
39175,-100,4,1,3,70,0,1
41232,-100,4,1,3,70,0,0
41918,-100,4,1,3,70,0,1
42604,-100,4,1,70,80,0,0
46718,-100,4,2,1,50,0,0
48090,-100,4,2,1,55,0,0
49461,-100,4,2,1,60,0,0
50832,-100,4,2,1,70,0,0
57004,-100,4,2,99,100,0,0
57690,-100,4,2,1,80,0,1
59061,-100,4,2,1,80,0,0
60432,-100,4,2,1,80,0,1
61804,-100,4,2,1,80,0,0
62490,-100,4,2,1,80,0,0
63175,-100,4,2,1,80,0,1
64547,-100,4,2,1,80,0,0
65232,-100,4,2,1,80,0,0
65918,-100,4,2,1,80,0,0
66947,-100,4,2,2,100,0,0
67290,-100,4,2,80,80,0,1
67375,-100,4,2,1,80,0,1
68661,-100,4,2,81,80,0,1
68747,-100,4,2,1,80,0,1
70032,-100,4,2,82,80,0,1
70118,-100,4,2,1,80,0,1
71404,-100,4,2,81,80,0,1
71490,-100,4,2,1,80,0,1
72775,-100,4,2,83,80,0,1
73461,-100,4,2,84,80,0,1
74147,-100,4,2,80,80,0,1
74232,-100,4,2,1,80,0,1
75518,-100,4,2,80,80,0,1
75604,-100,4,2,1,80,0,1
76890,-100,4,2,83,80,0,1
76975,-100,4,2,1,80,0,1
77575,-100,4,2,84,80,0,1
77661,-100,4,2,1,80,0,1
78261,-100,4,2,85,80,0,1
78347,-100,4,2,1,80,0,1
78947,-100,4,2,83,80,0,1
79032,-100,4,2,1,80,0,1
79632,-100,4,2,85,80,0,1
79718,-100,4,2,1,80,0,1
80318,-100,4,2,86,80,0,1
80404,-100,4,2,1,80,0,1
81004,-100,4,2,87,80,0,1
81090,-100,4,2,1,80,0,1
82375,-100,4,2,1,80,0,0
87518,-100,4,2,1,80,0,0
87861,-100,4,2,1,50,0,0
89232,-100,4,2,1,55,0,0
90604,-100,4,2,1,60,0,0
91975,-100,4,2,1,65,0,0
93004,-100,4,2,1,70,0,0
98490,-100,4,2,2,100,0,0
98832,-100,4,2,1,85,0,1
100204,-100,4,2,1,85,0,0
101575,-100,4,2,1,85,0,1
102947,-100,4,2,1,85,0,0
104318,-100,4,2,1,85,0,1
105690,-100,4,2,1,85,0,0
107061,-100,4,1,3,85,0,1
108090,-100,4,2,1,85,0,1
108347,-100,4,2,1,85,0,0
108432,-100,4,2,1,85,0,1
116661,-100,4,2,1,85,0,0
119061,-100,4,2,1,5,0,0

[Colours]
Combo1 : 128,128,128
Combo2 : 128,255,255
Combo3 : 128,255,128
Combo4 : 255,128,255
Combo5 : 255,255,128
Combo6 : 192,192,192

[HitObjects]
40,344,2832,6,0,P|120:304|204:336,1,180,4|0,1:0|1:0,0:0:0:0:
340,220,4204,2,0,P|257:248|179:208,1,180,4|0,1:0|1:0,0:0:0:0:
76,60,5575,6,0,L|255:67,1,180,6|2,1:0|1:0,0:0:0:0:
432,36,6947,2,0,P|420:76|424:124,1,89.9999999999999,6|2,1:0|1:0,0:0:0:0:
484,192,7632,2,0,P|496:232|492:280,1,89.9999999999999,2|2,1:0|1:0,0:0:0:0:
456,364,8318,6,0,B|420:332|372:328|372:328|344:360|292:360,1,180,6|2,1:0|1:0,0:0:0:0:
256,276,9347,1,2,1:0:0:0:
202,350,9690,2,0,P|158:358|106:338,1,89.9999999999999,6|2,1:0|1:0,0:0:0:0:
57,275,10375,2,0,P|36:236|36:192,1,89.9999999999999,2|2,1:0|1:0,0:0:0:0:
83,115,11061,6,0,B|124:76|124:76|192:56|256:84,1,180,6|2,1:0|1:0,0:0:0:0:
256,168,12090,1,2,1:0:0:0:
327,113,12432,2,0,P|368:124|416:112,1,89.9999999999999,6|2,1:0|1:2,0:0:0:0:
496,148,13118,2,0,P|485:191|496:234,1,89.9999999999999,4|2,1:0|0:0,0:0:0:0:
476,324,13804,38,0,P|390:304|312:346,1,180,4|0,1:0|1:0,0:0:0:0:
256,276,14832,1,8,1:0:0:0:
336,236,15175,2,0,L|328:132,2,89.9999999999999,0|8|0,1:0|1:0|1:0,0:0:0:0:
410,285,16204,1,8,1:0:0:0:
490,244,16547,6,0,P|512:160|480:76,1,180,4|0,1:0|1:0,0:0:0:0:
396,108,17575,1,8,1:0:0:0:
344,36,17918,2,0,P|296:28|248:48,2,89.9999999999999,0|8|2,1:0|1:0|1:0,0:0:0:0:
306,117,18947,1,8,1:0:0:0:
356,192,19290,6,0,P|368:240|356:284,1,89.9999999999999,4|8,1:0|1:0,0:0:0:0:
420,344,19975,2,0,P|341:304|256:326,1,180,4|4,1:0|1:0,0:0:0:0:
184,380,21004,1,8,1:0:0:0:
176,292,21347,2,0,L|184:112,1,180,4|4,1:0|1:0,0:0:0:0:
256,56,22375,5,8,1:0:0:0:
332,108,22718,2,0,P|376:124|424:116,1,89.9999999999999,6|8,1:0|1:0,0:0:0:0:
468,192,23404,2,0,B|432:272|344:292|344:292|352:224|292:188,1,270,4|14,1:0|1:0,0:0:0:0:
256,272,24775,6,0,P|212:304|176:212,1,180,4|12,1:0|1:1,0:0:0:0:
36,96,26147,22,0,P|80:100|136:84,1,89.9999999999999,4|8,0:0|0:0,0:0:0:0:
199,40,26832,2,0,P|243:36|287:46,1,89.9999999999999,8|4,0:0|0:3,0:0:0:0:
325,128,27518,2,0,P|407:96|494:115,1,180,4|4,1:0|2:1,0:0:0:0:
416,279,28890,6,0,P|356:284|292:232,1,135,4|4,0:0|0:0,0:0:0:0:
228,184,29747,2,0,P|215:141|226:97,1,89.9999999999999,8|8,0:0|0:0,0:0:0:0:
296,40,30432,2,0,L|388:44,1,89.9999999999999,4|4,0:3|0:0,0:0:0:0:
452,104,31118,1,8,0:0:0:0:
416,236,31632,54,0,P|332:222|320:139,1,180,4|8,0:1|0:1,0:0:0:0:
172,36,33004,38,0,P|191:76|189:120,1,89.9999999999999,4|0,0:0|0:0,0:0:0:0:
136,192,33690,2,0,P|116:232|118:276,1,89.9999999999999,8|0,0:0|0:0,0:0:0:0:
48,332,34375,2,0,P|136:316|223:351,1,180,0|8,0:0|0:0,0:0:0:0:
396,324,35747,6,0,L|388:189,1,135,4|4,0:0|0:0,0:0:0:0:
480,192,36604,2,0,P|468:140|424:108,1,89.9999999999999,8|8,0:0|0:0,0:0:0:0:
345,108,37290,2,0,P|305:144|300:198,1,89.9999999999999,8|8,0:0|0:0,0:0:0:0:
336,260,37975,1,4,0:0:0:0:
255,367,38490,6,0,P|187:315|106:345,1,180,4|8,1:0|0:0,0:0:0:0:
8,192,39861,22,0,L|104:200,1,89.9999999999999,4|0,0:0|0:0,0:0:0:0:
164,140,40547,2,0,L|253:132,1,89.9999999999999,8|0,0:0|0:0,0:0:0:0:
324,192,41232,2,0,B|388:200|388:200|440:188|440:188|501:194,1,180,0|12,0:0|0:1,0:0:0:0:
452,368,42604,5,4,2:1:0:0:
452,368,46718,6,0,P|369:336|276:352,2,180,4|4|4,1:0|0:1|0:1,0:0:0:0:
412,192,48775,2,0,P|403:147|406:103,1,89.9999999999999,4|4,0:1|0:1,0:0:0:0:
344,40,49461,6,0,B|272:32|272:32|236:48|236:48|152:40,2,180,4|4|4,0:1|0:1|0:1,0:0:0:0:
488,148,51518,2,0,P|490:192|482:236,1,89.9999999999999,4|12,0:1|0:1,0:0:0:0:
396,256,52204,38,0,L|404:352,2,89.9999999999999,4|4|4,1:0|0:1|1:0,0:0:0:0:
332,192,53232,1,4,0:1:0:0:
245,216,53575,2,0,L|237:126,2,89.9999999999999,4|4|4,1:0|0:1|1:0,0:0:0:0:
181,280,54604,1,4,0:1:0:0:
93,256,54947,6,0,P|59:177|102:101,1,180,4|4,0:1|0:1,0:0:0:0:
164,36,55975,1,4,0:1:0:0:
191,122,56318,6,0,L|379:114,1,180,4|2,1:0|1:0,0:0:0:0:
424,288,57690,38,0,P|342:252|255:268,1,180,6|10,1:0|1:0,0:0:0:0:
196,336,58718,1,2,0:1:0:0:
166,250,59061,2,0,B|178:186|178:186|158:142|158:142|167:76,1,180,4|8,1:0|1:0,0:0:0:0:
344,39,60432,6,0,P|430:47|475:121,1,180,6|6,1:0|1:0,0:0:0:0:
509,204,61461,1,2,0:1:0:0:
420,192,61804,2,0,B|380:160|328:160|328:160|296:192|257:191,1,180,4|8,1:0|1:0,0:0:0:0:
92,268,63175,6,0,P|177:257|232:328,1,180,6|6,1:0|1:0,0:0:0:0:
144,340,64204,1,2,0:1:0:0:
56,356,64547,2,0,B|72:312|56:268|56:268|40:224|68:176,1,180,4|12,1:0|0:1,0:0:0:0:
236,120,65918,6,0,P|280:128|324:120,1,89.9999999999999,4|4,1:0|0:1,0:0:0:0:
400,172,66604,2,0,P|429:137|444:96,1,89.9999999999999,8|14,1:0|1:0,0:0:0:0:
480,12,67290,38,0,L|488:200,1,180,4|4,0:1|0:1,0:0:0:0:
512,278,68318,1,8,0:1:0:0:
426,256,68661,2,0,P|384:256|332:276,1,89.9999999999999,4|8,0:1|0:1,0:0:0:0:
296,352,69347,2,0,P|254:352|202:332,1,89.9999999999999,4|8,0:1|0:1,0:0:0:0:
120,352,70032,6,0,B|136:284|136:284|100:228|134:177,1,180,4|4,0:1|0:1,0:0:0:0:
208,228,71061,1,8,0:1:0:0:
256,152,71404,2,0,P|299:160|344:152,1,89.9999999999999,4|8,0:1|0:1,0:0:0:0:
340,60,72090,2,0,P|295:51|251:59,1,89.9999999999999,4|8,0:1|0:1,0:0:0:0:
176,108,72775,6,0,P|136:128|36:40,2,180,4|4|4,0:1|0:1|0:1,0:0:0:0:
356,100,74832,6,0,L|348:189,1,89.9999999999999,4|8,0:1|0:1,0:0:0:0:
268,232,75518,2,0,L|276:328,1,89.9999999999999,4|8,0:1|0:1,0:0:0:0:
188,348,76204,2,0,P|144:336|88:344,1,89.9999999999999,4|8,0:1|0:1,0:0:0:0:
32,280,76890,38,0,L|43:100,2,180,4|4|4,0:1|0:1|0:1,0:0:0:0:
212,284,78947,6,0,P|256:286|299:274,1,89.9999999999999,4|8,0:1|0:1,0:0:0:0:
380,236,79632,2,0,P|367:192|370:148,1,89.9999999999999,4|8,0:1|0:1,0:0:0:0:
436,88,80318,2,0,L|256:95,1,180,6|4,0:1|0:1,0:0:0:0:
188,36,81347,5,8,0:1:0:0:
120,96,81690,2,0,P|80:108|32:104,1,89.9999999999999,4|8,0:1|0:1,0:0:0:0:
8,192,82375,6,0,P|68:256|52:352,1,180,4|8,0:1|0:1,0:0:0:0:
240,348,83747,2,0,L|424:340,1,180,4|8,0:1|0:1,0:0:0:0:
476,168,85118,37,4,0:1:0:0:
408,108,85461,1,8,0:1:0:0:
322,136,85804,2,0,P|272:140|228:124,1,89.9999999999999,4|8,0:1|0:1,0:0:0:0:
160,84,86490,6,0,P|120:72|108:232,1,270,4|6,0:1|0:0,0:0:0:0:
151,296,87861,6,0,P|232:260|324:284,2,180,4|4|4,0:1|0:1|0:1,0:0:0:0:
4,192,89918,2,0,L|12:100,1,89.9999999999999,4|4,0:1|0:1,0:0:0:0:
92,60,90604,6,0,B|204:36|204:36|236:60|264:60,2,180,4|4|4,0:1|0:1|0:1,0:0:0:0:
216,192,92661,2,0,L|223:281,1,89.9999999999999,4|12,0:1|0:1,0:0:0:0:
296,336,93347,38,0,P|344:344|396:340,2,89.9999999999999,4|4|4,1:0|0:1|1:0,0:0:0:0:
306,246,94375,1,4,0:1:0:0:
233,192,94718,2,0,P|188:190|143:197,2,89.9999999999999,4|4|4,1:0|0:1|1:0,0:0:0:0:
317,156,95747,1,4,0:1:0:0:
327,65,96090,38,0,P|388:100|392:208,1,180,4|4,0:1|0:1,0:0:0:0:
336,268,97118,1,4,0:1:0:0:
364,353,97461,1,4,1:0:0:0:
96,320,98490,1,12,0:1:0:0:
35,255,98832,6,0,P|12:170|31:83,1,180,6|2,1:0|1:0,0:0:0:0:
108,132,99861,1,10,1:1:0:0:
112,44,100204,2,0,P|156:52|208:48,1,89.9999999999999,4|12,0:1|0:1,0:0:0:0:
288,32,100890,1,6,1:0:0:0:
347,99,101232,1,8,1:0:0:0:
434,81,101575,6,0,B|428:156|428:156|440:188|440:188|432:264,1,180,6|2,1:0|1:0,0:0:0:0:
424,348,102604,1,10,1:0:0:0:
352,292,102947,2,0,P|308:284|256:284,1,89.9999999999999,4|12,0:1|0:1,0:0:0:0:
188,336,103632,2,0,P|143:344|98:344,1,89.9999999999999,6|8,1:0|1:0,0:0:0:0:
44,272,104318,6,0,B|80:152|80:152|116:192,1,180,6|2,1:0|1:0,0:0:0:0:
184,252,105347,1,10,1:0:0:0:
204,164,105690,38,0,B|280:112|360:144|360:144|380:204|452:200,1,270,4|4,0:1|0:1,0:0:0:0:
480,280,107061,6,0,P|357:237|252:312,1,270,6|10,1:0|1:0,0:0:0:0:
184,252,108432,5,6,1:0:0:0:
168,340,108775,2,0,P|112:304|120:188,1,180,8|8,1:0|0:1,0:0:0:0:
192,156,109804,1,6,1:0:0:0:
256,220,110147,2,0,P|343:243|431:215,1,180,8|8,1:0|1:0,0:0:0:0:
472,140,111175,53,6,1:0:0:0:
380,140,111518,2,0,L|388:32,2,89.9999999999999,8|12|8,1:0|1:0|0:1,0:0:0:0:
334,219,112547,1,6,1:0:0:0:
288,139,112890,2,0,P|202:114|117:138,1,180,8|8,1:0|1:0,0:0:0:0:
76,216,113918,37,6,1:0:0:0:
166,215,114261,2,0,L|158:27,1,180,8|8,1:0|1:0,0:0:0:0:
248,48,115290,2,0,P|336:37|419:69,2,180,14|14|4,1:0|1:0|1:0,0:0:0:0:
200,124,117004,1,4,0:1:0:0:
256,192,117347,12,0,119061,0:0:0:0:
