osu file format v14

[General]
AudioFilename: audio.mp3
AudioLeadIn: 0
PreviewTime: 67290
Countdown: 0
SampleSet: Soft
StackLeniency: 0.7
Mode: 0
LetterboxInBreaks: 0
EpilepsyWarning: 1
WidescreenStoryboard: 1

[Editor]
Bookmarks: 2832,8318,13804,19290,24775,31632,38490,42604,46718,52204,57690,74832,82375,87861,93347,116661
DistanceSpacing: 1
BeatDivisor: 4
GridSize: 4
TimelineZoom: 1.5

[Metadata]
Title:Avalanche
TitleUnicode:Avalanche
Artist:Memme
ArtistUnicode:Memme
Creator:Starfy
Version:Normal
Source:Pump it up Prime
Tags:starforyou aabc271 iloveyou4ever nardoxyribonucleic classic drumstep Andamiro PIU Antonio Vivaldi The Four Seasons Winter
BeatmapID:1321681
BeatmapSetID:611095

[Difficulty]
HPDrainRate:4
CircleSize:3.5
OverallDifficulty:4
ApproachRate:5
SliderMultiplier:1.1
SliderTickRate:1

[Events]
//Background and Video events
0,0,"BG.jpg",0,0
//Break Periods
2,42804,45518
//Storyboard Layer 0 (Background)
//Storyboard Layer 1 (Fail)
//Storyboard Layer 2 (Pass)
//Storyboard Layer 3 (Foreground)
//Storyboard Sound Samples

[TimingPoints]
90,342.857142857143,4,2,1,40,1,0
8318,-100,4,2,1,60,0,0
18604,-100,4,2,50,60,0,0
18775,-100,4,2,1,60,0,0
19975,-100,4,2,1,65,0,0
20661,-100,4,2,1,70,0,0
21347,-100,4,2,1,75,0,0
22032,-100,4,2,1,80,0,0
22718,-100,4,2,50,85,0,0
22890,-100,4,2,1,85,0,0
24432,-100,4,2,2,100,0,0
24775,-100,4,2,1,70,0,0
25461,-100,4,1,3,70,0,1
27518,-100,4,1,1,70,0,0
28890,-100,4,1,3,70,0,0
31290,-100,4,2,1,70,0,0
32318,-100,4,1,3,70,0,1
34375,-100,4,1,1,70,0,0
35747,-100,4,1,3,70,0,0
37975,-100,4,2,1,70,0,0
39175,-100,4,1,3,70,0,1
41232,-100,4,1,3,70,0,0
41918,-100,4,1,3,70,0,1
42604,-100,4,1,70,80,0,0
46718,-100,4,2,1,50,0,0
48090,-100,4,2,1,55,0,0
49461,-100,4,2,1,60,0,0
50832,-100,4,2,1,70,0,0
57004,-100,4,2,99,100,0,0
57690,-100,4,2,1,80,0,1
59061,-100,4,2,1,80,0,0
60432,-100,4,2,1,80,0,1
61804,-100,4,2,1,80,0,0
62490,-100,4,2,1,80,0,0
63175,-100,4,2,1,80,0,1
64547,-100,4,2,1,80,0,0
65232,-100,4,2,1,80,0,0
65918,-100,4,2,1,80,0,0
66947,-100,4,2,2,100,0,0
67290,-100,4,2,80,80,0,1
67375,-100,4,2,1,80,0,1
68661,-100,4,2,81,80,0,1
68747,-100,4,2,1,80,0,1
70032,-100,4,2,82,80,0,1
70118,-100,4,2,1,80,0,1
71404,-100,4,2,81,80,0,1
71490,-100,4,2,1,80,0,1
72775,-100,4,2,83,80,0,1
73290,-100,4,2,1,80,0,1
73461,-100,4,2,84,80,0,1
73975,-100,4,2,1,80,0,1
74147,-100,4,2,80,80,0,1
74232,-100,4,2,1,80,0,1
75518,-100,4,2,80,80,0,1
75604,-100,4,2,1,80,0,1
76890,-100,4,2,83,80,0,1
76975,-100,4,2,1,80,0,1
77575,-100,4,2,84,80,0,1
77661,-100,4,2,1,80,0,1
78261,-100,4,2,85,80,0,1
78347,-100,4,2,1,80,0,1
78947,-100,4,2,83,80,0,1
79032,-100,4,2,1,80,0,1
79632,-100,4,2,85,80,0,1
79718,-100,4,2,1,80,0,1
80318,-100,4,2,86,80,0,1
80404,-100,4,2,1,80,0,1
81004,-100,4,2,87,80,0,1
81090,-100,4,2,1,80,0,1
82375,-100,4,2,1,80,0,0
87518,-100,4,2,1,80,0,0
87861,-100,4,2,1,50,0,0
89232,-100,4,2,1,55,0,0
90604,-100,4,2,1,60,0,0
91975,-100,4,2,1,65,0,0
93004,-100,4,2,1,70,0,0
98490,-100,4,2,2,100,0,0
98832,-100,4,2,1,85,0,1
100204,-100,4,2,1,85,0,0
101575,-100,4,2,1,85,0,1
102947,-100,4,2,1,85,0,0
104318,-100,4,2,1,85,0,1
105690,-100,4,2,1,85,0,0
107061,-100,4,1,3,85,0,1
108090,-100,4,2,1,85,0,1
108347,-100,4,2,1,85,0,0
108432,-100,4,2,1,85,0,1
116661,-100,4,2,1,85,0,0
119061,-100,4,2,1,5,0,0

[Colours]
Combo1 : 128,128,128
Combo2 : 128,255,255
Combo3 : 128,255,128
Combo4 : 255,128,255
Combo5 : 255,255,128
Combo6 : 192,192,192

[HitObjects]
480,224,2832,6,0,P|412:253|312:237,1,165,4|2,1:0|0:0,0:0:0:0:
284,204,3518,2,0,L|288:92,1,110,0|12,1:0|0:3,0:0:0:0:
192,148,4204,6,0,L|196:320,1,165,4|2,1:0|0:0,0:0:0:0:
148,340,4890,2,0,P|94:352|41:340,1,110,0|4,1:0|0:3,0:0:0:0:
36,232,5575,6,0,L|40:116,1,110,6|4,1:0|0:3,0:0:0:0:
76,80,6090,1,2,0:0:0:0:
129,62,6261,2,0,P|183:53|237:63,1,110,2|4,1:0|0:3,0:0:0:0:
312,144,6947,6,0,P|320:198|310:252,1,110,6|2,1:0|1:0,0:0:0:0:
201,252,7632,2,0,P|191:198|200:144,1,110,2|2,1:0|1:0,0:0:0:0:
256,48,8318,38,0,L|432:52,1,165,6|0,1:0|0:0,0:0:0:0:
462,88,9004,2,0,P|477:139|465:193,1,110,2|2,1:0|1:0,0:0:0:0:
511,291,9690,6,0,P|436:280|356:320,1,165,6|0,1:0|0:0,0:0:0:0:
332,364,10375,2,0,L|220:360,1,110,2|2,1:0|1:0,0:0:0:0:
112,344,11061,6,0,P|92:265|127:192,1,165,6|0,1:0|0:0,0:0:0:0:
184,192,11747,2,0,L|180:76,1,110,2|2,1:0|1:0,0:0:0:0:
284,48,12432,6,0,P|387:15|488:53,1,220,6|4,1:0|1:0,0:0:0:0:
440,152,13461,1,2,0:0:0:0:
501,244,13804,38,0,P|512:297|497:349,1,110,4|8,1:0|1:0,0:0:0:0:
448,372,14318,1,0,0:0:0:0:
404,342,14490,2,0,L|292:346,1,110,0|8,1:0|1:0,0:0:0:0:
188,372,15175,6,0,L|76:368,1,110,0|8,1:0|1:0,0:0:0:0:
36,332,15690,1,0,0:0:0:0:
24,279,15861,2,0,P|15:225|30:172,1,110,0|8,1:0|1:0,0:0:0:0:
116,104,16547,6,0,P|168:89|222:98,1,110,4|8,1:0|1:0,0:0:0:0:
268,128,17061,1,0,0:0:0:0:
288,180,17232,2,0,L|284:292,1,110,0|8,1:0|1:0,0:0:0:0:
196,356,17918,6,0,L|192:244,1,110,0|8,1:0|1:0,0:0:0:0:
164,196,18432,1,0,0:0:0:0:
111,172,18604,2,0,P|58:160|6:174,1,110,2|8,1:0|1:0,0:0:0:0:
6,286,19290,38,0,P|60:298|112:284,1,110,4|8,1:0|1:0,0:0:0:0:
196,212,19975,1,4,1:0:0:0:
217,321,20318,2,0,L|277:325,1,55,8|0,1:0|0:0,0:0:0:0:
316,358,20661,6,0,L|425:350,1,110,4|8,1:0|1:0,0:0:0:0:
476,252,21347,1,4,1:0:0:0:
398,174,21690,2,0,P|390:147|393:120,1,55,8|0,1:0|0:0,0:0:0:0:
364,74,22032,6,0,P|310:85|255:83,1,110,4|8,1:0|1:0,0:0:0:0:
156,36,22718,1,6,1:0:0:0:
164,146,23061,2,0,L|160:210,1,55,8|0,1:0|1:0,0:0:0:0:
120,238,23404,6,0,L|127:347,1,110,4|8,1:0|1:0,0:0:0:0:
238,348,24090,2,0,L|245:238,1,110,4|14,1:0|1:0,0:0:0:0:
200,136,24775,6,0,B|252:84|320:96|320:96|340:144|400:140,1,220,4|12,1:0|1:1,0:0:0:0:
488,192,25804,22,0,P|480:216|484:256,1,55,0|4,0:0|0:0,0:0:0:0:
492,300,26147,2,0,P|412:288|332:336,1,165,4|4,0:0|0:0,0:0:0:0:
309,372,26832,2,0,P|255:359|200:364,1,110,8|4,0:0|0:3,0:0:0:0:
124,284,27518,6,0,P|106:262|99:236,1,55,4|4,1:0|0:0,0:0:0:0:
68,192,27861,2,0,P|66:164|76:139,1,55,8|4,0:0|0:0,0:0:0:0:
76,84,28204,2,0,L|200:88,1,110,4|0,2:1|0:0,0:0:0:0:
281,32,28890,6,0,P|296:88|280:144,1,110,4|8,0:0|0:0,0:0:0:0:
235,162,29404,1,4,0:0:0:0:
172,252,29747,2,0,L|176:312,1,55,8|4,0:0|0:0,0:0:0:0:
146,354,30090,6,0,L|255:357,1,110,8|4,0:0|0:3,0:0:0:0:
310,359,30604,1,8,0:0:0:0:
364,361,30775,2,0,P|372:307|354:255,1,110,4|8,0:0|0:0,0:0:0:0:
316,216,31290,1,4,0:0:0:0:
216,169,31632,22,0,B|163:144|180:76|180:76|251:62|275:113,1,220,4|8,0:1|0:1,0:0:0:0:
316,216,32661,6,0,L|312:276,1,55,0|4,0:0|0:0,0:0:0:0:
320,326,33004,2,0,B|256:282|256:282|184:266|112:322,1,220,4|8,0:0|0:0,0:0:0:0:
36,384,34032,1,0,0:0:0:0:
20,276,34375,6,0,L|24:156,1,110,4|0,1:0|0:0,0:0:0:0:
48,116,34890,1,4,0:0:0:0:
97,90,35061,2,0,P|123:82|150:84,1,55,8|4,0:0|0:0,0:0:0:0:
199,110,35404,2,0,P|225:117|252:115,1,55,8|0,0:0|0:0,0:0:0:0:
302,90,35747,6,0,L|434:94,1,110,4|12,0:0|0:0,0:0:0:0:
467,96,36261,1,4,0:0:0:0:
416,192,36604,2,0,L|420:256,1,55,8|4,0:0|0:0,0:0:0:0:
400,298,36947,6,0,P|346:310|294:296,1,110,8|4,0:0|0:0,0:0:0:0:
252,260,37461,1,8,0:0:0:0:
240,207,37632,2,0,L|244:96,1,110,8|4,0:0|0:0,0:0:0:0:
80,104,38490,6,0,B|64:156|28:192|28:192|64:228|78:295,1,220,4|8,1:0|0:0,0:0:0:0:
176,348,39518,22,0,P|208:340|236:340,1,55,0|4,0:0|0:0,0:0:0:0:
256,292,39861,2,0,L|368:296,1,110,4|0,0:0|0:0,0:0:0:0:
404,256,40375,1,4,0:0:0:0:
417,202,40547,2,0,P|427:149|416:96,1,110,8|0,0:0|0:0,0:0:0:0:
321,37,41232,6,0,B|281:69|217:57|217:57|177:5|97:25,1,220,4|12,1:0|0:1,0:0:0:0:
256,192,42604,1,4,2:1:0:0:
256,192,46718,6,0,B|312:200|340:180|340:180|372:196|376:232|376:232|412:224|442:234,1,220,4|4,1:0|0:1,0:0:0:0:
408,340,47747,1,4,0:1:0:0:
302,303,48090,6,0,B|256:268|200:288|200:288|152:336|99:309,1,220,4|4,0:1|0:1,0:0:0:0:
36,220,49118,1,4,0:1:0:0:
101,132,49461,38,0,B|189:124|189:124|221:152|221:152|309:144,1,220,4|4,0:1|0:1,0:0:0:0:
392,68,50490,1,4,0:1:0:0:
499,102,50832,6,0,B|475:142|499:186|499:186|483:218|483:218|507:266|484:310,1,220,4|4,0:1|0:1,0:0:0:0:
380,348,51861,1,12,0:1:0:0:
296,280,52204,6,0,P|218:255|143:285,1,165,4|4,1:0|0:1,0:0:0:0:
88,296,52890,2,0,P|76:242|93:191,1,110,4|4,1:0|0:1,0:0:0:0:
106,82,53575,6,0,P|175:123|255:111,1,165,4|4,1:0|0:1,0:0:0:0:
306,88,54261,2,0,P|360:80|414:89,1,110,4|4,1:0|0:1,0:0:0:0:
486,172,54947,38,0,B|474:220|414:224|414:224|370:176|298:192,1,220,4|4,0:1|0:1,0:0:0:0:
256,292,55975,1,4,0:1:0:0:
192,203,56318,5,4,1:0:0:0:
148,168,56490,2,0,L|152:52,1,110,6|6,1:0|1:0,0:0:0:0:
154,3,57004,5,2,1:0:0:0:
256,44,57347,1,2,1:0:0:0:
362,17,57690,54,0,L|476:24,1,110,6|2,1:0|0:1,0:0:0:0:
512,126,58375,2,0,L|398:119,1,110,10|2,1:0|0:1,0:0:0:0:
319,192,59061,2,0,P|303:290|400:312,1,220,4|8,1:0|1:0,0:0:0:0:
443,277,59918,2,0,L|439:213,1,55,4|12,0:1|1:0,0:0:0:0:
402,119,60432,6,0,P|349:105|296:119,1,110,6|2,1:0|0:1,0:0:0:0:
216,192,61118,2,0,P|163:205|110:191,1,110,6|2,1:0|0:1,0:0:0:0:
30,119,61804,2,0,P|78:32|165:79,1,220,4|8,1:0|1:0,0:0:0:0:
308,244,63175,6,0,L|300:364,1,110,6|2,1:0|0:1,0:0:0:0:
207,295,63861,2,0,L|199:185,1,110,6|2,1:0|0:1,0:0:0:0:
168,80,64547,2,0,P|271:104|351:36,1,220,4|12,1:0|0:1,0:0:0:0:
460,228,65918,6,0,P|474:281|460:334,1,110,4|4,1:0|0:1,0:0:0:0:
412,360,66432,1,4,1:0:0:0:
358,354,66604,2,0,L|240:348,1,110,8|14,1:0|1:0,0:0:0:0:
172,269,67290,38,0,P|147:192|182:119,1,165,4|0,0:1|0:0,0:0:0:0:
200,68,67975,2,0,L|324:72,1,110,4|8,0:1|0:1,0:0:0:0:
356,40,68490,1,0,0:0:0:0:
406,65,68661,6,0,P|440:137|416:214,1,165,4|0,0:1|0:0,0:0:0:0:
428,268,69347,2,0,P|374:256|319:260,1,110,4|8,0:1|0:1,0:0:0:0:
272,288,69861,1,0,0:0:0:0:
256,340,70032,5,4,0:1:0:0:
152,304,70375,2,0,P|125:295|98:297,1,55,8|0,0:1|0:0,0:0:0:0:
84,244,70718,2,0,P|96:190|89:136,1,110,4|8,0:1|0:1,0:0:0:0:
68,88,71232,1,0,0:0:0:0:
92,36,71404,6,0,L|224:40,1,110,4|8,0:1|0:1,0:0:0:0:
256,136,72090,2,0,L|388:132,1,110,4|8,0:1|0:1,0:0:0:0:
452,64,72775,38,0,P|476:116|440:216,1,165,4|0,0:1|0:0,0:0:0:0:
488,244,73461,2,0,P|407:250|354:310,1,165,4|0,0:1|0:0,0:0:0:0:
328,360,74147,2,0,L|212:356,1,110,4|8,0:1|0:1,0:0:0:0:
128,288,74832,6,0,P|52:269|45:192,1,165,4|0,0:1|0:0,0:0:0:0:
84,154,75518,2,0,P|138:158|189:139,1,110,4|8,0:1|0:1,0:0:0:0:
232,104,76032,1,0,0:0:0:0:
245,51,76204,6,0,L|376:56,1,110,4|8,0:1|0:1,0:0:0:0:
452,108,76890,2,0,P|476:172|448:276,1,165,4|0,0:1|0:0,0:0:0:0:
412,300,77575,6,0,L|236:292,1,165,4|0,0:1|0:0,0:0:0:0:
194,276,78261,2,0,P|173:328|177:384,1,110,4|8,0:1|0:1,0:0:0:0:
84,320,78947,38,0,L|76:155,1,165,4|0,0:1|0:0,0:0:0:0:
118,120,79632,2,0,P|165:145|219:136,1,110,4|8,0:1|0:1,0:0:0:0:
272,120,80147,1,0,0:0:0:0:
304,76,80318,6,0,L|480:84,1,165,6|0,0:1|0:0,0:0:0:0:
495,131,81004,2,0,P|512:183|503:237,1,110,4|8,0:1|0:1,0:0:0:0:
475,285,81518,1,0,0:0:0:0:
425,308,81690,1,4,0:1:0:0:
328,260,82032,1,8,0:1:0:0:
256,338,82375,6,0,P|204:355|149:350,1,110,4|8,0:1|0:1,0:0:0:0:
100,324,82890,1,4,0:1:0:0:
75,274,83061,2,0,L|79:154,1,110,8|0,0:1|0:0,0:0:0:0:
148,80,83747,6,0,P|199:63|254:67,1,110,4|8,0:1|0:1,0:0:0:0:
303,94,84262,1,4,0:1:0:0:
329,144,84433,2,0,L|325:253,1,110,8|4,0:1|0:0,0:0:0:0:
416,316,85118,38,0,L|488:312,2,55,4|4|8,0:1|0:1|0:1,0:0:0:0:
424,206,85804,2,0,L|496:202,2,55,4|4|8,0:1|0:1|0:1,0:0:0:0:
432,96,86490,6,0,L|360:100,1,55,4|4,0:1|0:1,0:0:0:0:
346,144,86832,2,0,L|274:140,1,55,4|4,0:1|0:1,0:0:0:0:
260,95,87175,2,0,P|206:104|152:80,1,110,4|6,0:1|0:0,0:0:0:0:
132,192,87861,6,0,B|44:200|24:280|24:280|72:340,1,220,4|4,0:1|0:1,0:0:0:0:
170,296,88890,1,4,0:1:0:0:
255,365,89232,6,0,B|319:357|319:357|343:365|343:365|423:357|423:357|375:325,1,220,4|4,0:1|0:1,0:0:0:0:
296,260,90261,1,4,0:1:0:0:
399,221,90604,38,0,B|383:157|383:157|415:93|415:93|399:13,1,220,4|4,0:1|0:1,0:0:0:0:
312,80,91632,1,4,0:1:0:0:
210,39,91975,6,0,B|136:64|80:16|80:16|56:52|96:100,1,220,4|4,0:1|0:1,0:0:0:0:
176,160,93004,1,12,0:1:0:0:
73,201,93347,6,0,P|40:273|72:349,1,165,4|4,1:0|0:1,0:0:0:0:
125,359,94032,2,0,L|235:352,1,110,4|4,1:0|0:1,0:0:0:0:
288,256,94718,6,0,L|464:264,1,165,4|4,1:0|0:1,0:0:0:0:
480,216,95404,2,0,P|496:164|480:112,1,110,4|4,1:0|0:1,0:0:0:0:
384,64,96090,38,0,B|320:48|280:84|280:84|248:32|164:32,1,220,4|4,0:1|0:1,0:0:0:0:
190,144,97118,1,4,0:1:0:0:
192,255,97461,5,4,0:1:0:0:
456,56,98490,1,12,0:1:0:0:
402,151,98832,6,0,P|349:163|296:152,1,110,6|10,1:0|1:1,0:0:0:0:
242,56,99518,2,0,P|188:43|135:55,1,110,2|10,1:0|1:1,0:0:0:0:
82,151,100204,5,4,0:1:0:0:
139,246,100547,1,12,0:1:0:0:
85,342,100890,2,0,L|16:336,2,55,6|4|8,1:0|1:0|1:0,0:0:0:0:
196,341,101575,38,0,L|320:333,1,110,6|10,1:0|1:0,0:0:0:0:
333,226,102261,2,0,L|224:234,1,110,2|10,1:0|1:0,0:0:0:0:
196,127,102947,5,4,0:1:0:0:
275,50,103290,1,12,0:1:0:0:
381,79,103632,2,0,P|388:104|384:136,1,55,6|4,1:0|1:0,0:0:0:0:
368,186,103975,2,0,P|355:209|334:227,1,55,8|4,1:0|0:1,0:0:0:0:
283,251,104318,6,0,P|229:264|177:250,1,110,6|10,1:0|1:0,0:0:0:0:
176,140,105004,2,0,P|228:126|281:140,1,110,2|10,1:0|1:0,0:0:0:0:
378,196,105690,6,0,P|402:339|256:344,1,330,4|4,0:1|0:1,0:0:0:0:
276,236,107061,37,6,1:0:0:0:
172,274,107404,1,10,1:0:0:0:
87,202,107747,1,10,1:0:0:0:
106,92,108090,1,10,1:0:0:0:
210,55,108432,6,0,L|334:59,1,110,6|8,1:0|1:0,0:0:0:0:
368,88,108947,2,0,P|384:139|367:191,1,110,4|4,1:0|1:1,0:0:0:0:
324,224,109461,1,8,0:1:0:0:
256,312,109804,6,0,L|264:384,2,55,6|6|8,1:0|1:0|1:0,0:0:0:0:
224,268,110318,2,0,P|172:248|108:260,1,110,4|4,1:0|1:0,0:0:0:0:
68,276,110832,1,8,1:0:0:0:
32,172,111175,6,0,P|15:120|31:68,1,110,6|8,1:0|1:0,0:0:0:0:
72,32,111690,1,4,1:0:0:0:
128,35,111861,1,12,1:0:0:0:
224,92,112204,2,0,L|288:88,1,55,8|8,0:1|0:1,0:0:0:0:
288,34,112547,38,0,P|340:54|404:46,1,110,6|8,1:0|1:0,0:0:0:0:
447,40,113061,2,0,P|443:94|464:144,1,110,4|4,1:0|1:0,0:0:0:0:
490,193,113575,1,8,1:0:0:0:
424,280,113918,6,0,L|432:344,2,55,6|4|8,1:0|0:1|1:0,0:0:0:0:
397,230,114432,2,0,L|288:224,1,110,4|4,1:0|1:0,0:0:0:0:
232,216,114947,1,8,1:0:0:0:
136,160,115290,6,0,P|115:110|135:60,1,110,14|8,1:0|1:0,0:0:0:0:
182,32,115804,1,8,1:0:0:0:
236,45,115975,2,0,L|352:41,1,110,14|8,1:0|1:0,0:0:0:0:
392,142,116661,22,0,P|411:192|391:242,1,110,4|4,1:0|0:1,0:0:0:0:
256,192,117347,12,0,119061,0:0:0:0:
