osu file format v14

[General]
AudioFilename: audio.mp3
AudioLeadIn: 0
PreviewTime: 67290
Countdown: 0
SampleSet: Soft
StackLeniency: 0.7
Mode: 0
LetterboxInBreaks: 0
EpilepsyWarning: 1
WidescreenStoryboard: 1

[Editor]
Bookmarks: 2832,8318,13804,19290,24775,31632,38490,42604,46718,52204,57690,74832,82375,87861,93347,108432,112547,116661
DistanceSpacing: 1.2
BeatDivisor: 4
GridSize: 4
TimelineZoom: 4.799997

[Metadata]
Title:Avalanche
TitleUnicode:Avalanche
Artist:Memme
ArtistUnicode:Memme
Creator:Starfy
Version:Hard
Source:Pump it up Prime
Tags:starforyou aabc271 iloveyou4ever nardoxyribonucleic classic drumstep Andamiro PIU Antonio Vivaldi The Four Seasons Winter
BeatmapID:1301187
BeatmapSetID:611095

[Difficulty]
HPDrainRate:5
CircleSize:4
OverallDifficulty:6
ApproachRate:8
SliderMultiplier:1.4
SliderTickRate:1

[Events]
//Background and Video events
0,0,"BG.jpg",0,0
//Break Periods
2,42803,45968
//Storyboard Layer 0 (Background)
//Storyboard Layer 1 (Fail)
//Storyboard Layer 2 (Pass)
//Storyboard Layer 3 (Foreground)
//Storyboard Sound Samples

[TimingPoints]
90,342.857142857143,4,2,1,40,1,0
8318,-100,4,2,1,60,0,0
18604,-100,4,2,50,60,0,0
18775,-100,4,2,1,60,0,0
19975,-100,4,2,1,65,0,0
20661,-100,4,2,1,70,0,0
21347,-100,4,2,1,75,0,0
22032,-100,4,2,1,80,0,0
22718,-100,4,2,50,85,0,0
22890,-100,4,2,1,85,0,0
24432,-100,4,2,2,100,0,0
24775,-100,4,2,1,70,0,0
25461,-100,4,1,3,70,0,1
27518,-100,4,1,1,70,0,0
28890,-100,4,1,3,70,0,0
31290,-100,4,2,1,70,0,0
32318,-100,4,1,3,70,0,1
34375,-100,4,1,1,70,0,0
35747,-100,4,1,3,70,0,0
37975,-100,4,2,1,70,0,0
39175,-100,4,1,3,70,0,1
41232,-100,4,1,3,70,0,0
41918,-100,4,1,3,70,0,1
42604,-100,4,1,70,80,0,0
46718,-100,4,2,1,50,0,0
48090,-100,4,2,1,55,0,0
49461,-100,4,2,1,60,0,0
50832,-100,4,2,1,70,0,0
57004,-100,4,2,99,100,0,0
57690,-100,4,2,1,80,0,1
59061,-100,4,2,1,80,0,0
60432,-100,4,2,1,80,0,1
61804,-100,4,2,1,80,0,0
63175,-100,4,2,1,80,0,1
64547,-100,4,2,1,80,0,0
66947,-100,4,2,2,100,0,0
67290,-100,4,2,80,80,0,1
67375,-100,4,2,1,80,0,1
68661,-100,4,2,81,80,0,1
68747,-100,4,2,1,80,0,1
70032,-100,4,2,82,80,0,1
70118,-100,4,2,1,80,0,1
71404,-100,4,2,81,80,0,1
71490,-100,4,2,1,80,0,1
72775,-100,4,2,83,80,0,1
72861,-100,4,2,1,80,0,1
73461,-100,4,2,84,80,0,1
73547,-100,4,2,1,80,0,1
74147,-100,4,2,80,80,0,1
74232,-100,4,2,1,80,0,1
75518,-100,4,2,80,80,0,1
75604,-100,4,2,1,80,0,1
76890,-100,4,2,83,80,0,1
76975,-100,4,2,1,80,0,1
77575,-100,4,2,84,80,0,1
77661,-100,4,2,1,80,0,1
78261,-100,4,2,85,80,0,1
78347,-100,4,2,1,80,0,1
78947,-100,4,2,83,80,0,1
79032,-100,4,2,1,80,0,1
79632,-100,4,2,85,80,0,1
79718,-100,4,2,1,80,0,1
80318,-100,4,2,86,80,0,1
80404,-100,4,2,1,80,0,1
81004,-100,4,2,87,80,0,1
81090,-100,4,2,1,80,0,1
82375,-100,4,2,1,80,0,0
87861,-100,4,2,1,50,0,0
89232,-100,4,2,1,55,0,0
90604,-100,4,2,1,60,0,0
91975,-100,4,2,1,65,0,0
93004,-100,4,2,1,70,0,0
98490,-100,4,2,2,100,0,0
98832,-100,4,2,1,85,0,1
100204,-100,4,2,1,85,0,0
101575,-100,4,2,1,85,0,1
102947,-100,4,2,1,85,0,0
104318,-100,4,2,1,85,0,1
105690,-100,4,2,1,85,0,0
107061,-100,4,1,3,85,0,1
108090,-100,4,2,1,85,0,1
108347,-100,4,2,1,85,0,0
108432,-100,4,2,1,85,0,1
116661,-100,4,2,1,85,0,0
119061,-100,4,2,1,5,0,0

[Colours]
Combo1 : 128,128,128
Combo2 : 128,255,255
Combo3 : 128,255,128
Combo4 : 255,128,255
Combo5 : 255,255,128
Combo6 : 192,192,192

[HitObjects]
300,148,2832,6,0,P|350:136|402:142,2,105,4|0|2,1:0|0:0|0:0,0:0:0:0:
300,236,3518,2,0,P|312:286|306:338,2,105,0|0|2,1:0|0:0|0:0,0:0:0:0:
212,236,4204,6,0,P|162:248|110:242,2,105,4|0|2,1:0|0:0|0:0,0:0:0:0:
212,148,4890,2,0,P|200:98|206:46,2,105,0|0|2,1:0|0:0|0:0,0:0:0:0:
300,148,5575,6,0,P|350:160|402:154,1,105,6|0,1:0|0:0,0:0:0:0:
424,192,5918,2,0,P|428:228|416:272,1,70,4|2,0:3|0:0,0:0:0:0:
336,280,6261,2,0,L|343:384,2,105,2|0|2,1:0|0:0|0:0,0:0:0:0:
256,248,6947,6,0,P|220:252|168:240,1,70,6|0,1:0|0:0,0:0:0:0:
120,300,7290,2,0,P|99:271|86:239,1,70,2|0,1:0|0:0,0:0:0:0:
6,208,7632,2,0,P|19:175|41:148,1,70,2|0,1:0|0:0,0:0:0:0:
28,64,7975,2,0,P|62:59|97:65,1,70,2|0,1:0|0:0,0:0:0:0:
164,11,8317,38,0,P|196:56|200:108,1,105,6|0,1:0|0:0,0:0:0:0:
188,147,8661,2,0,P|222:143|255:155,1,70,2|0,1:0|0:0,0:0:0:0:
327,105,9004,2,0,L|459:101,2,105,2|0|0,1:0|0:0|0:0,0:0:0:0:
334,191,9690,6,0,P|302:235|298:287,1,105,6|0,1:0|0:0,0:0:0:0:
310,326,10032,2,0,P|275:321|242:333,1,70,2|0,1:0|0:0,0:0:0:0:
171,284,10375,2,0,L|39:280,2,105,2|0|0,1:0|0:0|0:0,0:0:0:0:
228,220,11061,6,0,L|224:100,1,105,6|0,1:0|0:0,0:0:0:0:
256,84,11404,2,0,P|289:76|324:79,1,70,2|0,1:0|0:0,0:0:0:0:
403,115,11747,2,0,P|452:96|512:104,2,105,2|0|0,1:0|0:0|0:0,0:0:0:0:
360,192,12432,6,0,L|364:232,3,35,6|2|0|2,1:0|1:0|1:0|1:0,0:0:0:0:
395,240,12775,2,0,L|388:309,1,70,2|2,1:2|1:2,0:0:0:0:
312,352,13118,2,0,B|248:336|248:336|168:352,1,140,4|2,1:0|0:0,0:0:0:0:
91,376,13632,1,4,1:0:0:0:
28,292,13804,38,0,P|3:227|28:163,1,140,4|8,1:0|1:0,0:0:0:0:
92,104,14318,1,0,0:0:0:0:
156,164,14490,2,0,L|320:160,1,140,0|8,1:0|1:0,0:0:0:0:
368,112,15004,1,0,0:0:0:0:
446,151,15175,6,0,P|470:215|445:279,1,140,0|8,1:0|1:0,0:0:0:0:
452,368,15690,1,0,0:0:0:0:
372,329,15861,2,0,P|302:320|233:328,1,140,0|8,1:0|1:0,0:0:0:0:
156,372,16375,1,0,0:0:0:0:
157,284,16547,6,0,L|152:140,1,140,4|8,1:0|1:0,0:0:0:0:
148,56,17061,1,0,0:0:0:0:
231,25,17232,2,0,P|297:7|364:25,1,140,0|8,1:0|1:0,0:0:0:0:
449,57,17747,1,0,0:0:0:0:
444,145,17918,6,0,L|440:285,1,140,0|8,1:0|1:0,0:0:0:0:
380,348,18432,1,0,0:0:0:0:
356,265,18604,2,0,P|289:247|222:265,1,140,2|8,1:0|1:0,0:0:0:0:
198,348,19118,1,0,0:0:0:0:
139,286,19290,38,0,L|136:216,1,70,4|0,1:0|0:0,0:0:0:0:
192,148,19632,1,8,1:0:0:0:
192,148,19804,1,0,0:0:0:0:
248,216,19975,2,0,L|245:286,1,70,4|0,1:0|0:0,0:0:0:0:
301,354,20318,1,8,1:0:0:0:
301,354,20490,1,0,0:0:0:0:
369,299,20661,6,0,L|439:302,1,70,4|0,1:0|0:0,0:0:0:0:
507,246,21004,1,8,1:0:0:0:
507,246,21175,1,0,0:0:0:0:
439,190,21347,2,0,L|369:193,1,70,4|0,1:0|0:0,0:0:0:0:
301,137,21690,1,8,1:0:0:0:
301,137,21861,1,0,0:0:0:0:
245,205,22032,6,0,L|248:275,1,70,4|0,1:0|0:0,0:0:0:0:
192,343,22375,1,8,1:0:0:0:
192,343,22547,1,0,0:0:0:0:
136,275,22718,2,0,L|139:205,1,70,6|0,1:0|0:0,0:0:0:0:
83,137,23060,1,8,1:0:0:0:
83,137,23232,1,0,1:0:0:0:
114,55,23404,6,0,L|166:59,3,35,4|0|0|0,1:0|1:0|1:0|1:0,0:0:0:0:
184,84,23747,2,0,L|236:80,3,35,8|0|4|0,1:0|1:0|1:0|1:0,0:0:0:0:
254,55,24090,2,0,L|306:59,3,35,4|0|0|0,1:0|1:0|1:0|1:0,0:0:0:0:
324,84,24432,2,0,L|414:77,1,70,14|0,1:0|0:0,0:0:0:0:
460,136,24775,6,0,B|487:222|411:274|411:274|395:250|407:225,1,210,4|0,1:0|0:0,0:0:0:0:
340,172,25461,22,0,P|272:156|204:172,1,140,12|0,1:1|0:0,0:0:0:0:
136,227,25975,1,4,0:0:0:0:
124,141,26147,2,0,P|140:109|136:69,1,70,4|0,0:0|0:1,0:0:0:0:
53,54,26490,2,0,P|37:85|39:120,1,70,8|4,0:0|0:0,0:0:0:0:
64,205,26832,2,0,L|57:344,1,140,8|4,0:0|0:3,0:0:0:0:
256,345,27518,6,0,L|249:205,1,140,4|8,1:0|0:0,0:0:0:0:
284,124,28032,1,4,0:0:0:0:
364,158,28204,2,0,P|414:175|466:169,2,105,4|4|0,2:1|2:1|0:0,0:0:0:0:
284,124,28890,6,0,P|216:107|149:125,1,140,4|8,0:0|0:0,0:0:0:0:
92,192,29404,2,0,P|75:259|93:326,1,140,4|8,0:0|0:0,0:0:0:0:
176,300,29918,1,4,0:0:0:0:
241,359,30090,6,0,L|400:352,1,140,8|4,0:0|0:3,0:0:0:0:
446,294,30604,1,8,0:0:0:0:
428,208,30775,2,0,P|444:141|428:73,1,140,4|8,0:0|0:0,0:0:0:0:
396,44,31204,1,8,0:0:0:0:
396,44,31290,2,0,L|316:48,1,70,4|0,0:0|0:0,0:0:0:0:
256,100,31632,22,0,B|208:68|144:76|144:76|116:120|56:116,1,210,4|0,0:1|0:0,0:0:0:0:
20,192,32318,6,0,P|-2:257|19:322,1,140,8|0,0:1|0:0,0:0:0:0:
92,372,32832,1,4,0:0:0:0:
171,334,33004,2,0,P|182:301|179:266,1,70,4|0,0:0|0:0,0:0:0:0:
224,192,33347,2,0,L|308:188,1,70,0|0,0:0|0:0,0:0:0:0:
340,116,33690,2,0,L|346:255,1,140,8|0,0:0|0:0,0:0:0:0:
496,384,34375,6,0,L|502:244,1,140,0|0,0:0|0:0,0:0:0:0:
448,176,34890,2,0,L|446:141,2,35,4|4|8,0:0|0:0|0:0,0:0:0:0:
367,208,35232,2,0,L|365:242,2,35,4|4|8,0:0|0:0|0:0,0:0:0:0:
286,176,35575,1,0,0:0:0:0:
204,208,35747,6,0,P|137:225|70:208,1,140,4|12,0:0|0:0,0:0:0:0:
71,121,36261,2,0,P|138:104|205:121,1,140,4|8,0:0|0:0,0:0:0:0:
279,165,36775,1,4,0:0:0:0:
314,245,36947,6,0,L|306:389,1,140,8|4,0:0|0:0,0:0:0:0:
232,336,37461,1,8,0:0:0:0:
154,377,37632,2,0,P|119:377|84:368,1,70,8|0,0:0|0:0,0:0:0:0:
52,288,37975,2,0,P|33:221|58:157,1,140,4|0,0:0|0:0,0:0:0:0:
132,112,38490,6,0,B|180:100|220:104|220:104|252:120|252:120|300:128|344:112,1,210,4|0,1:0|0:0,0:0:0:0:
420,88,39175,22,0,L|412:240,1,140,8|0,0:0|0:0,0:0:0:0:
476,288,39690,1,4,0:0:0:0:
393,313,39861,2,0,P|360:300|325:302,1,70,4|0,0:0|0:0,0:0:0:0:
242,327,40204,2,0,P|209:339|174:337,1,70,0|4,0:0|0:0,0:0:0:0:
91,313,40547,2,0,L|98:173,1,140,8|0,0:0|0:0,0:0:0:0:
256,100,41232,6,0,B|312:76|360:100|360:100|376:124|376:124|396:92|432:84|432:84|464:116|512:108,2,280,0|12|4,0:0|0:1|2:1,0:0:0:0:
256,32,46718,6,0,B|292:44|328:32|328:32|328:64|360:80|360:80|376:48|408:48|408:48|448:64|492:48,2,280,4|4|4,1:0|0:1|0:1,0:0:0:0:
256,32,48775,2,0,P|196:52|104:44,1,140,4|4,0:1|0:1,0:0:0:0:
24,148,49461,6,0,B|0:190|32:222|32:222|72:230|84:268|84:268|32:316|64:384,2,280,4|4|4,0:1|0:1|0:1,0:0:0:0:
24,148,51518,2,0,P|90:168|159:164,1,140,4|12,0:1|0:1,0:0:0:0:
256,24,52204,38,0,L|412:28,1,140,4|4,1:0|0:1,0:0:0:0:
480,32,52718,1,4,0:1:0:0:
435,103,52890,2,0,P|428:136|432:176,1,70,4|4,1:0|1:0,0:0:0:0:
476,242,53232,2,0,P|483:275|479:315,1,70,4|4,0:1|0:1,0:0:0:0:
435,381,53575,6,0,P|367:365|287:373,1,140,4|4,1:0|0:1,0:0:0:0:
224,320,54090,1,4,0:1:0:0:
144,360,54261,2,0,P|108:360|76:348,1,70,4|4,1:0|1:0,0:0:0:0:
13,284,54604,2,0,P|1:249|3:215,1,70,4|4,0:1|0:1,0:0:0:0:
44,135,54947,6,0,L|96:140,7,35,4|4|4|4|4|4|4|4,0:1|0:1|0:1|0:1|0:1|0:1|0:1|0:1,0:0:0:0:
116,116,55632,2,0,L|168:121,7,35,4|4|4|4|4|4|4|4,0:1|0:1|0:1|0:1|0:1|0:1|0:1|0:1,0:0:0:0:
188,97,56318,6,0,P|260:104|328:80,1,140,4|6,1:0|1:0,0:0:0:0:
452,192,57004,37,2,1:0:0:0:
444,276,57175,5,2,1:0:0:0:
361,294,57347,5,2,1:0:0:0:
318,221,57518,5,2,1:0:0:0:
374,157,57690,38,0,P|386:124|385:89,1,70,6|0,1:0|0:0,0:0:0:0:
320,32,58032,2,0,P|287:19|252:20,1,70,2|0,0:1|0:0,0:0:0:0:
197,85,58375,2,0,P|184:117|185:152,1,70,10|0,1:0|0:0,0:0:0:0:
250,209,58718,2,0,P|283:221|318:221,1,70,2|0,0:1|0:0,0:0:0:0:
361,294,59061,6,0,L|357:342,8,35,4|0|0|0|0|0|0|0|8,1:0|0:0|0:0|0:0|0:0|0:0|0:0|0:0|1:0,0:0:0:0:
402,220,59918,2,0,L|399:192,3,23.3333333333333,4|4|4|12,0:1|0:1|0:1|1:0,0:0:0:0:
256,296,60432,6,0,L|180:292,1,70,6|0,1:0|0:0,0:0:0:0:
128,225,60775,2,0,L|132:156,1,70,2|0,0:1|0:0,0:0:0:0:
198,97,61118,2,0,L|267:100,1,70,6|0,1:0|0:0,0:0:0:0:
325,167,61461,2,0,L|321:236,1,70,2|0,0:1|0:0,0:0:0:0:
256,296,61804,6,0,L|260:344,7,35,4|0|0|0|0|0|0|0,1:0|0:0|0:0|0:0|0:0|0:0|0:0|0:0,0:0:0:0:
220,352,62490,2,0,P|152:340|68:344,1,140,8|0,1:0|0:0,0:0:0:0:
48,172,63175,38,0,P|36:139|37:104,1,70,6|0,1:0|0:0,0:0:0:0:
92,36,63518,2,0,P|124:24|159:24,1,70,2|0,0:1|0:0,0:0:0:0:
227,79,63861,2,0,P|239:112|239:147,1,70,6|0,1:0|0:0,0:0:0:0:
184,215,64204,2,0,P|151:227|117:227,1,70,2|0,0:1|0:0,0:0:0:0:
48,172,64547,6,0,L|49:137,7,35,4|0|0|0|0|0|0|0,1:0|0:0|0:0|0:0|0:0|0:0|0:0|0:0,0:0:0:0:
32,98,65232,2,0,L|176:94,1,140,12|4,0:1|0:1,0:0:0:0:
315,191,65918,6,0,P|384:201|447:172,1,140,4|4,1:0|0:1,0:0:0:0:
468,88,66432,1,4,1:0:0:0:
468,88,66518,1,4,1:0:0:0:
468,88,66604,2,0,L|464:53,3,35,8|8|4|4,1:0|1:0|1:0|1:0,0:0:0:0:
424,36,66947,2,0,P|389:32|354:35,1,70,14|0,1:0|0:0,0:0:0:0:
280,80,67290,6,0,P|228:88|168:72,2,105,4|0|0,0:1|0:0|0:0,0:0:0:0:
356,122,67975,2,0,P|336:171|293:214,2,105,4|0|0,0:1|0:0|0:0,0:0:0:0:
430,77,68661,38,0,P|462:118|479:177,2,105,4|0|0,0:1|0:0|0:0,0:0:0:0:
355,35,69347,2,0,L|240:40,1,105,4|0,0:1|0:0,0:0:0:0:
216,68,69690,2,0,P|208:101|212:136,1,70,8|0,0:1|0:0,0:0:0:0:
144,192,70032,6,0,L|140:304,2,105,4|0|0,0:1|0:0|0:0,0:0:0:0:
227,223,70718,2,0,L|223:335,2,105,4|0|0,0:1|0:0|0:0,0:0:0:0:
310,254,71404,6,0,L|306:366,2,105,4|0|0,0:1|0:0|0:0,0:0:0:0:
393,285,72090,2,0,P|443:297|494:286,1,105,4|0,0:1|0:0,0:0:0:0:
512,247,72432,2,0,L|508:177,1,70,8|0,0:1|0:0,0:0:0:0:
464,100,72775,6,0,P|444:96|424:96,7,35,4|0|0|0|8|0|0|0,0:1|0:0|0:0|0:0|0:1|0:0|0:0|0:0,0:0:0:0:
390,116,73461,2,0,P|372:115|355:111,7,35,4|0|0|0|8|0|0|0,0:1|0:0|0:0|0:0|0:1|0:0|0:0|0:0,0:0:0:0:
316,91,74147,38,0,P|247:98|183:70,1,140,4|8,0:1|0:1,0:0:0:0:
132,136,74661,1,0,0:0:0:0:
132,136,74747,1,0,0:0:0:0:
132,136,74832,6,0,P|80:124|24:124,2,105,4|0|0,0:1|0:0|0:0,0:0:0:0:
215,149,75518,2,0,P|257:117|291:78,2,105,4|0|0,0:1|0:0|0:0,0:0:0:0:
163,214,76204,2,0,P|169:266|186:315,2,105,4|0|0,0:1|0:0|0:0,0:0:0:0:
246,227,76890,6,0,L|280:225,7,35,4|0|0|0|8|0|0|0,0:1|0:0|0:0|0:0|0:1|0:0|0:0|0:0,0:0:0:0:
316,252,77575,2,0,L|350:250,7,35,4|0|0|0|8|0|0|0,0:1|0:0|0:0|0:0|0:1|0:0|0:0|0:0,0:0:0:0:
386,277,78261,6,0,P|401:209|377:145,1,140,4|8,0:1|0:1,0:0:0:0:
296,112,78775,1,0,0:0:0:0:
296,112,78861,1,0,0:0:0:0:
296,112,78947,38,0,L|300:4,2,105,4|0|0,0:1|0:0|0:0,0:0:0:0:
227,167,79632,2,0,L|231:275,2,105,4|0|0,0:1|0:0|0:0,0:0:0:0:
145,134,80318,2,0,L|149:26,2,105,6|0|0,0:1|0:0|0:0,0:0:0:0:
76,188,81004,6,0,P|52:252|76:332,1,140,4|8,0:1|0:1,0:0:0:0:
240,368,81690,2,0,L|392:364,1,140,4|8,0:1|0:1,0:0:0:0:
464,384,82204,1,4,0:1:0:0:
509,311,82375,6,0,P|512:241|503:171,1,140,4|8,0:1|0:1,0:0:0:0:
459,100,82890,1,4,0:1:0:0:
419,174,83061,2,0,P|356:160|380:100,1,140,8|0,0:1|0:0,0:0:0:0:
414,27,83575,1,4,0:1:0:0:
459,100,83747,6,0,L|455:239,1,140,4|8,0:1|0:1,0:0:0:0:
500,313,84261,1,4,0:1:0:0:
415,316,84432,2,0,P|347:332|280:315,1,140,8|4,0:1|0:0,0:0:0:0:
160,192,85118,37,4,0:1:0:0:
220,128,85290,1,4,0:1:0:0:
220,128,85375,1,4,0:1:0:0:
220,128,85461,2,0,L|364:132,1,140,8|4,0:1|0:1,0:0:0:0:
386,216,85975,1,4,0:1:0:0:
386,216,86060,1,4,0:1:0:0:
386,216,86147,2,0,L|242:212,1,140,8|4,0:1|0:1,0:0:0:0:
160,192,86661,5,4,0:1:0:0:
100,257,86832,1,4,0:1:0:0:
126,342,87004,1,4,0:1:0:0:
212,361,87175,2,0,L|246:360,4,35,4|4|4|4|6,0:1|0:1|0:1|0:1|0:0,0:0:0:0:
368,280,87861,6,0,B|336:252|344:216|344:216|384:196|440:200|480:248|480:248|496:224|472:192,2,280,4|4|4,0:1|0:1|0:1,0:0:0:0:
368,280,89918,2,0,L|224:276,1,140,4|4,0:1|0:1,0:0:0:0:
88,252,90604,6,0,B|96:184|168:156|168:156|140:136|136:100|136:100|84:112|60:144,2,280,4|4|4,0:1|0:1|0:1,0:0:0:0:
88,252,92661,2,0,L|227:248,1,140,4|12,0:1|0:1,0:0:0:0:
387,192,93347,38,0,P|399:123|380:57,1,140,4|4,1:0|0:1,0:0:0:0:
296,40,93861,1,4,0:1:0:0:
240,105,94032,2,0,P|207:116|172:114,1,70,4|4,1:0|1:0,0:0:0:0:
116,49,94375,2,0,P|83:37|48:39,1,70,4|4,0:1|0:1,0:0:0:0:
0,112,94718,6,0,L|8:256,1,140,4|4,1:0|0:1,0:0:0:0:
52,324,95232,1,4,0:1:0:0:
92,249,95404,2,0,L|172:253,1,70,4|4,1:0|1:0,0:0:0:0:
202,328,95747,2,0,L|282:324,1,70,4|4,0:1|0:1,0:0:0:0:
312,249,96090,6,0,L|313:214,7,35,4|4|4|4|4|4|4|4,0:1|0:1|0:1|0:1|0:1|0:1|0:1|0:1,0:0:0:0:
350,192,96775,2,0,L|351:157,7,35,4|4|4|4|4|4|4|4,0:1|0:1|0:1|0:1|0:1|0:1|0:1|0:1,0:0:0:0:
388,135,97461,5,4,1:0:0:0:
388,135,98490,1,12,0:1:0:0:
256,239,98832,38,0,P|221:244|186:238,1,70,6|0,1:0|1:0,0:0:0:0:
112,192,99175,2,0,P|107:157|113:122,1,70,10|0,1:1|1:0,0:0:0:0:
159,47,99518,2,0,P|193:42|228:48,1,70,2|4,1:0|1:0,0:0:0:0:
304,94,99861,2,0,P|308:128|302:163,1,70,10|0,1:1|1:0,0:0:0:0:
256,239,100204,6,0,L|260:287,7,35,4|4|4|4|12|4|4|4,0:1|0:1|0:1|0:1|0:1|0:1|0:1|0:1,0:0:0:0:
244,316,100890,2,0,P|284:312|320:324,1,70,6|4,1:0|1:0,0:0:0:0:
388,364,101232,1,8,1:0:0:0:
388,364,101404,1,4,1:0:0:0:
464,322,101575,6,0,L|471:232,1,70,6|0,1:0|1:0,0:0:0:0:
426,175,101918,2,0,L|356:169,1,70,10|0,1:0|1:0,0:0:0:0:
281,212,102261,2,0,L|275:281,1,70,2|4,1:0|1:0,0:0:0:0:
318,358,102604,2,0,L|388:364,1,70,10|0,1:0|1:0,0:0:0:0:
464,322,102947,6,0,L|461:287,7,35,4|4|4|4|12|4|4|4,0:1|0:1|0:1|0:1|0:1|0:1|0:1|0:1,0:0:0:0:
432,256,103632,2,0,B|420:208|420:208|436:152,1,105,6|2,1:0|1:0,0:0:0:0:
407,120,103975,2,0,P|372:124|338:115,1,70,8|4,1:0|0:1,0:0:0:0:
256,88,104318,38,0,P|221:84|187:93,1,70,6|0,1:0|1:0,0:0:0:0:
159,176,104661,2,0,P|155:210|164:244,1,70,10|0,1:0|1:0,0:0:0:0:
248,272,105004,2,0,P|283:276|317:267,1,70,2|4,1:0|1:0,0:0:0:0:
344,183,105347,2,0,P|348:149|339:115,1,70,10|0,1:0|1:0,0:0:0:0:
256,88,105690,6,0,L|258:64,24,17.5,4|0|0|0|4|0|4|0|8|0|0|0|8|0|8|0|8|0|8|0|4|0|8|0|4,0:1|0:0|0:0|0:0|0:1|0:0|0:1|0:0|0:1|0:0|0:0|0:0|0:1|0:1|0:1|0:0|0:1|0:0|0:1|0:0|0:1|0:0|0:1|0:0|0:1,0:0:0:0:
256,256,107061,6,0,L|212:260,3,35,6|4|8|4,1:0|0:1|0:1|0:1,0:0:0:0:
188,232,107404,2,0,L|144:236,3,35,10|4|4|4,1:0|0:1|0:1|0:1,0:0:0:0:
120,208,107747,5,10,1:0:0:0:
97,235,107832,1,4,0:1:0:0:
90,269,107918,1,4,0:0:0:0:
101,302,108004,1,4,0:0:0:0:
127,325,108090,1,10,1:0:0:0:
268,384,108432,38,0,L|341:377,1,70,6|2,1:0|1:0,0:0:0:0:
400,316,108775,2,0,L|434:319,2,35,8|0|4,1:0|1:0|1:0,0:0:0:0:
339,255,109118,2,0,P|326:222|329:187,1,70,4|4,1:0|1:1,0:0:0:0:
390,126,109461,2,0,P|402:93|399:58,1,70,8|0,0:1|1:0,0:0:0:0:
323,17,109804,6,0,P|288:14|255:26,1,70,6|6,1:0|1:0,0:0:0:0:
181,72,110147,2,0,L|177:106,2,35,8|0|4,1:0|1:0|1:0,0:0:0:0:
105,30,110490,1,4,1:0:0:0:
30,74,110661,1,4,1:0:0:0:
31,160,110833,1,8,1:0:0:0:
107,203,111004,1,4,1:0:0:0:
182,158,111175,6,0,P|216:153|251:158,1,70,6|4,1:0|1:0,0:0:0:0:
292,176,111432,1,4,1:0:0:0:
309,217,111518,2,0,L|307:253,2,35,8|0|4,1:0|1:0|1:0,0:0:0:0:
384,172,111861,1,12,1:0:0:0:
460,214,112032,1,4,1:1:0:0:
461,301,112204,1,8,0:1:0:0:
387,346,112375,1,8,0:1:0:0:
311,304,112547,6,0,P|276:296|240:300,1,70,6|0,1:0|0:0,0:0:0:0:
164,336,112890,2,0,L|128:334,2,35,8|0|4,1:0|1:0|1:0,0:0:0:0:
172,250,113232,2,0,P|180:215|176:179,1,70,4|4,1:0|1:0,0:0:0:0:
105,131,113575,1,8,1:0:0:0:
256,56,113918,38,0,P|296:60|340:52,1,70,6|4,1:0|0:1,0:0:0:0:
392,112,114261,2,0,L|390:148,2,35,8|0|4,1:0|1:0|1:0,0:0:0:0:
473,82,114604,2,0,P|480:124|468:156,1,70,4|4,1:0|1:0,0:0:0:0:
430,222,114947,1,8,1:0:0:0:
470,297,115118,1,4,1:0:0:0:
424,360,115290,6,0,L|344:356,1,70,14|4,1:0|1:0,0:0:0:0:
319,331,115547,1,4,1:0:0:0:
319,331,115632,2,0,L|239:335,1,70,8|8,1:0|1:0,0:0:0:0:
196,264,115975,2,0,L|197:229,3,35,14|0|4|4,1:0|1:0|1:0|1:0,0:0:0:0:
163,203,116318,2,0,L|83:207,1,70,8|4,1:0|1:0,0:0:0:0:
35,139,116661,38,0,P|7:78|35:16,1,140,4|4,1:0|0:1,0:0:0:0:
256,192,117175,12,0,119061,0:0:0:0:
