osu file format v14

[General]
AudioFilename: audio.mp3
AudioLeadIn: 0
PreviewTime: 57738
Countdown: 0
SampleSet: Normal
StackLeniency: 0.6
Mode: 0
LetterboxInBreaks: 0
WidescreenStoryboard: 1

[Editor]
DistanceSpacing: 1.1
BeatDivisor: 4
GridSize: 4
TimelineZoom: 3.699998

[Metadata]
Title:Avalanche
TitleUnicode:Avalanche
Artist:Memme
ArtistUnicode:Memme
Creator:Kalindraz
Version:Normal.
Source:Pump It Up Prime
Tags:Classic Melodia Drumstep antonio vivaldi the four seasons winter
BeatmapID:1452745
BeatmapSetID:542317

[Difficulty]
HPDrainRate:3
CircleSize:2.5
OverallDifficulty:4
ApproachRate:5
SliderMultiplier:1.3
SliderTickRate:1

[Events]
//Background and Video events
0,0,"bg.jpg",0,0
//Break Periods
2,42864,45235
2,88121,91864
//Storyboard Layer 0 (Background)
//Storyboard Layer 1 (Fail)
//Storyboard Layer 2 (Pass)
//Storyboard Layer 3 (Foreground)
//Storyboard Sound Samples

[TimingPoints]
2893,342.857142857143,4,1,1,70,1,0
57750,-100,4,1,2,70,0,1
67350,-100,4,2,2,70,0,0
82435,-100,4,2,2,70,0,0
98893,-100,4,2,2,70,0,1
117064,-100,4,2,2,70,0,0

[Colours]
Combo1 : 254,81,22
Combo2 : 102,255,179
Combo3 : 255,128,191
Combo4 : 74,74,74
Combo5 : 192,192,192
Combo6 : 255,0,0

[HitObjects]
4,160,2892,6,0,L|8:304,1,130,0|0,2:0|2:0,0:0:0:0:
56,344,3407,1,0,0:0:0:0:
56,344,3578,2,0,P|120:360|180:344,1,130,2|8,0:2|0:0,0:0:0:0:
244,312,4092,1,0,0:0:0:0:
244,312,4264,6,0,L|240:182,1,130,2|8,0:2|0:0,0:0:0:0:
283,124,4778,1,0,0:0:0:0:
283,124,4950,2,0,P|346:107|408:124,1,130,2|8,0:2|0:0,0:0:0:0:
464,166,5464,1,0,0:0:0:0:
464,166,5635,70,0,B|464:238|464:238|444:270,2,97.5,2|0|0,0:2|2:0|0:0,0:0:0:0:
462,94,6321,2,0,B|462:22|462:22|482:-10,2,97.5,2|0|0,0:2|2:0|0:0,0:0:0:0:
392,100,7007,6,0,P|357:66|322:47,2,65,0|2|8,0:0|0:2|0:0,0:0:0:0:
256,148,7693,2,0,P|207:146|169:156,2,65,0|2|8,0:0|0:2|0:0,0:0:0:0:
260,280,8378,70,0,P|228:284|196:280,2,65,0|2|8,0:0|0:2|0:0,0:0:0:0:
395,327,9064,2,0,P|373:351|347:371,2,65,0|2|8,0:0|0:2|0:0,0:0:0:0:
443,192,9750,6,0,P|479:188|507:195,2,65,0|2|8,0:0|0:2|0:0,0:0:0:0:
372,209,10264,1,2,0:2:0:0:
319,163,10435,2,0,L|189:148,1,130,2|2,0:2|0:2,0:0:0:0:
68,220,11121,70,0,B|60:156|60:156|68:120,2,97.5,2|0|2,1:0|2:0|0:2,0:0:0:0:
139,227,11807,2,0,B|164:167|164:167|199:143,2,97.5,2|0|2,1:0|2:0|0:2,0:0:0:0:
108,292,12493,6,0,P|92:324|72:348,2,65,8|2|0,0:0|0:2|0:0,0:0:0:0:
180,304,13007,1,0,0:0:0:0:
232,256,13178,2,0,P|300:249|368:260,1,130,10|2,1:1|0:0,0:0:0:0:
428,280,13693,1,2,0:0:0:0:
488,240,13864,70,0,B|516:196|516:196|512:104,1,130,4|8,0:0|0:0,0:0:0:0:
472,60,14378,1,0,0:2:0:0:
472,60,14550,2,0,B|428:32|428:32|336:36,1,130,4|8,0:0|0:0,0:0:0:0:
284,64,15064,1,0,0:2:0:0:
284,64,15235,6,0,P|216:80|148:56,1,130,4|8,0:0|0:0,0:0:0:0:
93,33,15750,1,0,0:2:0:0:
93,33,15921,2,0,P|77:101|101:169,1,130,4|8,0:0|0:0,0:0:0:0:
119,224,16435,1,0,0:2:0:0:
119,224,16607,70,0,P|126:255|120:287,2,65,4|0|8,0:0|0:0|0:0,0:0:0:0:
253,174,17293,2,0,P|275:197|285:227,2,65,4|0|8,0:0|0:0|0:0,0:0:0:0:
336,56,17978,2,0,P|366:65|391:86,2,65,4|0|8,0:0|0:0|0:0,0:0:0:0:
196,20,18664,1,4,0:0:0:0:
56,40,19007,1,8,0:0:0:0:
32,180,19350,6,0,P|24:220|24:252,1,65,6|0,0:0|0:0,0:0:0:0:
96,244,19693,2,0,P|109:282|125:310,1,65,6|0,0:0|0:0,0:0:0:0:
188,276,20035,2,0,P|218:302|246:318,1,65,6|0,0:0|0:0,0:0:0:0:
280,256,20378,1,10,0:0:0:0:
208,136,20721,70,0,P|200:96|200:64,1,65,6|0,0:0|0:0,0:0:0:0:
272,72,21064,2,0,P|285:34|301:6,1,65,6|0,0:0|0:0,0:0:0:0:
364,40,21406,2,0,P|394:14|422:-2,1,65,6|0,0:0|0:0,0:0:0:0:
456,60,21749,1,10,0:0:0:0:
508,192,22093,6,0,P|472:188|444:192,1,65,6|0,0:0|0:0,0:0:0:0:
376,208,22435,2,0,P|340:212|312:208,1,65,10|0,0:0|0:0,0:0:0:0:
240,192,22778,2,0,P|204:188|176:192,1,65,6|0,0:0|0:0,0:0:0:0:
104,208,23121,1,10,0:0:0:0:
52,340,23464,70,0,P|124:348|188:320,2,130,8|8|8,0:2|0:2|0:2,0:0:0:0:
104,208,24493,1,12,0:0:0:0:
28,88,24835,6,0,P|72:40|176:92,1,195,0|0,0:0|0:0,0:0:0:0:
192,156,25521,2,0,P|265:211|338:157,1,195,4|0,0:0|1:0,0:0:0:0:
352,84,26207,70,0,L|364:-8,2,65,8|0|0,1:0|0:0|0:0,0:0:0:0:
396,140,26721,1,0,0:0:0:0:
440,196,26893,2,0,L|420:332,1,130,4|0,0:0|0:0,0:0:0:0:
280,352,27578,6,0,L|196:344,1,65,8|0,0:0|0:0,0:0:0:0:
144,357,27921,2,0,L|60:349,1,65,12|0,0:0|0:0,0:0:0:0:
32,296,28264,2,0,P|33:253|48:223,1,65,2|2,0:2|0:2,0:0:0:0:
76,168,28607,1,2,2:0:0:0:
192,252,28950,70,0,B|228:243|256:259|256:259|284:243|324:251,1,130,2|2,0:0|0:0,0:0:0:0:
388,240,29464,2,0,P|392:200|388:176,1,65,8|0,0:0|0:0,0:0:0:0:
376,104,29807,2,0,P|396:92|452:88,2,65,2|2|8,0:0|0:0|0:0,0:0:0:0:
252,20,30493,6,0,P|208:20|180:28,1,65,2|2,0:0|0:0,0:0:0:0:
136,76,30835,2,0,L|128:216,1,130,8|8,0:0|0:0,0:0:0:0:
124,276,31350,1,12,0:0:0:0:
268,272,31693,70,0,B|380:276|380:276|420:260|420:208,1,195,0|0,0:0|0:0,0:0:0:0:
420,140,32378,2,0,B|420:89|380:73|380:73|268:77,1,195,4|0,0:0|1:0,0:0:0:0:
196,80,33064,6,0,P|184:28|192:4,2,65,8|0|0,1:0|0:0|0:0,0:0:0:0:
160,140,33578,1,0,0:0:0:0:
128,204,33750,2,0,L|144:340,1,130,4|0,0:0|0:0,0:0:0:0:
288,340,34435,70,0,L|272:204,2,130,8|8|4,0:0|0:0|0:0,0:0:0:0:
360,356,35293,1,4,0:0:0:0:
428,332,35464,1,12,0:0:0:0:
408,190,35807,6,0,L|344:198,1,65,2|0,0:0|0:0,0:0:0:0:
272,210,36150,1,2,0:0:0:0:
232,150,36321,2,0,P|218:105|220:62,1,65,8|0,0:0|0:0,0:0:0:0:
232,18,36664,2,0,P|184:6|156:10,2,65,2|2|8,0:0|0:0|0:0,0:0:0:0:
92,56,37350,70,0,P|92:104|100:140,1,65,2|2,0:0|0:0,0:0:0:0:
128,184,37693,2,0,L|264:200,1,130,8|4,0:0|0:0,0:0:0:0:
468,228,38550,6,0,B|497:143|497:143|473:38,1,195,0|0,0:0|0:0,0:0:0:0:
402,27,39235,2,0,B|347:118|347:118|349:207,1,195,4|0,0:0|1:0,0:0:0:0:
352,280,39921,70,0,P|333:316|313:341,1,65,8|0,1:0|0:0,0:0:0:0:
262,291,40264,2,0,P|226:313|197:325,1,65,0|0,0:0|0:0,0:0:0:0:
178,255,40607,1,4,0:0:0:0:
108,132,40950,1,0,0:0:0:0:
244,172,41293,6,0,L|240:40,2,130,2|2|6,0:0|0:0|0:0,0:0:0:0:
384,140,42321,1,2,0:0:0:0:
480,32,42664,5,2,0:2:0:0:
420,336,46435,85,2,0:1:0:0:
420,336,46778,54,0,P|356:348|272:336,1,130,2|2,0:0|0:0,0:0:0:0:
188,240,47464,2,0,P|232:228|332:240,1,130,2|2,0:0|0:0,0:0:0:0:
460,236,48150,6,0,B|468:172|468:172|460:104,1,130,2|2,0:0|0:0,0:0:0:0:
344,24,48835,2,0,B|336:88|336:88|344:156,1,130,2|2,0:0|0:0,0:0:0:0:
320,296,49521,70,0,L|248:284,1,65,2|0,0:0|0:0,0:0:0:0:
192,320,49864,2,0,B|136:308|136:308|56:328,2,130,2|2|2,0:0|0:0|0:0,0:0:0:0:
228,181,50893,6,0,L|153:170,1,65,2|0,0:0|0:0,0:0:0:0:
95,151,51235,2,0,B|82:114|92:73|92:72,1,65,2|0,0:0|0:0,0:0:0:0:
129,27,51578,1,2,0:0:0:0:
268,24,51921,1,12,0:0:0:0:
384,108,52264,70,0,P|419:129|443:151,1,65,6|0,0:0|0:0,0:0:0:0:
389,196,52607,2,0,P|408:231|418:262,1,65
352,284,52949,2,0,P|351:323|344:355,1,65,2|0,0:0|0:0,0:0:0:0:
276,340,53292,1,0,0:0:0:0:
144,284,53635,6,0,P|109:263|85:241,1,65,6|0,0:0|0:0,0:0:0:0:
139,196,53978,2,0,P|120:161|110:130,1,65
176,108,54321,2,0,P|177:69|184:37,1,65,2|0,0:0|0:0,0:0:0:0:
252,52,54664,1,0,0:0:0:0:
396,60,55007,70,0,P|385:96|362:125,1,65,6|0,0:0|0:0,0:0:0:0:
390,188,55350,2,0,P|360:212|325:222,1,65
305,288,55693,2,0,P|268:291|232:279,1,65,2|0,0:0|0:0,0:0:0:0:
178,320,56036,2,0,P|146:301|124:270,1,65
56,285,56378,5,6,0:0:0:0:
12,76,57750,70,0,P|48:88|80:84,1,65,6|0,0:0|0:0,0:0:0:0:
140,52,58093,2,0,P|176:40|208:44,1,65,0|0,0:0|0:0,0:0:0:0:
264,78,58435,2,0,P|322:87|402:72,1,130,8|0,0:0|0:0,0:0:0:0:
504,168,59121,6,0,P|429:172|388:212,1,130,2|0,0:0|3:0,0:0:0:0:
376,280,59635,2,0,P|372:324|376:352,2,65,2|8|2,0:0|0:0|0:0,0:0:0:0:
316,240,60150,1,12,0:0:0:0:
316,240,60493,70,0,B|302:206|302:206|272:170,1,65,2|0,0:0|0:0,0:0:0:0:
213,200,60836,2,0,B|177:192|177:192|130:196,1,65,0|0,0:0|0:0,0:0:0:0:
80,208,61178,2,0,P|32:232|36:320,1,130,8|0,0:0|0:0,0:0:0:0:
144,380,61864,6,0,L|220:372,1,65,2|2,0:0|3:0,0:0:0:0:
280,360,62207,2,0,B|312:308|312:308|316:228,1,130,2|8,3:0|0:0,0:0:0:0:
308,96,62893,1,2,0:1:0:0:
308,96,63235,70,0,P|277:70|235:58,1,65,2|0,0:0|0:0,0:0:0:0:
184,48,63578,2,0,P|145:41|102:51,1,65,0|0,0:0|0:0,0:0:0:0:
56,73,63921,2,0,P|32:132|56:196,1,130,8|0,0:0|0:0,0:0:0:0:
140,304,64607,6,0,B|192:344|192:344|260:344|260:344|312:304,1,195,2|0,0:0|0:0,0:0:0:0:
360,256,65293,2,0,B|384:204|384:204|384:120,1,130,8|6,0:0|0:0,0:0:0:0:
508,64,65978,69,8,0:0:0:0:
504,208,66321,1,8,0:0:0:0:
384,131,66664,2,0,P|350:123|304:132,1,65,2|8,0:0|0:0,0:0:0:0:
260,164,67007,1,2,0:0:0:0:
176,48,67350,6,0,P|104:32|40:52,1,130,2|12,0:0|0:1,0:0:0:0:
4,108,67864,1,0,0:0:0:0:
4,108,68035,2,0,L|12:248,1,130,2|12,0:0|0:1,0:0:0:0:
64,288,68550,1,0,0:0:0:0:
64,288,68721,70,0,P|126:302|189:285,1,130,2|12,0:0|0:1,0:0:0:0:
252,256,69235,1,0,0:0:0:0:
252,256,69407,2,0,P|314:241|377:258,1,130,2|12,0:0|0:1,0:0:0:0:
435,299,69921,1,0,0:0:0:0:
488,348,70093,5,2,0:0:0:0:
496,204,70435,1,12,0:1:0:0:
420,84,70778,2,0,P|380:88|340:104,1,65,2|0,0:0|0:0,0:0:0:0:
288,116,71121,1,12,0:1:0:0:
144,128,71464,70,0,P|104:124|64:108,1,65,2|0,0:0|0:0,0:0:0:0:
24,76,71807,1,12,0:1:0:0:
156,16,72150,2,0,P|188:16|220:23,1,65,2|0,0:0|0:0,0:0:0:0:
284,56,72493,1,12,0:1:0:0:
248,176,72835,6,0,P|248:236|356:224,1,195,2|0,0:0|0:0,0:0:0:0:
384,164,73521,2,0,P|465:133|490:216,1,195,2|0,0:0|0:0,0:0:0:0:
460,284,74207,69,2,0:0:0:0:
348,372,74550,1,12,0:1:0:0:
212,328,74893,2,0,P|204:280|208:256,1,65,2|0,0:0|0:0,0:0:0:0:
220,196,75235,1,12,0:1:0:0:
148,72,75578,6,0,P|96:72|72:80,1,65,2|0,0:0|0:0,0:0:0:0:
20,108,75921,1,12,0:1:0:0:
28,252,76264,2,0,P|76:223|92:220,1,65,2|0,0:0|0:0,0:0:0:0:
156,204,76607,1,12,0:1:0:0:
288,216,76950,70,0,B|368:272|368:272|452:216,1,195,2|0,0:0|0:0,0:0:0:0:
448,148,77635,2,0,B|367:94|367:94|287:150,1,195,2|0,0:0|0:0,0:0:0:0:
228,192,78321,5,2,0:0:0:0:
164,320,78664,1,8,0:0:0:0:
48,236,79007,2,0,P|40:188|48:160,1,65,2|0,0:0|0:0,0:0:0:0:
60,104,79350,1,12,0:1:0:0:
188,40,79693,70,0,P|236:48|264:44,1,65,2|0,0:0|0:0,0:0:0:0:
324,36,80035,1,12,0:1:0:0:
428,132,80378,2,0,P|404:165|378:184,1,65,2|0,0:0|0:0,0:0:0:0:
328,224,80721,1,12,0:1:0:0:
208,240,81064,6,0,B|152:228|152:228|72:240,1,130,2|12,0:0|0:1,0:0:0:0:
144,368,81750,1,2,0:0:0:0:
208,240,82093,2,0,P|212:196|208:168,1,65,12|12,0:1|0:1,0:0:0:0:
200,104,82435,53,14,0:0:0:0:
336,60,82778,2,0,P|384:60|408:68,1,65,2|2,0:0|0:0,0:0:0:0:
464,100,83121,2,0,B|476:152|476:152|472:240,1,130,8|8,0:0|0:0,0:0:0:0:
364,324,83807,69,14,0:0:0:0:
228,368,84150,2,0,P|180:368|156:360,1,65,2|2,0:0|0:0,0:0:0:0:
100,328,84493,2,0,B|88:276|88:276|92:188,1,130,8|8,0:0|0:0,0:0:0:0:
100,56,85178,6,0,P|128:44|168:40,1,65,6|6,0:0|0:0,0:0:0:0:
232,40,85521,1,14,0:0:0:0:
344,132,85864,70,0,P|372:144|412:148,1,65,6|6,0:0|0:0,0:0:0:0:
472,124,86207,1,6,0:0:0:0:
472,268,86550,6,0,P|440:272|400:268,1,65,2|2,0:0|0:0,0:0:0:0:
344,232,86893,2,0,P|308:228|260:244,1,65,2|2,0:0|0:0,0:0:0:0:
224,276,87235,2,0,B|172:288|172:288|84:276,1,130,2|2,0:0|0:0,0:0:0:0:
12,152,87921,69,2,0:0:0:0:
96,60,93064,21,12,0:0:0:0:
96,60,93407,6,0,P|134:73|162:89,1,65,6|2,0:0|0:0,0:0:0:0:
119,144,93750,2,0,P|144:174|161:202,1,65,2|2,0:0|0:0,0:0:0:0:
101,238,94092,2,0,P|108:276|107:309,1,65,2|2,0:0|0:0,0:0:0:0:
38,308,94435,1,2,0:0:0:0:
35,167,94778,70,0,P|48:129|64:101,1,65,6|2,0:0|0:0,0:0:0:0:
119,144,95121,2,0,P|149:119|177:102,1,65,2|2,0:0|0:0,0:0:0:0:
213,162,95463,2,0,P|251:155|284:156,1,65,2|2,0:0|0:0,0:0:0:0:
283,225,95806,1,2,0:0:0:0:
428,216,96150,6,0,P|421:178|402:146,1,65,2|2,0:0|0:0,0:0:0:0:
369,97,96493,2,0,P|342:68|308:54,1,65,2|2,0:0|0:0,0:0:0:0:
251,35,96836,2,0,P|214:26|177:33,1,65,2|2,0:0|0:0,0:0:0:0:
120,48,97179,2,0,P|85:62|60:89,1,65,2|0,0:0|0:0,0:0:0:0:
20,136,97521,21,12,3:0:0:0:
436,176,98550,1,8,0:0:0:0:
436,176,98893,22,0,B|404:184|404:184|368:180,1,65,2|0,0:0|0:0,0:0:0:0:
340,116,99235,2,0,B|308:108|308:108|272:112,1,65,8|0,0:0|0:0,0:0:0:0:
240,176,99578,2,0,B|208:184|208:184|172:180,1,65,2|2,0:0|0:0,0:0:0:0:
132,124,99921,2,0,B|100:116|100:116|60:120,1,65,8|0,0:0|0:0,0:0:0:0:
24,176,100264,70,0,L|36:320,1,130,2|10,0:0|0:0,0:0:0:0:
96,340,100778,1,2,3:0:0:0:
164,316,100950,1,2,0:0:0:0:
308,328,101293,2,0,P|336:328|376:336,1,65,8|0,0:0|0:0,0:0:0:0:
444,348,101635,6,0,P|437:310|418:278,1,65,2|0,0:0|0:0,0:0:0:0:
452,218,101978,2,0,P|425:189|391:175,1,65,8|0,0:0|0:0,0:0:0:0:
380,110,102321,2,0,P|343:101|306:108,1,65,2|2,0:0|0:0,0:0:0:0:
258,62,102664,2,0,P|223:76|198:103,1,65,8|0,0:0|0:0,0:0:0:0:
133,83,103007,70,0,L|116:236,1,130,2|8,0:0|0:0,0:0:0:0:
104,356,103693,1,2,0:0:0:0:
216,268,104035,1,8,0:0:0:0:
328,364,104378,6,0,L|332:296,1,65,2|0,0:0|0:0,0:0:0:0:
404,296,104721,2,0,L|408:228,1,65,8|0,0:0|0:0,0:0:0:0:
340,212,105064,2,0,L|344:144,1,65,2|2,0:0|0:0,0:0:0:0:
416,144,105407,2,0,L|420:76,1,65,8|0,0:0|0:0,0:0:0:0:
348,64,105750,54,0,B|276:52|276:52|244:52|220:72|220:72|196:52|164:52|164:52|92:68,1,260,2|2,0:0|0:0,0:0:0:0:
44,108,106607,1,2,0:0:0:0:
40,180,106778,1,0,0:0:0:0:
72,312,107121,54,0,P|102:338|131:354,1,65,2|0,0:0|0:0,0:0:0:0:
157,289,107464,2,0,P|196:296|228:296,1,65,2|0,0:0|0:0,0:0:0:0:
229,227,107806,2,0,P|265:213|294:197,1,65,2|0,0:0|0:0,0:0:0:0:
259,137,108149,1,2,0:0:0:0:
259,137,108493,70,0,B|320:152|320:152|400:144,1,130,6|8,1:0|0:0,0:0:0:0:
480,36,109178,2,0,P|448:20|400:12,2,65,2|2|8,1:0|1:0|0:0,0:0:0:0:
488,180,109864,6,0,P|472:244|488:320,1,130,6|8,1:0|0:0,0:0:0:0:
352,364,110550,2,0,P|312:372|280:368,2,65,2|2|8,1:0|1:0|0:0,0:0:0:0:
312,228,111235,38,0,B|304:176|304:176|308:152|308:152|300:96,1,130,2|10,0:0|0:0,0:0:0:0:
168,155,111921,1,10,0:0:0:0:
54,239,112264,2,0,B|51:275|51:275|62:312,1,65,10|10,0:0|0:0,0:0:0:0:
100,361,112607,22,0,P|168:381|236:353,1,130,6|8,1:0|0:0,0:0:0:0:
350,299,113293,2,0,P|358:263|358:223,1,65,2|2,1:0|1:0,0:0:0:0:
355,163,113635,1,8,0:0:0:0:
241,75,113978,6,0,B|181:67|181:67|105:83,1,130,6|8,1:0|0:0,0:0:0:0:
13,184,114664,2,0,B|5:220|5:220|9:256,1,65,2|2,1:0|1:0,0:0:0:0:
27,317,115007,1,8,0:0:0:0:
168,339,115350,38,0,L|304:347,1,130,8|8,0:0|0:0,0:0:0:0:
369,351,115864,1,8,0:0:0:0:
436,328,116035,2,0,P|441:285|432:255,1,65,8|0,0:0|0:0,0:0:0:0:
424,192,116378,1,8,0:0:0:0:
392,52,116721,1,12,0:0:0:0:
392,52,117064,69,6,0:0:0:0:
